osu file format v14

[General]
AudioFilename: audio.mp3
AudioLeadIn: 0
PreviewTime: 37917
Countdown: 0
SampleSet: Soft
StackLeniency: 0.7
Mode: 0
LetterboxInBreaks: 0
WidescreenStoryboard: 1

[Editor]
DistanceSpacing: 0.6
BeatDivisor: 4
GridSize: 32
TimelineZoom: 2.1

[Metadata]
Title:Connecting Happy!!
TitleUnicode:Connecting Happy!!
Artist:Pecorine (CV: M.A.O), Kokkoro (CV: Itou Miku), Karyl (CV: Tachibana Rika)
ArtistUnicode:ペコリーヌ(CV:M・A・O)、コッコロ(CV:伊藤美来)、キャル(CV:立花理香)
Creator:PikAqours
Version:Kowari's Insane!!
Source:プリンセスコネクト!Re:Dive
Tags:princess connect cygames priconne rpg ending ed kyaru japanese pop jpop j-pop video game kowari
BeatmapID:3568874
BeatmapSetID:1699189

[Difficulty]
HPDrainRate:5
CircleSize:3.9
OverallDifficulty:8
ApproachRate:8.7
SliderMultiplier:1.6
SliderTickRate:1

[Events]
//Background and Video events
0,0,"bg.jpg",0,0
//Break Periods
//Storyboard Layer 0 (Background)
//Storyboard Layer 1 (Fail)
//Storyboard Layer 2 (Pass)
//Storyboard Layer 3 (Foreground)
//Storyboard Layer 4 (Overlay)
//Storyboard Sound Samples

[TimingPoints]
747,329.67032967033,4,2,1,40,1,0
747,-125,4,2,1,40,0,0
2065,-100,4,2,1,30,0,0
3384,-142.857142857143,4,2,1,40,0,0
4043,-83.3333333333333,4,2,1,60,0,0
4703,-100,4,2,1,60,0,0
14593,-100,4,2,1,60,0,0
15252,-125,4,2,1,50,0,0
24483,-100,4,2,1,60,0,0
25637,-100,4,2,1,50,0,0
25801,-100,4,2,1,50,0,0
30911,-100,4,2,1,60,0,0
33714,-100,4,2,1,60,0,0
38659,-83.3333333333333,4,2,1,75,0,0
38906,-83.3333333333333,4,2,1,75,0,0
38988,-100,4,2,1,75,0,0
41873,-100,4,2,1,50,0,0
41955,-100,4,2,1,75,0,0
46158,-100,4,2,1,50,0,0
46240,-100,4,2,1,75,0,0
46488,-100,4,2,1,50,0,0
46571,-100,4,2,1,75,0,0
51103,-100,4,2,1,50,0,0
51186,-100,4,2,1,75,0,0
54153,-100,4,2,1,75,0,0
54812,-100,4,2,1,60,0,0
65362,-100,4,2,1,60,0,0
69977,-100,4,2,1,60,0,0
70637,-100,4,2,1,50,0,0
71626,-83.3333333333333,4,2,1,50,0,0
71955,-100,4,2,1,60,0,0
82834,-243.902439024391,4,2,1,50,0,0
83494,-243.902439024391,4,2,1,45,0,0
84153,-243.902439024391,4,2,1,40,0,0
84812,-243.902439024391,4,2,1,35,0,0
85472,-243.902439024391,4,2,1,30,0,0
86131,-243.902439024391,4,2,1,25,0,0
86790,-243.902439024391,4,2,1,20,0,0
87450,-243.902439024391,4,2,1,15,0,0
88109,-243.902439024391,4,2,1,10,0,0
88439,-243.902439024391,4,2,1,5,0,0

[Colours]
Combo1 : 255,147,201
Combo2 : 173,91,255

[HitObjects]
65,61,747,5,2,0:2:0:0:
145,81,911,1,0,0:0:0:0:
93,151,1076,1,0,0:0:0:0:
69,47,1241,5,2,0:2:0:0:
161,94,1406,1,0,0:0:0:0:
82,160,1571,1,0,0:0:0:0:
228,219,1736,5,2,0:2:0:0:
228,219,1900,2,0,B|265:212|275:204|275:204|323:214|373:196,1,128,2|0,0:2|0:0,0:0:0:0:
412,158,2394,1,2,0:0:0:0:
485,169,2560,1,0,0:0:0:0:
512,239,2725,1,0,0:0:0:0:
459,291,2889,1,0,0:0:0:0:
389,266,3054,1,0,0:0:0:0:
347,199,3219,5,0,0:0:0:0:
347,199,3301,1,0,0:0:0:0:
347,199,3384,2,0,B|271:178|265:210|176:183,1,167.999994873047,2|0,0:0|0:0,0:0:0:0:
88,106,4043,6,0,L|76:170,1,47.9999985351563,8|8,0:2|0:2,0:0:0:0:
90,293,4208,1,0,1:2:0:0:
90,293,4290,1,0,1:2:0:0:
90,293,4373,2,0,P|44:284|-4:262,1,95.9999970703126,8|8,0:2|0:2,0:0:0:0:
33,378,4620,5,8,0:2:0:0:
42,384,4703,2,0,B|94:371|94:371|145:378|145:378|214:362,1,160,4|10,1:2|0:2,0:0:0:0:
375,295,5197,2,0,P|325:281|269:271,1,80,2|0,0:2|1:2,0:0:0:0:
147,175,5527,2,0,P|158:230|161:260,1,80,2|8,0:2|0:2,0:0:0:0:
354,180,5856,5,2,0:2:0:0:
354,180,5939,1,2,0:0:0:0:
354,180,6021,2,0,P|353:116|273:45,1,160,0|10,1:2|0:2,0:0:0:0:
160,14,6516,1,2,0:2:0:0:
97,149,6681,2,0,P|48:157|-4:168,1,80,2|2,1:2|0:0,0:0:0:0:
47,52,7010,1,10,0:2:0:0:
187,198,7175,5,2,0:2:0:0:
187,198,7257,1,2,0:0:0:0:
187,198,7340,2,0,B|216:258|170:310|170:310|163:247,1,160,2|10,1:2|0:2,0:0:0:0:
298,199,7834,2,0,P|352:184|398:177,1,80,2|0,0:2|1:2,0:0:0:0:
217,91,8164,2,0,P|172:78|119:60,1,80,2|10,0:2|0:2,0:0:0:0:
396,0,8494,6,0,P|415:47|386:154,1,160,2|2,0:2|0:2,0:0:0:0:
290,225,8988,1,10,0:2:0:0:
445,281,9153,1,2,0:2:0:0:
339,345,9318,1,2,1:2:0:0:
392,177,9483,1,8,0:2:0:0:
362,370,9648,1,10,1:2:0:0:
219,267,9812,5,2,1:2:0:0:
219,267,9895,1,0,1:2:0:0:
219,267,9977,2,0,P|159:253|105:248,1,80,6|2,1:2|0:2,0:0:0:0:
145,362,10307,1,10,0:2:0:0:
212,158,10472,2,0,B|263:153|308:198|308:198|335:159|375:149,1,160,2|2,0:2|0:2,0:0:0:0:
219,267,10966,1,10,0:2:0:0:
129,57,11131,6,0,P|115:115|109:152,1,80,2|0,0:2|1:2,0:0:0:0:
122,306,11461,1,2,0:2:0:0:
14,207,11626,1,10,0:2:0:0:
39,378,11790,1,2,0:2:0:0:
190,197,11955,2,0,P|242:184|331:256,1,160,2|10,1:2|0:2,0:0:0:0:
360,359,12450,1,2,0:2:0:0:
502,273,12615,5,14,0:2:0:0:
441,136,12779,2,0,P|428:197|426:241,1,80,2|2,1:2|1:2,0:0:0:0:
341,41,13109,1,10,0:2:0:0:
264,176,13274,1,2,1:2:0:0:
395,147,13439,1,2,1:2:0:0:
224,62,13604,6,0,B|182:54|182:54|154:57|154:57|116:34|56:32,1,160,10|2,0:2|1:2,0:0:0:0:
190,169,14098,2,0,P|199:217|205:255,1,80,10|2,0:2|1:2,0:0:0:0:
45,351,14428,1,2,1:2:0:0:
92,210,14593,1,10,0:2:0:0:
193,294,14757,1,2,1:2:0:0:
86,173,14922,1,10,0:2:0:0:
139,367,15087,5,10,0:2:0:0:
139,367,15170,1,8,0:2:0:0:
139,367,15252,2,0,B|182:354|182:354|237:365|282:342,1,128,4|2,1:2|1:2,0:0:0:0:
348,279,15747,1,0,0:0:0:0:
233,242,15911,2,0,P|213:195|230:108,1,128,2|0,1:2|1:2,0:0:0:0:
223,120,16406,1,0,0:0:0:0:
202,10,16571,6,0,P|252:27|289:36,1,64,2|0,1:2|0:0,0:0:0:0:
383,16,16900,1,2,1:2:0:0:
383,16,17065,2,0,P|362:54|352:87,1,64,2|0,0:2|1:2,0:0:0:0:
285,182,17395,2,0,P|277:140|267:105,1,64,2|0,0:2|1:2,0:0:0:0:
393,263,17725,6,0,B|365:260|348:253|348:253|299:275|261:267,1,128,2|2,0:2|0:2,0:0:0:0:
191,174,18219,2,0,P|183:212|174:244,1,64,2|0,1:2|0:0,0:0:0:0:
77,317,18549,2,0,P|58:274|93:197,2,128,2|2|2,1:2|1:2|1:2,0:0:0:0:
153,374,19373,6,0,P|191:363|222:358,1,64,0|2,0:0|1:2,0:0:0:0:
321,287,19703,2,0,B|273:277|273:277|244:280|244:280|183:268,1,128,2|0,0:2|0:0,0:0:0:0:
104,202,20197,1,2,1:2:0:0:
220,165,20362,1,2,0:2:0:0:
149,88,20527,6,0,P|142:45|139:0,1,64,4|0,1:2|0:0,0:0:0:0:
250,79,20856,2,0,P|292:93|325:98,1,64,2|0,1:2|0:0,0:0:0:0:
156,182,21186,2,0,P|116:192|87:204,1,64,2|0,1:2|0:0,0:0:0:0:
269,252,21516,2,0,P|262:209|259:164,1,64,2|0,1:2|0:0,0:0:0:0:
134,275,21845,6,0,P|124:329|181:391,1,128,2|2,1:2|1:2,0:0:0:0:
286,330,22340,2,0,B|350:316|359:338|442:320,1,128,2|0,0:2|0:0,0:0:0:0:
512,248,22834,2,0,P|463:238|440:232,1,64,0|2,1:2|0:2,0:0:0:0:
340,151,23164,6,0,P|349:198|357:231,1,64,0|0,1:2|0:0,0:0:0:0:
448,115,23494,2,0,P|459:80|473:46,1,64,2|2,1:2|0:2,0:0:0:0:
385,2,23823,1,2,1:2:0:0:
336,73,23988,1,0,0:0:0:0:
259,15,24153,2,0,B|207:2|184:-3,1,64,2|2,1:2|0:2,0:0:0:0:
14,129,24483,5,6,1:2:0:0:
143,94,24648,1,2,0:2:0:0:
45,5,24812,1,2,1:2:0:0:
112,216,24977,6,0,B|140:273|103:336|103:336|98:291,1,160,10|8,0:2|0:2,0:0:0:0:
219,223,25472,2,0,P|262:209|306:201,1,80,8|8,0:3|0:3,0:0:0:0:
77,112,25801,6,0,P|27:103|-10:91,1,80,4|0,1:2|0:0,0:0:0:0:
209,0,26131,2,0,P|190:59|184:91,1,80,10|0,0:2|1:2,0:0:0:0:
271,187,26461,1,2,0:2:0:0:
330,72,26626,1,0,1:2:0:0:
428,145,26790,2,0,P|486:135|524:123,1,80,10|0,0:2|0:0,0:0:0:0:
405,329,27120,5,2,1:2:0:0:
326,243,27285,2,0,P|314:200|311:150,1,80,0|10,0:0|0:2,0:0:0:0:
499,355,27615,2,0,P|440:342|345:391,1,160,2|0,1:2|1:2,0:0:0:0:
210,257,28109,2,0,P|257:268|299:276,1,80,10|0,0:2|0:0,0:0:0:0:
94,377,28439,6,0,B|101:334|114:313|114:313|94:271|113:214,1,160,2|8,1:2|0:2,0:0:0:0:
186,120,28933,1,0,1:2:0:0:
278,207,29098,2,0,P|334:200|383:190,1,80,2|0,0:2|1:0,0:0:0:0:
189,86,29427,2,0,P|149:79|109:74,1,80,8|2,0:2|0:2,0:0:0:0:
287,2,29757,5,0,1:0:0:0:
331,111,29922,1,0,1:2:0:0:
419,19,30087,1,10,0:2:0:0:
381,203,30252,2,0,B|364:259|364:259|367:301|367:301|349:370,1,160,0|0,1:2|1:2,0:0:0:0:
475,249,30747,1,10,0:2:0:0:
259,306,30911,6,0,P|202:312|114:250,1,160,6|2,1:2|1:2,0:0:0:0:
17,153,31406,2,0,P|81:137|117:129,1,80,10|0,0:2|0:0,0:0:0:0:
236,63,31736,1,2,1:2:0:0:
106,7,31900,1,8,0:2:0:0:
128,150,32065,1,8,0:2:0:0:
345,0,32230,6,0,B|344:21|328:50|328:50|338:102|312:165,1,160,6|2,1:2|1:2,0:0:0:0:
233,343,32725,2,0,P|224:289|219:245,1,80,10|0,0:2|0:0,0:0:0:0:
434,205,33054,1,2,1:2:0:0:
335,294,33219,1,8,0:2:0:0:
469,333,33384,1,8,0:2:0:0:
469,333,33549,1,0,1:2:0:0:
301,186,33714,6,0,B|230:157|216:194|125:159,1,160,14|8,0:2|0:2,0:0:0:0:
236,271,34208,1,2,1:2:0:0:
201,73,34373,2,0,P|149:53|107:39,1,80,10|0,0:2|1:2,0:0:0:0:
318,4,34703,1,8,0:2:0:0:
306,168,34867,1,0,1:2:0:0:
121,163,35032,6,0,P|67:175|10:230,1,120,10|0,0:2|0:0,0:0:0:0:
3,253,35362,2,0,P|13:306|25:351,1,80,8|2,0:2|1:2,0:0:0:0:
207,375,35692,1,10,0:2:0:0:
111,261,35856,1,2,1:2:0:0:
273,218,36021,1,8,0:2:0:0:
198,120,36186,1,2,1:2:0:0:
230,356,36351,5,14,0:2:0:0:
349,304,36516,2,0,P|404:293|441:288,1,80,0|0,1:2|1:2,0:0:0:0:
228,203,36845,5,14,0:2:0:0:
131,145,37010,2,0,P|82:131|45:122,1,80,0|0,1:2|1:2,0:0:0:0:
321,61,37340,5,8,0:2:0:0:
236,184,37505,1,2,1:2:0:0:
191,0,37670,1,8,0:2:0:0:
191,0,38494,2,0,L|178:68,1,40,0|0,1:2|1:2,0:0:0:0:
129,173,38659,6,0,B|71:188|40:131|40:131|92:146,1,143.999995605469,14|0,1:2|0:0,0:0:0:0:
140,265,38988,6,0,B|174:258|202:239|202:239|250:252|297:240,1,160,6|8,1:2|0:2,0:0:0:0:
469,169,39483,2,0,P|403:156|371:143,1,80,2|0,1:2|0:0,0:0:0:0:
256,43,39812,2,0,P|267:101|270:141,1,80,2|8,1:2|0:2,0:0:0:0:
224,328,40142,5,2,0:2:0:0:
224,328,40225,1,0,0:0:0:0:
224,328,40307,2,0,P|294:359|350:341,1,120,0|0,1:0|0:0,0:0:0:0:
360,323,40637,2,0,P|409:338|442:350,1,80,10|0,0:2|1:2,0:0:0:0:
227,227,40966,2,0,P|180:237|133:250,1,80,2|0,0:2|1:2,0:0:0:0:
356,121,41296,2,0,P|342:181|337:227,1,80,10|0,0:2|0:0,0:0:0:0:
85,346,41626,6,0,P|45:296|55:187,1,160,2|10,1:2|0:2,0:0:0:0:
151,96,42120,2,0,P|159:155|167:193,1,80,2|0,1:2|0:0,0:0:0:0:
40,77,42450,1,2,1:2:0:0:
259,114,42615,2,0,P|302:105|357:86,1,80,8|0,0:2|0:0,0:0:0:0:
489,4,42944,5,0,1:2:0:0:
447,180,43109,1,2,0:2:0:0:
354,75,43274,1,10,0:2:0:0:
488,274,43439,2,0,B|430:266|430:266|390:278|390:278|311:271,1,160,2|2,1:2|1:2,0:0:0:0:
192,184,43933,2,0,P|208:238|217:283,1,80,10|2,0:2|0:2,0:0:0:0:
41,350,44263,5,4,1:2:0:0:
108,254,44428,1,2,0:2:0:0:
26,151,44593,2,0,P|37:98|46:62,1,80,10|0,0:2|1:2,0:0:0:0:
231,16,44922,1,2,0:2:0:0:
143,123,45087,1,2,1:2:0:0:
265,196,45252,2,0,P|325:210|360:215,1,80,10|0,0:2|0:0,0:0:0:0:
500,72,45582,5,2,1:2:0:0:
348,122,45747,1,2,0:2:0:0:
393,0,45911,1,8,0:2:0:0:
457,185,46076,2,0,B|470:245|431:298|431:298|432:242,1,160,2|2,1:2|1:2,0:0:0:0:
298,183,46571,2,0,P|257:171|221:165,1,80,10|2,0:2|0:2,0:0:0:0:
54,320,46900,5,0,1:2:0:0:
197,285,47065,1,2,0:2:0:0:
98,207,47230,2,0,P|87:149|82:113,1,80,10|0,0:2|1:2,0:0:0:0:
279,18,47560,1,2,0:2:0:0:
212,146,47725,1,2,1:2:0:0:
133,42,47889,1,10,0:2:0:0:
133,42,48054,1,0,1:2:0:0:
321,122,48219,5,10,0:2:0:0:
398,43,48384,2,0,P|455:27|506:22,1,80,2|2,1:2|1:2,0:0:0:0:
368,272,48714,5,10,0:2:0:0:
238,214,48878,2,0,P|185:202|156:196,1,80,0|0,1:2|1:2,0:0:0:0:
326,375,49208,5,8,0:2:0:0:
384,169,49373,1,8,0:2:0:0:
384,169,49455,1,8,0:2:0:0:
384,169,49538,2,0,B|433:157|485:189|485:189|495:166|520:131,1,160,14|10,0:2|0:2,0:0:0:0:
324,363,50032,2,0,P|286:300|292:196,1,160,2|2,1:2|1:2,0:0:0:0:
387,274,50527,2,0,P|431:281|481:284,1,80,8|2,0:2|0:2,0:0:0:0:
187,257,50856,6,0,P|100:275|63:284,1,120,0|0,1:2|0:0,0:0:0:0:
36,277,51186,2,0,P|27:338|24:374,1,80,10|0,0:2|1:2,0:0:0:0:
102,101,51516,2,0,P|117:161|127:195,1,80,2|0,0:2|1:2,0:0:0:0:
273,340,51845,2,0,P|298:294|280:205,1,120,10|0,0:2|0:0,0:0:0:0:
262,201,52175,6,0,B|205:191|205:191|163:198|163:198|95:184,1,160,6|10,1:2|0:2,0:0:0:0:
0,83,52670,2,0,P|48:74|107:61,1,80,6|0,1:2|0:0,0:0:0:0:
233,8,52999,1,2,1:2:0:0:
185,155,53164,1,8,0:2:0:0:
334,87,53329,6,0,B|373:78|406:85|406:85|434:60|499:49,1,160,6|0,1:2|1:2,0:0:0:0:
282,269,53823,2,0,P|271:210|266:169,1,80,8|0,0:2|1:2,0:0:0:0:
389,363,54153,5,12,0:2:0:0:
128,260,54400,5,12,0:2:0:0:
341,97,54648,5,12,0:2:0:0:
241,17,54812,6,0,P|219:60|247:160,1,120,0|0,1:0|0:0,0:0:0:0:
256,159,55142,2,0,P|314:152|360:142,1,80,10|0,0:2|0:0,0:0:0:0:
445,251,55472,2,0,P|387:258|341:268,1,80,2|0,1:2|0:0,0:0:0:0:
472,66,55801,2,0,P|451:122|442:154,1,80,10|0,0:2|0:0,0:0:0:0:
382,358,56131,6,0,B|323:364|284:326|284:326|274:346|250:370,1,160,2|8,1:2|0:2,0:0:0:0:
81,328,56626,1,2,0:2:0:0:
177,280,56790,2,0,P|184:229|187:179,1,80,0|0,1:0|0:0,0:0:0:0:
8,187,57120,2,0,P|52:210|99:242,1,80,8|2,0:2|0:2,0:0:0:0:
247,100,57450,6,0,P|187:84|87:133,2,160,4|10|2,1:2|0:2|1:2,0:0:0:0:
326,175,58274,1,2,0:2:0:0:
408,81,58439,2,0,P|418:27|430:-12,1,80,8|2,0:2|0:2,0:0:0:0:
490,214,58768,6,0,P|396:203|344:195,1,120,0|0,1:0|0:0,0:0:0:0:
326,187,59098,2,0,P|312:252|306:297,1,80,10|0,0:2|0:0,0:0:0:0:
375,368,59428,1,2,1:2:0:0:
445,243,59593,1,8,0:3:0:0:
508,343,59757,1,10,0:2:0:0:
31,282,60087,6,0,B|108:263|118:289|197:269,1,160,4|2,1:2|1:2,0:0:0:0:
327,174,60582,2,0,P|271:135|170:149,1,160,10|0,0:2|1:2,0:0:0:0:
169,347,61076,2,0,P|181:309|189:269,1,80,10|0,0:2|0:0,0:0:0:0:
102,69,61406,6,0,B|71:116|82:183|82:183|59:198|42:221,1,160,0|2,1:2|1:2,0:0:0:0:
327,174,61900,2,0,P|271:135|170:149,1,160,10|0,0:2|1:2,0:0:0:0:
14,315,62395,2,0,P|57:308|94:305,1,80,10|0,0:2|1:2,0:0:0:0:
261,381,62725,6,0,B|283:322|240:273|240:273|249:215,1,160,6|2,1:2|1:2,0:0:0:0:
411,79,63219,2,0,P|425:130|431:164,1,80,10|0,0:2|0:0,0:0:0:0:
436,255,63549,1,0,1:2:0:0:
313,132,63714,2,0,B|260:111|213:128|213:128|205:117|195:111,1,120,10|0,0:2|0:0,0:0:0:0:
157,91,64043,6,0,P|108:104|66:115,1,80,2|2,1:2|0:2,0:0:0:0:
234,18,64373,1,2,1:2:0:0:
258,214,64538,1,10,0:2:0:0:
379,156,64703,2,0,P|391:105|394:68,1,80,2|0,0:2|1:2,0:0:0:0:
497,286,65032,2,0,P|447:276|410:272,1,80,10|8,0:2|0:3,0:0:0:0:
418,272,65279,1,8,0:3:0:0:
418,272,65362,6,0,P|329:273|281:208,2,160,6|0|0,1:2|1:2|1:2,0:0:0:0:
372,181,66186,1,0,0:0:0:0:
242,335,66351,2,0,P|194:349|149:359,1,80,2|2,1:2|0:0,0:0:0:0:
8,222,66681,6,0,L|136:243,1,120,2|0,1:2|0:0,0:0:0:0:
159,246,67010,1,0,1:2:0:0:
266,106,67175,1,0,0:0:0:0:
92,126,67340,1,4,0:3:0:0:
299,96,67505,1,4,0:3:0:0:
176,17,67670,1,12,0:3:0:0:
243,196,67834,1,8,0:3:0:0:
378,141,67999,6,0,P|391:96|399:56,1,80,6|0,1:2|0:0,0:0:0:0:
431,273,68329,2,0,P|438:325|445:365,1,80,0|0,1:2|0:0,0:0:0:0:
512,186,68659,2,0,P|456:157|358:183,1,160,0|2,1:2|1:2,0:0:0:0:
308,278,69153,1,2,0:2:0:0:
196,189,69318,6,0,P|188:136|185:101,1,80,2|0,1:2|0:0,0:0:0:0:
358,19,69648,1,0,1:2:0:0:
311,128,69812,1,0,0:0:0:0:
228,25,69977,1,8,0:0:0:0:
200,13,70059,1,0,1:0:0:0:
171,7,70141,1,0,1:2:0:0:
141,6,70224,1,0,1:2:0:0:
111,12,70307,2,0,L|65:22,1,40,8|0,0:0|1:2,0:0:0:0:
128,150,70472,2,0,L|137:111,1,40,0|0,1:2|1:2,0:0:0:0:
0,94,70637,6,0,L|49:106,3,40,10|0|0|0,0:0|0:0|0:0|0:0,0:0:0:0:
72,206,70966,2,0,L|110:196,3,40,2|0|0|0,0:0|0:0|0:0|0:0,0:0:0:0:
19,300,71296,6,0,L|11:344,1,40,2|2,0:0|0:0,0:0:0:0:
103,384,71461,2,0,L|111:340,1,40,2|0,1:2|0:0,0:0:0:0:
0,201,71626,6,0,B|34:207|53:222|53:222|96:213|148:232,1,143.999995605469,14|0,0:0|0:0,0:0:0:0:
215,273,71955,6,0,P|254:221|230:133,1,160,6|10,1:2|0:2,0:0:0:0:
147,45,72450,2,0,P|134:94|124:121,1,80,2|0,0:2|1:2,0:0:0:0:
275,31,72780,2,0,P|330:20|360:17,1,80,2|8,0:2|0:2,0:0:0:0:
466,133,73110,5,2,0:2:0:0:
466,133,73192,1,0,0:0:0:0:
466,133,73274,2,0,B|407:147|360:115|360:115|347:143|320:168,1,160,2|10,1:2|0:2,0:0:0:0:
434,37,73769,1,2,0:2:0:0:
383,237,73934,2,0,P|391:286|402:338,1,80,2|2,1:2|0:2,0:0:0:0:
491,239,74263,1,10,0:2:0:0:
288,301,74428,5,2,0:2:0:0:
288,301,74511,1,0,0:0:0:0:
288,301,74593,2,0,P|235:295|176:284,1,80,2|2,1:2|0:2,0:0:0:0:
102,208,74922,1,10,0:2:0:0:
248,145,75087,1,2,0:2:0:0:
78,221,75252,1,2,1:2:0:0:
124,82,75417,2,0,P|113:43|100:5,1,80,2|8,0:2|0:2,0:0:0:0:
0,238,75747,6,0,P|73:265|152:230,1,160,2|2,0:2|0:2,0:0:0:0:
250,127,76241,1,10,0:2:0:0:
284,286,76406,1,2,0:2:0:0:
175,223,76571,1,2,1:2:0:0:
360,157,76736,1,8,0:2:0:0:
245,50,76901,1,8,0:2:0:0:
376,252,77066,5,8,0:2:0:0:
376,252,77148,1,8,0:2:0:0:
376,252,77230,2,0,P|390:312|395:366,1,80,2|2,1:2|0:2,0:0:0:0:
260,297,77560,1,10,0:2:0:0:
326,152,77725,2,0,B|403:124|413:168|496:128,1,160,2|2,0:2|0:2,0:0:0:0:
376,255,78219,1,10,0:2:0:0:
426,53,78384,6,0,P|368:39|331:33,1,80,2|0,0:2|1:2,0:0:0:0:
197,146,78714,1,2,0:2:0:0:
327,185,78879,1,10,0:2:0:0:
297,57,79044,1,2,0:2:0:0:
231,244,79208,2,0,P|217:312|210:351,1,80,2|10,1:2|0:2,0:0:0:0:
215,322,79455,1,8,0:2:0:0:
215,322,79538,1,10,0:2:0:0:
108,223,79703,1,10,0:2:0:0:
57,355,79868,5,14,0:2:0:0:
0,207,80033,2,0,P|39:202|78:192,1,80,2|2,1:2|1:2,0:0:0:0:
223,122,80362,1,14,0:2:0:0:
93,58,80527,1,2,1:2:0:0:
211,0,80692,1,2,1:2:0:0:
181,215,80856,5,14,0:2:0:0:
311,122,81021,2,0,P|327:68|333:39,1,80,2|2,1:2|1:2,0:0:0:0:
193,107,81351,1,14,0:2:0:0:
335,237,81516,2,0,P|325:300|322:331,1,80,0|0,1:0|1:0,0:0:0:0:
493,208,81845,1,10,0:2:0:0:
343,132,82010,1,2,1:2:0:0:
480,97,82175,1,2,1:2:0:0:
347,280,82340,1,10,0:2:0:0:
347,280,82670,2,0,L|338:230,1,40,2|0,1:2|1:2,0:0:0:0:
294,28,82834,5,14,0:2:0:0:
256,192,82917,12,0,88439,2:0:0:0:
