osu file format v14

[General]
AudioFilename: audio.mp3
AudioLeadIn: 0
PreviewTime: 37917
Countdown: 0
SampleSet: Soft
StackLeniency: 0.7
Mode: 0
LetterboxInBreaks: 0
WidescreenStoryboard: 1

[Editor]
DistanceSpacing: 1.4
BeatDivisor: 4
GridSize: 32
TimelineZoom: 2.1

[Metadata]
Title:Connecting Happy!!
TitleUnicode:Connecting Happy!!
Artist:Pecorine (CV: M.A.O), Kokkoro (CV: Itou Miku), Karyl (CV: Tachibana Rika)
ArtistUnicode:ペコリーヌ(CV:M・A・O)、コッコロ(CV:伊藤美来)、キャル(CV:立花理香)
Creator:PikAqours
Version:Hard!!
Source:プリンセスコネクト!Re:Dive
Tags:princess connect cygames priconne rpg ending ed kyaru japanese pop jpop j-pop video game kowari
BeatmapID:3503727
BeatmapSetID:1699189

[Difficulty]
HPDrainRate:4
CircleSize:3.6
OverallDifficulty:6
ApproachRate:7.5
SliderMultiplier:1.41
SliderTickRate:1

[Events]
//Background and Video events
0,0,"bg.jpg",0,0
//Break Periods
//Storyboard Layer 0 (Background)
//Storyboard Layer 1 (Fail)
//Storyboard Layer 2 (Pass)
//Storyboard Layer 3 (Foreground)
//Storyboard Layer 4 (Overlay)
//Storyboard Sound Samples

[TimingPoints]
747,329.67032967033,4,2,1,40,1,0
747,-140.845070422535,4,2,1,40,0,0
2065,-140.845070422535,4,2,1,30,0,0
3384,-140.845070422535,4,2,1,40,0,0
4043,-105.263157894737,4,2,1,60,0,0
15252,-123.456790123457,4,2,1,50,0,0
24483,-109.89010989011,4,2,1,60,0,0
25637,-109.89010989011,4,2,1,50,0,0
25801,-109.89010989011,4,2,1,50,0,0
30911,-109.89010989011,4,2,1,60,0,0
33714,-99.009900990099,4,2,1,60,0,0
38659,-95.2380952380952,4,2,1,75,0,0
38988,-95.2380952380952,4,2,1,75,0,0
54812,-109.89010989011,4,2,1,60,0,0
65362,-99.0099009900991,4,2,1,60,0,0
70637,-117.647058823529,4,2,1,50,0,0
71955,-105.263157894737,4,2,1,60,0,0
82834,-243.902439024391,4,2,1,50,0,0
83494,-243.902439024391,4,2,1,45,0,0
84153,-243.902439024391,4,2,1,40,0,0
84812,-243.902439024391,4,2,1,35,0,0
85472,-243.902439024391,4,2,1,30,0,0
86131,-243.902439024391,4,2,1,25,0,0
86790,-243.902439024391,4,2,1,20,0,0
87450,-243.902439024391,4,2,1,15,0,0
88109,-243.902439024391,4,2,1,10,0,0
88439,-243.902439024391,4,2,1,5,0,0

[Colours]
Combo1 : 255,147,201
Combo2 : 173,91,255

[HitObjects]
48,120,747,6,0,P|41:152|38:177,2,50.0549974795305,2|0|0,0:2|0:0|0:0,0:0:0:0:
117,70,1241,2,0,P|112:47|106:18,2,50.0549974795305,2|0|0,0:2|0:0|0:0,0:0:0:0:
172,135,1736,1,2,0:2:0:0:
172,135,1900,1,2,0:2:0:0:
256,192,2065,12,0,3384,0:0:0:0:
42,284,4043,5,8,0:3:0:0:
42,284,4126,1,8,0:3:0:0:
42,284,4208,1,8,0:3:0:0:
101,348,4373,2,0,P|133:352|177:332,1,66.9749982115746,8|8,0:2|0:2,0:0:0:0:
201,316,4620,1,8,0:2:0:0:
201,316,4703,6,0,P|240:323|275:329,1,66.9749982115746,4|2,1:2|0:2,0:0:0:0:
340,374,5032,1,10,0:2:0:0:
424,351,5197,2,0,P|414:304|408:263,1,66.9749982115746,2|0,0:2|1:2,0:0:0:0:
345,226,5527,2,0,P|355:179|361:138,1,66.9749982115746,2|8,0:2|0:2,0:0:0:0:
431,113,5856,2,0,P|373:72|308:85,1,133.949996423149,2|2,0:2|0:2,0:0:0:0:
240,128,6351,1,10,0:2:0:0:
240,128,6516,1,2,0:2:0:0:
188,57,6681,2,0,P|155:63|115:69,1,66.9749982115746,2|2,1:2|0:0,0:0:0:0:
58,127,7010,2,0,P|64:160|70:200,1,66.9749982115746,10|2,0:2|0:2,0:0:0:0:
146,261,7340,6,0,P|140:294|134:334,1,66.9749982115746,2|2,1:2|0:2,0:0:0:0:
65,380,7670,1,10,0:2:0:0:
0,325,7834,2,0,P|5:291|11:258,1,66.9749982115746,2|0,0:2|1:2,0:0:0:0:
70,194,8164,1,2,0:2:0:0:
70,194,8329,1,10,0:2:0:0:
28,117,8494,2,0,P|82:81|147:91,1,133.949996423149,2|2,0:2|0:2,0:0:0:0:
217,143,8988,2,0,P|249:138|283:133,1,66.9749982115746,10|2,0:2|0:2,0:0:0:0:
349,76,9318,1,2,1:2:0:0:
425,118,9483,2,0,P|430:151|437:197,1,66.9749982115746,8|10,0:2|1:2,0:0:0:0:
444,223,9730,1,0,1:0:0:0:
444,223,9812,1,2,1:2:0:0:
462,318,9977,6,0,P|421:320|389:299,1,66.9749982115746,6|2,1:2|0:2,0:0:0:0:
323,263,10307,1,10,0:2:0:0:
269,331,10472,2,0,P|230:339|177:350,1,66.9749982115746,2|0,0:2|1:2,0:0:0:0:
132,302,10801,1,2,0:2:0:0:
132,302,10966,1,10,0:2:0:0:
175,225,11131,2,0,B|167:169|167:169|147:145|147:145|139:73,1,133.949996423149,2|2,0:2|0:2,0:0:0:0:
200,34,11626,1,10,0:2:0:0:
200,34,11790,1,2,0:2:0:0:
277,73,11955,2,0,P|308:68|344:64,1,66.9749982115746,2|2,1:2|0:0,0:0:0:0:
412,10,12285,2,0,P|445:13|478:18,1,66.9749982115746,10|2,0:2|0:2,0:0:0:0:
435,110,12615,6,0,P|428:144|422:188,1,66.9749982115746,14|2,0:2|1:2,0:0:0:0:
474,246,12944,1,2,1:2:0:0:
406,301,13109,2,0,P|372:308|328:314,1,66.9749982115746,10|2,0:2|1:2,0:0:0:0:
263,269,13439,1,2,1:2:0:0:
213,340,13604,2,0,P|179:333|135:327,1,66.9749982115746,10|2,0:2|1:2,0:0:0:0:
82,269,13933,1,2,1:2:0:0:
9,317,14098,2,0,P|-9:251|31:172,1,133.949996423149,10|2,0:2|1:2,0:0:0:0:
69,125,14593,2,0,P|108:134|136:141,1,66.9749982115746,10|2,0:2|1:2,0:0:0:0:
183,214,14922,2,0,P|215:205|248:198,1,66.9749982115746,10|10,0:2|0:2,0:0:0:0:
283,171,15170,1,8,0:2:0:0:
283,171,15252,6,0,P|275:128|270:98,1,57.1050013941651,4|0,1:2|0:0,0:0:0:0:
232,38,15582,2,0,P|267:28|303:35,1,57.1050013941651,2|0,1:2|0:0,0:0:0:0:
354,82,15911,2,0,P|410:72|466:63,1,114.21000278833,2|0,1:2|1:2,0:0:0:0:
483,235,16571,2,0,P|426:225|370:216,1,114.21000278833,2|2,1:2|1:2,0:0:0:0:
297,171,17065,2,0,P|284:199|288:238,1,57.1050013941651,2|0,0:2|1:2,0:0:0:0:
330,297,17395,2,0,P|302:310|263:306,1,57.1050013941651,2|0,0:2|1:2,0:0:0:0:
203,263,17725,1,2,0:2:0:0:
65,362,18054,5,2,0:2:0:0:
65,362,18219,2,0,P|56:304|42:236,2,114.21000278833,2|2|2,1:2|1:2|1:2,0:0:0:0:
203,263,19208,2,0,P|214:207|222:150,1,114.21000278833,2|2,1:2|1:2,0:0:0:0:
183,73,19703,2,0,P|251:65|295:100,1,114.21000278833,2|2,0:2|0:2,0:0:0:0:
325,165,20197,2,0,P|318:194|312:226,1,57.1050013941651,2|2,1:2|0:2,0:0:0:0:
267,293,20527,6,0,P|274:322|279:354,1,57.1050013941651,4|0,1:2|0:0,0:0:0:0:
360,372,20856,2,0,P|395:366|425:361,1,57.1050013941651,2|0,1:2|0:0,0:0:0:0:
491,320,21186,2,0,P|486:291|479:264,1,57.1050013941651,2|0,1:2|0:0,0:0:0:0:
463,179,21516,1,2,1:2:0:0:
369,35,21845,2,0,P|362:62|357:90,1,57.1050013941651,2|2,1:2|0:2,0:0:0:0:
291,145,22175,1,2,1:2:0:0:
291,145,22340,2,0,P|229:128|171:121,1,114.21000278833,2|0,0:2|0:0,0:0:0:0:
118,61,22834,2,0,P|124:33|129:5,1,57.1050013941651,0|2,1:2|0:2,0:0:0:0:
21,60,23164,6,0,P|29:90|47:190,1,114.21000278833,0|2,1:2|1:2,0:0:0:0:
97,239,23659,1,2,0:2:0:0:
170,195,23823,2,0,P|200:203|300:221,1,114.21000278833,2|2,1:2|1:2,0:0:0:0:
331,289,24318,1,2,0:2:0:0:
412,245,24483,2,0,P|406:211|401:162,1,64.1550021536408,6|2,1:2|0:2,0:0:0:0:
336,121,24812,1,2,1:2:0:0:
380,42,24977,2,0,P|304:31|259:68,1,128.310004307282,10|8,0:2|0:2,0:0:0:0:
224,141,25472,1,8,0:3:0:0:
224,141,25637,1,8,0:3:0:0:
142,104,25801,6,0,P|99:98|51:88,1,64.1550021536408,4|0,1:2|0:0,0:0:0:0:
9,151,26131,2,0,P|3:194|-7:242,1,64.1550021536408,10|0,0:2|1:2,0:0:0:0:
49,289,26461,2,0,P|92:295|140:305,1,64.1550021536408,2|0,0:2|1:2,0:0:0:0:
185,246,26790,1,10,0:2:0:0:
309,375,27120,2,0,P|317:302|327:237,1,128.310004307282,2|10,1:2|0:2,0:0:0:0:
278,170,27615,2,0,P|354:159|399:196,1,128.310004307282,2|0,1:2|1:2,0:0:0:0:
439,264,28109,1,10,0:2:0:0:
282,353,28439,6,0,B|233:344|233:344|193:363|193:363|130:353,1,128.310004307282,2|8,1:2|0:2,0:0:0:0:
92,295,28933,1,0,1:2:0:0:
16,343,29098,2,0,P|2:299|41:213,1,128.310004307282,2|8,0:2|0:2,0:0:0:0:
97,165,29593,2,0,P|132:171|177:181,1,64.1550021536408,2|0,0:2|1:2,0:0:0:0:
224,247,29922,1,0,1:2:0:0:
224,247,30087,2,0,P|255:240|287:235,1,64.1550021536408,10|0,0:2|1:2,0:0:0:0:
352,172,30417,2,0,P|346:137|336:80,1,64.1550021536408,2|0,0:2|1:2,0:0:0:0:
391,33,30747,1,10,0:2:0:0:
465,105,30911,6,0,P|475:166|486:239,1,128.310004307282,6|2,1:2|1:2,0:0:0:0:
434,306,31406,2,0,P|403:310|351:320,1,64.1550021536408,10|0,0:2|0:0,0:0:0:0:
287,278,31736,1,2,1:2:0:0:
231,348,31900,1,8,0:2:0:0:
231,348,32065,1,8,0:2:0:0:
153,303,32230,2,0,P|141:251|125:156,1,128.310004307282,6|2,1:2|1:2,0:0:0:0:
53,125,32725,2,0,P|63:89|65:57,1,64.1550021536408,10|0,0:2|0:0,0:0:0:0:
131,1,33054,1,2,1:2:0:0:
196,62,33219,1,8,0:2:0:0:
196,62,33384,2,0,P|229:52|275:46,1,64.1550021536408,8|0,0:2|1:2,0:0:0:0:
357,6,33714,6,0,P|433:21|509:43,1,142.409997175095,14|8,0:2|0:2,0:0:0:0:
436,110,34208,1,2,1:2:0:0:
486,187,34373,2,0,P|495:230|501:266,1,71.2049985875473,10|0,0:2|1:2,0:0:0:0:
408,277,34703,2,0,P|399:234|393:198,1,71.2049985875473,8|0,0:2|1:2,0:0:0:0:
326,144,35032,2,0,P|255:172|169:169,1,142.409997175095,10|8,0:2|0:2,0:0:0:0:
111,122,35527,1,2,1:2:0:0:
65,202,35692,2,0,P|57:236|44:309,2,106.807497881321,10|2|2,0:2|0:0|1:2,0:0:0:0:
40,173,36268,1,0,1:2:0:0:
40,173,36351,6,0,P|27:139|37:84,1,71.2049985875473,14|0,0:2|1:2,0:0:0:0:
81,27,36681,1,0,1:2:0:0:
161,71,36845,2,0,P|208:87|237:83,1,71.2049985875473,10|2,0:2|1:2,0:0:0:0:
308,37,37175,1,0,1:2:0:0:
374,101,37340,2,0,P|362:145|354:189,1,71.2049985875473,8|2,0:2|1:2,0:0:0:0:
401,252,37670,5,8,0:2:0:0:
401,252,38494,1,0,1:2:0:0:
401,252,38576,1,0,1:2:0:0:
401,252,38659,2,0,P|357:263|325:277,1,74.0249977409364,14|0,1:2|0:0,0:0:0:0:
268,365,38988,6,0,P|206:338|115:330,1,148.049995481873,6|8,1:2|0:2,0:0:0:0:
45,382,39483,2,0,P|29:339|32:290,1,74.0249977409364,2|0,1:2|0:0,0:0:0:0:
90,238,39812,2,0,P|106:195|103:146,1,74.0249977409364,2|8,1:2|0:2,0:0:0:0:
38,98,40142,2,0,B|77:63|77:63|189:87,1,148.049995481873,2|0,0:2|0:0,0:0:0:0:
240,150,40637,2,0,P|276:142|322:135,1,74.0249977409364,10|0,0:2|1:2,0:0:0:0:
384,72,40966,2,0,P|376:35|369:-10,1,74.0249977409364,2|0,0:2|1:2,0:0:0:0:
492,42,41296,2,0,P|484:78|477:124,1,74.0249977409364,10|0,0:2|0:0,0:0:0:0:
457,219,41626,6,0,P|381:231|302:255,1,148.049995481873,2|10,1:2|0:2,0:0:0:0:
271,337,42120,2,0,P|234:329|189:322,1,74.0249977409364,2|0,1:2|0:0,0:0:0:0:
113,276,42450,2,0,P|105:239|98:194,1,74.0249977409364,2|8,1:2|0:2,0:0:0:0:
34,132,42779,1,0,0:0:0:0:
34,132,42944,2,0,P|41:95|49:50,1,74.0249977409364,0|2,1:2|0:2,0:0:0:0:
131,11,43274,1,10,0:2:0:0:
131,11,43439,2,0,P|170:24|223:29,1,74.0249977409364,2|2,1:2|0:2,0:0:0:0:
270,97,43768,1,2,1:2:0:0:
270,97,43933,2,0,P|306:91|341:79,1,74.0249977409364,10|2,0:2|0:2,0:0:0:0:
453,27,44263,6,0,P|441:81|430:160,1,111.037496611405,4|2,1:2|0:2,0:0:0:0:
402,174,44593,2,0,P|411:209|415:246,1,74.0249977409364,10|0,0:2|1:2,0:0:0:0:
495,308,44922,1,2,0:2:0:0:
495,308,45087,1,2,1:2:0:0:
441,384,45252,2,0,P|400:369|351:362,1,74.0249977409364,10|0,0:2|0:0,0:0:0:0:
301,294,45582,1,2,1:2:0:0:
214,336,45747,2,0,P|173:351|124:358,1,74.0249977409364,2|8,0:2|0:2,0:0:0:0:
62,304,46076,2,0,B|41:210|41:210|73:166,1,148.049995481873,2|2,1:2|1:2,0:0:0:0:
133,93,46571,1,10,0:2:0:0:
220,152,46736,6,0,P|211:197|204:240,1,74.0249977409364,2|0,0:2|1:2,0:0:0:0:
253,308,47065,1,2,0:2:0:0:
335,258,47230,2,0,P|377:260|417:285,1,74.0249977409364,10|0,0:2|1:2,0:0:0:0:
472,350,47560,1,2,0:2:0:0:
472,350,47725,1,2,1:2:0:0:
508,261,47889,2,0,P|498:224|492:188,1,74.0249977409364,10|0,0:2|1:2,0:0:0:0:
464,82,48219,6,0,P|424:78|392:62,1,74.0249977409364,10|2,0:2|1:2,0:0:0:0:
309,15,48549,1,2,1:2:0:0:
244,86,48714,2,0,P|253:131|260:174,1,74.0249977409364,10|0,0:2|1:2,0:0:0:0:
339,209,49043,1,0,1:2:0:0:
290,292,49208,1,8,0:2:0:0:
368,364,49373,1,8,0:2:0:0:
368,364,49455,1,8,0:2:0:0:
368,364,49538,6,0,P|292:342|223:331,1,148.049995481873,14|10,0:2|0:2,0:0:0:0:
124,348,50032,2,0,P|146:272|157:203,1,148.049995481873,2|2,1:2|1:2,0:0:0:0:
206,120,50527,2,0,P|173:104|136:105,1,74.0249977409364,8|2,0:2|0:2,0:0:0:0:
48,144,50856,2,0,P|57:183|64:232,1,74.0249977409364,0|0,1:2|0:0,0:0:0:0:
130,285,51186,2,0,P|166:285|199:270,1,74.0249977409364,10|0,0:2|1:2,0:0:0:0:
287,225,51516,1,2,0:2:0:0:
287,225,51681,1,0,1:2:0:0:
349,297,51845,2,0,P|382:312|418:311,1,74.0249977409364,10|0,0:2|0:0,0:0:0:0:
506,250,52175,6,0,P|493:180|485:90,1,148.049995481873,6|10,1:2|0:2,0:0:0:0:
384,77,52670,2,0,P|397:147|405:237,1,148.049995481873,6|2,1:2|1:2,0:0:0:0:
349,297,53164,1,8,0:2:0:0:
265,249,53329,2,0,P|184:232|125:274,1,148.049995481873,6|0,1:2|1:2,0:0:0:0:
85,349,53823,2,0,P|47:336|-20:329,1,74.0249977409364,8|0,0:2|1:2,0:0:0:0:
41,234,54153,2,0,P|31:183|1:108,2,111.037496611405,12|12|12,0:2|0:2|0:2,0:0:0:0:
131,264,54812,6,0,P|169:251|216:244,1,64.1550021536408,0|0,1:0|1:2,0:0:0:0:
253,189,55142,2,0,P|291:202|388:223,2,128.310004307282,10|2|10,0:2|1:2|0:2,0:0:0:0:
198,126,55966,1,0,0:0:0:0:
272,87,56131,2,0,P|334:99|395:119,1,128.310004307282,2|8,1:2|0:2,0:0:0:0:
443,188,56626,2,0,P|424:253|408:331,1,128.310004307282,2|0,0:2|0:0,0:0:0:0:
344,363,57120,2,0,P|310:353|267:346,1,64.1550021536408,8|2,0:2|0:2,0:0:0:0:
211,284,57450,6,0,P|207:250|194:220,1,64.1550021536408,4|0,1:2|0:0,0:0:0:0:
219,142,57779,2,0,P|193:120|162:108,1,64.1550021536408,10|0,0:2|0:0,0:0:0:0:
126,40,58109,1,2,1:2:0:0:
126,40,58274,2,0,P|92:43|62:56,1,64.1550021536408,2|8,0:2|0:0,0:0:0:0:
11,126,58604,6,0,P|28:178|39:275,1,128.310004307282,2|0,0:2|0:0,0:0:0:0:
93,313,59098,2,0,P|124:317|156:323,1,64.1550021536408,10|0,0:2|0:0,0:0:0:0:
226,277,59428,2,0,P|257:270|289:266,1,64.1550021536408,2|8,1:2|0:3,0:0:0:0:
372,308,59757,1,10,0:2:0:0:
372,308,59840,1,0,1:2:0:0:
372,308,59922,1,0,1:2:0:0:
441,251,60087,6,0,P|433:215|422:161,1,64.1550021536408,4|0,1:2|0:0,0:0:0:0:
471,116,60417,1,2,1:2:0:0:
403,66,60582,2,0,B|356:72|356:72|336:93|336:93|282:102,1,128.310004307282,10|0,0:2|1:2,0:0:0:0:
231,165,61076,2,0,P|201:158|162:150,1,64.1550021536408,10|0,0:2|0:0,0:0:0:0:
94,112,61406,6,0,P|76:141|79:192,1,64.1550021536408,0|0,1:2|0:0,0:0:0:0:
39,247,61736,1,2,1:2:0:0:
101,301,61900,2,0,P|176:283|238:277,1,128.310004307282,10|0,0:2|1:2,0:0:0:0:
289,221,62395,2,0,P|341:233|365:257,1,64.1550021536408,10|0,0:2|1:2,0:0:0:0:
387,323,62725,6,0,P|326:361|255:342,1,128.310004307282,6|2,1:2|1:2,0:0:0:0:
199,312,63219,2,0,P|136:299|72:292,1,128.310004307282,10|0,0:2|1:2,0:0:0:0:
13,232,63714,2,0,P|25:169|32:105,1,128.310004307282,10|2,0:2|1:2,0:0:0:0:
95,50,64208,1,2,0:2:0:0:
95,50,64373,2,0,P|130:68|178:65,1,64.1550021536408,2|10,1:2|0:2,0:0:0:0:
212,130,64703,2,0,P|249:117|281:81,1,64.1550021536408,2|0,0:2|1:2,0:0:0:0:
336,53,65032,1,10,0:2:0:0:
405,116,65197,1,8,0:3:0:0:
405,116,65279,1,8,0:3:0:0:
405,116,65362,6,0,P|396:155|391:195,1,71.2049985875473,6|0,1:2|0:0,0:0:0:0:
412,268,65692,2,0,P|376:272|344:257,1,71.2049985875473,0|0,1:2|0:0,0:0:0:0:
272,212,66021,2,0,P|265:177|256:142,1,71.2049985875473,0|0,1:2|0:0,0:0:0:0:
175,113,66351,2,0,P|165:147|159:182,1,71.2049985875473,0|0,1:2|0:0,0:0:0:0:
80,216,66681,2,0,P|66:153|47:70,2,142.409997175095,2|0|0,1:2|1:0|1:0,0:0:0:0:
146,269,67505,1,4,0:3:0:0:
216,218,67670,1,12,0:3:0:0:
216,218,67834,1,8,0:3:0:0:
283,270,67999,6,0,P|277:312|269:362,1,71.2049985875473,6|0,1:2|0:0,0:0:0:0:
357,356,68329,2,0,P|363:314|371:264,1,71.2049985875473,0|0,1:2|0:0,0:0:0:0:
338,204,68659,2,0,P|332:162|324:112,1,71.2049985875473,0|0,1:2|0:0,0:0:0:0:
412,118,68989,2,0,P|418:160|426:210,1,71.2049985875473,2|2,1:2|0:2,0:0:0:0:
418,273,69318,2,0,P|385:277|337:288,1,71.2049985875473,2|0,1:2|0:0,0:0:0:0:
288,347,69648,2,0,P|253:339|217:335,1,71.2049985875473,0|0,1:2|0:0,0:0:0:0:
147,272,69977,1,8,0:0:0:0:
132,274,70060,1,0,1:0:0:0:
117,275,70142,1,0,1:2:0:0:
102,278,70225,1,0,1:2:0:0:
88,282,70307,2,0,P|62:274|39:268,3,35.6024992937737,8|0|0|0,0:0|1:2|1:2|1:2,0:0:0:0:
256,192,70637,12,14,71626,0:0:0:0:
177,282,71955,6,0,P|138:287|86:301,1,66.9749982115746,6|0,1:2|0:0,0:0:0:0:
25,252,72285,1,10,0:2:0:0:
98,193,72450,2,0,P|105:158|115:114,1,66.9749982115746,2|0,0:2|1:2,0:0:0:0:
48,57,72779,2,0,P|89:25|192:47,1,133.949996423149,2|2,0:2|0:2,0:0:0:0:
228,101,73274,2,0,P|221:131|212:189,1,66.9749982115746,2|2,1:2|0:2,0:0:0:0:
291,219,73604,1,10,0:2:0:0:
365,161,73768,1,2,0:2:0:0:
365,161,73933,2,0,P|404:162|443:187,1,66.9749982115746,2|2,1:2|0:2,0:0:0:0:
478,254,74263,2,0,P|406:270|346:292,1,133.949996423149,10|2,0:2|1:2,0:0:0:0:
267,332,74757,5,2,0:0:0:0:
267,332,74922,1,10,0:2:0:0:
206,267,75087,1,2,0:0:0:0:
206,267,75252,1,2,1:2:0:0:
128,314,75417,2,0,P|99:301|56:291,1,66.9749982115746,2|8,0:2|0:2,0:0:0:0:
68,197,75747,2,0,P|69:115|122:77,1,133.949996423149,2|2,0:2|0:2,0:0:0:0:
200,110,76241,1,10,0:2:0:0:
200,110,76406,1,2,0:2:0:0:
283,66,76571,2,0,P|317:78|358:86,1,66.9749982115746,2|8,1:2|0:2,0:0:0:0:
403,159,76900,1,8,0:2:0:0:
483,106,77065,1,8,0:2:0:0:
483,106,77148,1,8,0:2:0:0:
483,106,77230,6,0,P|496:136|498:180,1,66.9749982115746,2|2,1:2|0:2,0:0:0:0:
443,246,77560,1,10,0:2:0:0:
479,332,77725,2,0,P|448:340|410:352,1,66.9749982115746,2|0,0:2|1:2,0:0:0:0:
341,299,78054,1,2,0:2:0:0:
341,299,78219,1,10,0:2:0:0:
288,376,78384,2,0,P|219:354|149:336,1,133.949996423149,2|2,0:2|0:2,0:0:0:0:
67,320,78878,2,0,P|55:276|42:234,1,66.9749982115746,10|2,0:2|0:2,0:0:0:0:
85,168,79208,1,2,1:2:0:0:
173,223,79373,1,10,0:2:0:0:
173,223,79455,1,8,0:2:0:0:
173,223,79538,2,0,P|212:232|253:245,1,66.9749982115746,10|10,0:2|0:2,0:0:0:0:
319,182,79867,6,0,P|309:147|301:96,1,66.9749982115746,14|2,0:2|1:2,0:0:0:0:
359,40,80197,1,2,1:2:0:0:
436,93,80362,2,0,P|446:128|454:179,1,66.9749982115746,10|2,0:2|1:2,0:0:0:0:
406,241,80692,1,2,1:2:0:0:
468,310,80856,2,0,P|432:334|398:333,1,66.9749982115746,10|2,0:2|1:2,0:0:0:0:
327,382,81186,1,2,1:2:0:0:
235,333,81351,6,0,P|209:312|176:307,1,66.9749982115746,10|2,0:2|1:2,0:0:0:0:
91,348,81681,1,2,1:2:0:0:
0,326,81845,2,0,L|16:258,1,66.9749982115746,10|2,0:2|1:2,0:0:0:0:
71,184,82175,1,2,1:2:0:0:
157,221,82340,1,10,0:2:0:0:
46,82,82670,1,2,1:2:0:0:
46,82,82752,1,0,1:2:0:0:
46,82,82834,1,14,0:2:0:0:
256,192,82917,12,0,88439,0:0:0:0:
