osu file format v14

[General]
AudioFilename: audio.mp3
AudioLeadIn: 0
PreviewTime: 53117
Countdown: 0
SampleSet: Soft
StackLeniency: 0.7
Mode: 3
LetterboxInBreaks: 0
EpilepsyWarning: 1
SpecialStyle: 0
WidescreenStoryboard: 1

[Editor]
DistanceSpacing: 1
BeatDivisor: 4
GridSize: 4
TimelineZoom: 2.1

[Metadata]
Title:Yes! Precious Harmony!
TitleUnicode:Yes! Precious Harmony!
Artist:Pecorine (CV: M.A.O), Kokkoro (CV: Ito Miku), Karyl (CV: Tachibana Rika)
ArtistUnicode:ペコリーヌ(CV: M・A・O)、コッコロ(CV: 伊藤美来)、キャル(CV: 立花理香)
Creator:ML-ysg
Version:Normal
Source:プリンセスコネクト!Re:Dive
Tags:Sun Lovega222 [ Lovega ] ed ending video game japanese pop j-pop Itou 市道真央 Ichimichi Mao Princess Connect! Purinsesu Konekuto! cygames priconne RPG pekori-nu kyaru プリンセスコネクト! Re:Dive PRICONNE CHARACTER SONG 13 プリンセスコネクト! Re:Dive Lost Princess ~ようこそ美食殿へ! ~ ~Youkoso Bishokuden e!~ プリンセスコネクト! Re:Dive CHARACTER SONG ALBUM VOL.2
BeatmapID:3471537
BeatmapSetID:1699001

[Difficulty]
HPDrainRate:7
CircleSize:4
OverallDifficulty:7
ApproachRate:5
SliderMultiplier:1.4
SliderTickRate:1

[Events]
//Background and Video events
0,0,"pincess.jpg",0,0
//Break Periods
//Storyboard Layer 0 (Background)
//Storyboard Layer 1 (Fail)
//Storyboard Layer 2 (Pass)
//Storyboard Layer 3 (Foreground)
//Storyboard Layer 4 (Overlay)
//Storyboard Sound Samples
Sample,5744,0,"Clap.wav",40
Sample,6253,0,"Clap.wav",40
Sample,6422,0,"Clap.wav",40
Sample,6761,0,"Hat Open.wav",60
Sample,7100,0,"Clap.wav",40
Sample,7609,0,"Clap.wav",40
Sample,7778,0,"Clap.wav",40
Sample,8117,0,"Hat Open.wav",60
Sample,8456,0,"Clap.wav",40
Sample,8965,0,"Clap.wav",40
Sample,9134,0,"Clap.wav",40
Sample,9473,0,"Hat Open.wav",60
Sample,9812,0,"Clap.wav",40
Sample,10321,0,"Clap.wav",40
Sample,10490,0,"Clap.wav",40
Sample,11676,0,"Clap.wav",40
Sample,11846,0,"Clap.wav",40
Sample,13032,0,"Clap.wav",40
Sample,14388,0,"Clap.wav",40
Sample,15066,0,"Tom3.wav",50
Sample,15236,0,"Tom3.wav",50
Sample,15575,0,"Tom3.wav",50
Sample,16592,0,"Hat Close.wav",50
Sample,16931,0,"Hat Close.wav",50
Sample,17948,0,"Hat Close.wav",50
Sample,18287,0,"Hat Close.wav",50
Sample,18287,0,"Edge.wav",60
Sample,19304,0,"Hat Close.wav",50
Sample,19643,0,"Hat Close.wav",50
Sample,20660,0,"Hat Close.wav",50
Sample,20999,0,"Hat Close.wav",50
Sample,22015,0,"Clap.wav",40
Sample,22354,0,"Hat Open.wav",60
Sample,22693,0,"Hat Open.wav",60
Sample,23202,0,"Clap.wav",40
Sample,23371,0,"Clap.wav",40
Sample,23880,0,"Clap.wav",40
Sample,24049,0,"Clap.wav",40
Sample,24388,0,"Hat Open.wav",60
Sample,25066,0,"Hat Open.wav",60
Sample,27439,0,"Hat Close.wav",50
Sample,27778,0,"Hat Close.wav",50
Sample,28117,0,"Hat Close.wav",50
Sample,28456,0,"Hat Close.wav",50
Sample,28795,0,"Hat Close.wav",50
Sample,29134,0,"Hat Close.wav",50
Sample,29473,0,"Hat Close.wav",35
Sample,29812,0,"Hat Close.wav",50
Sample,30151,0,"Hat Close.wav",50
Sample,30490,0,"Hat Close.wav",50
Sample,31168,0,"Hat Close.wav",50
Sample,31507,0,"Hat Close.wav",50
Sample,31846,0,"Hat Close.wav",50
Sample,33202,0,"Hat Open.wav",60
Sample,33541,0,"Hat Open.wav",60
Sample,34558,0,"Hat Open.wav",60
Sample,38287,0,"Ride.wav",40
Sample,39304,0,"Ride.wav",40
Sample,39643,0,"Ride.wav",40
Sample,40999,0,"Ride.wav",40
Sample,42015,0,"Ride.wav",40
Sample,42354,0,"Ride.wav",40
Sample,43710,0,"Tom3.wav",50
Sample,43710,0,"soft-hitclap.wav",20
Sample,43880,0,"Tom3.wav",50
Sample,44049,0,"soft-hitclap.wav",25
Sample,44049,0,"Tom3.wav",50
Sample,44219,0,"Tom3.wav",50
Sample,44388,0,"Tom3.wav",50
Sample,44388,0,"soft-hitclap.wav",35
Sample,44558,0,"Tom3.wav",50
Sample,44727,0,"Tom3.wav",50
Sample,44897,0,"Tom3.wav",50
Sample,45236,0,"Tom3.wav",50
Sample,46761,0,"Hat Open.wav",60
Sample,70999,0,"Clap.wav",40
Sample,71168,0,"Clap.wav",40
Sample,71168,0,"Hat Open.wav",60
Sample,71846,0,"Clap.wav",40
Sample,71846,0,"Hat Open.wav",60
Sample,72354,0,"Clap.wav",40
Sample,72524,0,"Clap.wav",40
Sample,73710,0,"Clap.wav",40
Sample,73880,0,"Clap.wav",40
Sample,76253,0,"Clap.wav",40
Sample,76761,0,"Clap.wav",40
Sample,76931,0,"Clap.wav",40
Sample,77609,0,"Clap.wav",40
Sample,78117,0,"Clap.wav",40
Sample,78287,0,"Clap.wav",40
Sample,78965,0,"Clap.wav",40
Sample,79473,0,"Clap.wav",40
Sample,79643,0,"Clap.wav",40
Sample,80321,0,"Clap.wav",40
Sample,80829,0,"Clap.wav",40
Sample,80999,0,"Clap.wav",40
Sample,81676,0,"Clap.wav",40
Sample,82185,0,"Clap.wav",40
Sample,82354,0,"Clap.wav",40
Sample,83032,0,"Clap.wav",40
Sample,83541,0,"Clap.wav",40
Sample,83710,0,"Clap.wav",40
Sample,87439,0,"Ride.wav",40
Sample,88117,0,"Ride.wav",40
Sample,89812,0,"Clap.wav",40
Sample,90321,0,"Clap.wav",40
Sample,90490,0,"Clap.wav",40
Sample,90829,0,"Hat Open.wav",60
Sample,91168,0,"Clap.wav",40
Sample,91676,0,"Clap.wav",40
Sample,91846,0,"Clap.wav",40
Sample,92185,0,"Hat Open.wav",60
Sample,92524,0,"Clap.wav",40
Sample,93032,0,"Clap.wav",40
Sample,93202,0,"Clap.wav",40
Sample,93541,0,"Hat Open.wav",60
Sample,93880,0,"Clap.wav",40
Sample,94388,0,"Clap.wav",40
Sample,94558,0,"Clap.wav",40
Sample,95744,0,"Clap.wav",40
Sample,97100,0,"Clap.wav",40
Sample,98626,0,"Clap.wav",40
Sample,99304,0,"Clap.wav",40
Sample,100660,0,"Clap.wav",40
Sample,100999,0,"Clap.wav",40
Sample,102524,0,"Tom3.wav",50

[TimingPoints]
1338,338.983050847458,4,2,1,60,1,0
54219,-100,4,2,1,60,0,1
70490,-100,4,2,1,60,0,0
75914,-100,4,2,1,60,0,1
89473,-100,4,2,1,60,0,0

[HitObjects]
64,192,1338,5,0,0:0:0:0:
448,192,1338,1,0,0:0:0:0:
320,192,1507,1,0,0:0:0:0:
192,192,1676,1,0,0:0:0:0:
320,192,1846,128,0,2185:0:0:0:0:
64,192,2185,128,0,2524:0:0:0:0:
320,192,2524,128,0,2863:0:0:0:0:
448,192,2524,1,0,0:0:0:0:
64,192,2863,1,0,0:0:0:0:
192,192,3032,1,0,0:0:0:0:
320,192,3202,1,0,0:0:0:0:
448,192,3371,128,0,4049:0:0:0:0:
64,192,3710,1,0,0:0:0:0:
192,192,4049,128,0,4558:0:0:0:0:
320,192,4049,1,0,0:0:0:0:
448,192,4558,1,2,0:0:0:0:
64,192,4727,1,8,0:0:0:0:
320,192,4727,1,0,0:0:0:0:
192,192,4897,128,8,5066:0:0:0:0:
448,192,5066,128,8,5236:0:0:0:0:
320,192,5236,128,8,5405:0:0:0:0:
64,192,5405,1,4,0:0:0:0:
192,192,5405,1,2,0:0:0:0:
320,192,5575,1,0,0:0:0:0:
64,192,5744,1,8,0:0:0:0:
448,192,5744,1,0,0:0:0:60:Hat Open.wav
192,192,5914,128,2,6253:0:0:0:0:
448,192,6253,1,2,0:0:0:0:
64,192,6422,1,8,0:0:0:0:
320,192,6422,1,0,0:0:0:60:Hat Open.wav
192,192,6592,1,0,0:0:0:0:
448,192,6761,1,2,0:0:0:0:
320,192,6931,1,2,0:0:0:0:
64,192,7100,1,8,0:0:0:0:
192,192,7100,1,0,0:0:0:60:Hat Open.wav
320,192,7270,128,2,7609:0:0:0:0:
64,192,7609,1,2,0:0:0:0:
192,192,7778,1,8,0:0:0:0:
448,192,7778,1,0,0:0:0:60:Hat Open.wav
320,192,7948,1,0,0:0:0:0:
64,192,8117,1,2,0:0:0:0:
448,192,8287,1,2,0:0:0:0:
192,192,8456,1,8,0:0:0:0:
320,192,8456,1,0,0:0:0:60:Hat Open.wav
64,192,8626,128,2,8965:0:0:0:0:
320,192,8965,1,2,0:0:0:0:
192,192,9134,1,8,0:0:0:0:
448,192,9134,1,0,0:0:0:60:Hat Open.wav
64,192,9304,1,0,0:0:0:0:
320,192,9473,1,2,0:0:0:0:
192,192,9643,1,2,0:0:0:0:
64,192,9812,1,8,0:0:0:0:
320,192,9812,1,0,0:0:0:60:Hat Open.wav
448,192,9982,128,2,10321:0:0:0:0:
192,192,10321,1,2,0:0:0:0:
64,192,10490,1,8,0:0:0:0:
320,192,10490,1,0,0:0:0:60:Hat Open.wav
448,192,10660,1,0,0:0:0:0:
64,192,10829,1,2,0:0:0:0:
192,192,10829,128,4,11168:0:0:0:0:
320,192,11168,1,8,0:0:0:0:
448,192,11168,1,0,0:0:0:40:Clap.wav
64,192,11338,1,2,0:0:0:0:
448,192,11338,128,4,11676:0:0:0:0:
64,192,11676,1,2,0:0:0:0:
192,192,11846,1,8,0:0:0:0:
320,192,11846,1,0,0:0:0:60:Hat Open.wav
448,192,12015,1,0,0:0:0:0:
64,192,12185,128,2,12524:0:0:0:0:
320,192,12185,1,4,0:0:0:0:
192,192,12524,1,8,0:0:0:0:
448,192,12524,1,0,0:0:0:40:Clap.wav
192,192,12693,1,2,0:0:0:0:
320,192,12693,128,4,13032:0:0:0:0:
64,192,13032,1,2,0:0:0:0:
192,192,13202,1,8,0:0:0:0:
448,192,13202,1,0,0:0:0:40:Clap.wav
320,192,13371,1,0,0:0:0:50:Tom1.wav
64,192,13541,128,2,13880:0:0:0:0:
448,192,13541,1,4,0:0:0:0:
192,192,13880,1,8,0:0:0:0:
320,192,13880,1,0,0:0:0:40:Clap.wav
64,192,14049,1,2,0:0:0:0:
448,192,14049,128,4,14388:0:0:0:0:
192,192,14388,1,2,0:0:0:0:
64,192,14558,1,8,0:0:0:0:
320,192,14558,1,0,0:0:0:40:Clap.wav
192,192,14727,128,2,15066:0:0:0:0:
448,192,14727,1,4,0:0:0:0:
64,192,15066,1,8,0:0:0:0:
448,192,15066,1,0,0:0:0:40:Clap.wav
192,192,15236,128,8,15405:0:0:0:0:
320,192,15236,128,0,15405:0:0:0:40:Clap.wav
64,192,15575,128,8,15744:0:0:0:0:
448,192,15575,128,0,15744:0:0:0:40:Clap.wav
192,192,15914,128,0,16083:0:0:0:0:
320,192,16083,128,0,16253:0:0:0:0:
64,192,16253,1,2,0:0:0:0:
448,192,16253,1,4,0:0:0:0:
192,192,16422,1,0,0:0:0:0:
448,192,16592,1,2,0:0:0:0:
64,192,16761,1,0,0:0:0:0:
192,192,16931,1,2,0:0:0:0:
320,192,17100,1,0,0:0:0:0:
192,192,17270,128,2,17609:0:0:0:0:
448,192,17609,1,2,0:0:0:0:
320,192,17778,1,0,0:0:0:0:
64,192,17948,1,2,0:0:0:0:
448,192,18117,1,0,0:0:0:0:
320,192,18287,1,2,0:0:0:0:
192,192,18456,1,0,0:0:0:0:
320,192,18626,128,2,18965:0:0:0:0:
64,192,18965,1,2,0:0:0:0:
448,192,19134,128,0,19473:0:0:0:0:
192,192,19304,1,2,0:0:0:0:
320,192,19473,1,0,0:0:0:0:
64,192,19643,1,2,0:0:0:0:
192,192,19812,1,0,0:0:0:0:
320,192,19982,1,2,0:0:0:0:
448,192,20151,128,0,20660:0:0:0:60:Hat Open.wav
64,192,20321,1,2,0:0:0:0:
192,192,20660,128,2,20999:0:0:0:0:
320,192,20999,1,2,0:0:0:0:
64,192,21168,1,8,0:0:0:0:
448,192,21168,1,0,0:0:0:60:Hat Open.wav
64,192,21338,1,8,0:0:0:0:
448,192,21338,1,0,0:0:0:0:
192,192,21507,1,0,0:0:0:0:
320,192,21676,1,2,0:0:0:0:
448,192,21676,128,4,22015:0:0:0:0:
64,192,22015,1,8,0:0:0:0:
192,192,22015,1,0,0:0:0:60:Hat Open.wav
320,192,22185,1,0,0:0:0:0:
192,192,22354,128,2,23032:0:0:0:0:
448,192,22693,1,8,0:0:0:0:
320,192,23032,1,0,0:0:0:60:Hat Open.wav
64,192,23202,1,2,0:0:0:0:
192,192,23371,1,8,0:0:0:0:
448,192,23371,1,0,0:0:0:60:Hat Open.wav
320,192,23541,128,0,23880:0:0:0:0:
64,192,23880,1,2,0:0:0:0:
192,192,24049,1,8,0:0:0:0:
448,192,24049,1,0,0:0:0:60:Hat Open.wav
320,192,24219,1,0,0:0:0:0:
64,192,24388,128,2,24727:0:0:0:0:
192,192,24727,1,8,0:0:0:0:
448,192,24727,1,0,0:0:0:60:Hat Open.wav
320,192,24897,1,0,0:0:0:0:
64,192,25066,1,2,0:0:0:0:
192,192,25236,1,2,0:0:0:0:
320,192,25405,1,8,0:0:0:0:
448,192,25405,1,0,0:0:0:0:
64,192,25575,1,2,0:0:0:0:
192,192,25575,128,4,25914:0:0:0:0:
320,192,25914,1,8,0:0:0:0:
448,192,25914,1,0,0:0:0:50:Tom3.wav
64,192,26083,1,8,0:0:0:0:
192,192,26083,1,0,0:0:0:50:Tom3.wav
320,192,26253,1,2,0:0:0:0:
64,192,26422,1,8,0:0:0:0:
448,192,26422,1,0,0:0:0:0:
192,192,26592,1,0,0:0:0:0:
320,192,26761,1,0,0:0:0:0:
64,192,27100,1,2,0:0:0:0:
448,192,27100,1,4,0:0:0:0:
192,192,27270,1,0,0:0:0:0:
320,192,27439,1,2,0:0:0:0:
64,192,27609,1,0,0:0:0:35:Hat Close.wav
192,192,27778,1,2,0:0:0:0:
448,192,27948,1,0,0:0:0:35:Hat Close.wav
192,192,28117,128,2,28456:0:0:0:0:
320,192,28456,1,2,0:0:0:0:
64,192,28626,128,0,28965:0:0:0:0:
448,192,28795,1,2,0:0:0:0:
192,192,28965,1,0,0:0:0:35:Hat Close.wav
320,192,29134,1,2,0:0:0:0:
64,192,29304,1,0,0:0:0:35:Hat Close.wav
320,192,29473,128,2,29812:0:0:0:0:
192,192,29812,1,2,0:0:0:0:
448,192,29982,128,0,30321:0:0:0:0:
64,192,30151,1,2,0:0:0:0:
192,192,30321,1,0,0:0:0:35:Hat Close.wav
320,192,30490,1,2,0:0:0:0:
64,192,30660,1,0,0:0:0:35:Hat Close.wav
448,192,30829,1,2,0:0:0:0:
192,192,30999,128,0,31507:0:0:0:60:Hat Open.wav
320,192,31168,1,2,0:0:0:0:
448,192,31507,128,2,31846:0:0:0:0:
64,192,31846,1,2,0:0:0:0:
192,192,32015,1,8,0:0:0:0:
320,192,32015,1,0,0:0:0:30:soft-hitfinish.wav
192,192,32185,1,8,0:0:0:0:
320,192,32185,1,0,0:0:0:0:
448,192,32354,1,0,0:0:0:50:Tom2.wav
64,192,32524,1,2,0:0:0:0:
192,192,32524,128,4,32863:0:0:0:0:
320,192,32863,1,8,0:0:0:0:
448,192,32863,1,0,0:0:0:60:Hat Open.wav
64,192,33032,1,0,0:0:0:0:
320,192,33202,128,2,33880:0:0:0:0:
192,192,33541,1,8,0:0:0:0:
64,192,33880,1,0,0:0:0:60:Hat Open.wav
448,192,34049,1,2,0:0:0:0:
192,192,34219,1,8,0:0:0:0:
320,192,34219,1,0,0:0:0:60:Hat Open.wav
64,192,34388,128,0,34727:0:0:0:0:
448,192,34558,1,2,0:0:0:0:
320,192,34727,1,2,0:0:0:0:
64,192,34897,1,8,0:0:0:0:
192,192,34897,1,0,0:0:0:60:Hat Open.wav
320,192,35066,1,0,0:0:0:0:
192,192,35236,1,4,0:0:0:0:
448,192,35236,128,2,35575:0:0:0:0:
64,192,35575,1,8,0:0:0:0:
320,192,35575,1,0,0:0:0:60:Hat Open.wav
192,192,35744,1,2,0:0:0:0:
64,192,35914,1,8,0:0:0:0:
448,192,35914,1,0,0:0:0:60:Hat Open.wav
320,192,36083,1,2,0:0:0:0:
64,192,36253,1,8,0:0:0:0:
192,192,36253,1,0,0:0:0:0:
320,192,36422,128,2,36761:0:0:0:0:
448,192,36422,1,4,0:0:0:0:
64,192,36761,1,8,0:0:0:0:
192,192,36761,1,0,0:0:0:50:Tom3.wav
320,192,36931,1,8,0:0:0:0:
448,192,36931,1,0,0:0:0:50:Tom3.wav
192,192,37100,1,8,0:0:0:0:
64,192,37270,1,8,0:0:0:0:
448,192,37270,1,0,0:0:0:0:
320,192,37439,1,0,0:0:0:50:Tom1.wav
192,192,37609,1,0,0:0:0:50:Tom2.wav
64,192,37778,1,0,0:0:0:50:Tom3.wav
320,192,37948,1,4,0:0:0:0:
448,192,37948,128,2,38287:0:0:0:0:
64,192,38287,1,2,0:0:0:0:
192,192,38456,128,8,38795:0:0:0:0:
320,192,38456,1,0,0:0:0:0:
448,192,38795,1,2,0:0:0:0:
64,192,38965,1,8,0:0:0:0:
320,192,38965,128,0,39304:0:0:0:40:Ride.wav
64,192,39304,128,2,39643:0:0:0:0:
448,192,39643,1,2,0:0:0:0:
64,192,39812,1,8,0:0:0:0:
320,192,39812,1,0,0:0:0:0:
192,192,39982,128,0,40321:0:0:0:40:Ride.wav
64,192,40321,1,8,0:0:0:0:
448,192,40321,1,0,0:0:0:40:Ride.wav
320,192,40490,1,0,0:0:0:50:Tom2.wav
64,192,40660,128,4,40999:0:0:0:0:
192,192,40660,1,2,0:0:0:0:
320,192,40999,1,2,0:0:0:0:
192,192,41168,1,8,0:0:0:0:
448,192,41168,128,0,41507:0:0:0:0:
64,192,41507,1,2,0:0:0:0:
192,192,41676,128,8,42015:0:0:0:0:
320,192,41676,1,0,0:0:0:40:Ride.wav
320,192,42015,128,2,42354:0:0:0:0:
64,192,42354,1,2,0:0:0:0:
192,192,42524,1,8,0:0:0:0:
320,192,42524,1,0,0:0:0:0:
448,192,42693,128,0,43032:0:0:0:40:Ride.wav
64,192,43032,1,8,0:0:0:0:
320,192,43032,1,0,0:0:0:40:Ride.wav
192,192,43202,1,8,0:0:0:0:
64,192,43371,128,2,43710:0:0:0:0:
448,192,43371,1,4,0:0:0:0:
320,192,43710,1,2,0:0:0:0:
320,192,43880,1,8,0:0:0:20:soft-hitclap.wav
192,192,44049,1,2,0:0:0:0:
192,192,44219,1,8,0:0:0:25:soft-hitclap.wav
448,192,44388,1,2,0:0:0:0:
448,192,44558,1,8,0:0:0:35:soft-hitclap.wav
64,192,44727,1,2,0:0:0:0:
320,192,44727,1,8,0:0:0:40:soft-hitclap.wav
64,192,44897,1,8,0:0:0:0:
192,192,45066,1,10,0:0:0:0:
320,192,45066,1,0,0:0:0:50:Tom3.wav
320,192,45236,1,8,0:0:0:0:
64,192,45405,1,10,0:0:0:0:
448,192,45405,1,0,0:0:0:50:Tom3.wav
192,192,45575,1,0,0:0:0:50:Tom2.wav
320,192,45744,1,0,0:0:0:50:Tom3.wav
64,192,45914,1,2,0:0:0:0:
448,192,45914,128,4,46253:0:0:0:0:
192,192,46253,1,2,0:0:0:0:
64,192,46422,1,8,0:0:0:0:
320,192,46422,1,0,0:0:0:60:Hat Open.wav
192,192,46761,1,2,0:0:0:0:
320,192,46931,1,2,0:0:0:0:
64,192,47100,1,8,0:0:0:0:
448,192,47100,1,0,0:0:0:60:Hat Open.wav
192,192,47270,128,2,47609:0:0:0:0:
320,192,47609,1,2,0:0:0:0:
64,192,47778,1,8,0:0:0:0:
192,192,47778,1,0,0:0:0:60:Hat Open.wav
448,192,47948,128,0,48287:0:0:0:0:
192,192,48287,1,2,0:0:0:0:
64,192,48456,128,8,48795:0:0:0:0:
320,192,48456,1,4,0:0:0:0:
320,192,48795,1,4,0:0:0:0:
448,192,48795,1,2,0:0:0:0:
192,192,48965,1,2,0:0:0:0:
64,192,49134,1,8,0:0:0:0:
448,192,49134,1,0,0:0:0:0:
192,192,49304,128,2,49643:0:0:0:0:
320,192,49304,1,4,0:0:0:0:
448,192,49643,1,2,0:0:0:0:
64,192,49812,1,8,0:0:0:0:
320,192,49812,1,0,0:0:0:0:
192,192,49982,1,4,0:0:0:0:
448,192,49982,128,2,50321:0:0:0:0:
64,192,50321,1,2,0:0:0:0:
192,192,50490,1,8,0:0:0:0:
320,192,50490,1,0,0:0:0:60:Hat Open.wav
448,192,50660,1,2,0:0:0:0:
64,192,50829,1,8,0:0:0:0:
192,192,50829,1,0,0:0:0:60:Hat Open.wav
320,192,50999,1,2,0:0:0:0:
64,192,51168,1,8,0:0:0:0:
448,192,51168,1,4,0:0:0:0:
192,192,51507,128,8,51846:0:0:0:0:
320,192,51507,1,0,0:0:0:0:
448,192,51846,1,2,0:0:0:0:
64,192,52015,128,8,52185:0:0:0:0:
320,192,52015,128,0,52185:0:0:0:60:Hat Open.wav
192,192,52354,128,8,52524:0:0:0:0:
448,192,52354,128,0,52524:0:0:0:60:Hat Open.wav
192,192,52693,128,8,52863:0:0:0:0:
448,192,52693,128,0,52863:0:0:0:60:Hat Open.wav
320,192,53202,1,0,0:0:0:0:
320,192,53371,1,0,0:0:0:0:
192,192,53541,1,0,0:0:0:0:
64,192,53710,1,0,0:0:0:0:
320,192,54049,128,2,54388:0:0:0:0:
448,192,54049,128,4,54388:0:0:0:0:
192,192,54388,1,0,0:0:0:60:Hat Open.wav
64,192,54558,1,8,0:0:0:0:
320,192,54558,1,2,0:0:0:0:
448,192,54727,1,0,0:0:0:60:Hat Open.wav
192,192,54897,128,2,55236:0:0:0:0:
64,192,55236,1,8,0:0:0:0:
448,192,55236,1,2,0:0:0:0:
320,192,55405,128,0,55744:0:0:0:60:Hat Open.wav
64,192,55575,1,2,0:0:0:0:
192,192,55744,1,0,0:0:0:60:Hat Open.wav
320,192,55914,1,8,0:0:0:0:
448,192,55914,1,2,0:0:0:0:
192,192,56083,1,0,0:0:0:60:Hat Open.wav
64,192,56253,1,2,0:0:0:0:
320,192,56422,1,8,0:0:0:0:
448,192,56422,1,0,0:0:0:40:Clap.wav
320,192,56592,1,8,0:0:0:0:
448,192,56592,1,0,0:0:0:40:Clap.wav
64,192,56761,1,2,0:0:0:0:
192,192,56761,128,4,57100:0:0:0:0:
448,192,57100,1,0,0:0:0:60:Hat Open.wav
64,192,57270,1,8,0:0:0:0:
320,192,57270,1,2,0:0:0:0:
192,192,57439,1,0,0:0:0:60:Hat Open.wav
448,192,57609,128,2,57948:0:0:0:0:
192,192,57948,1,2,0:0:0:0:
320,192,57948,1,8,0:0:0:0:
64,192,58117,128,0,58456:0:0:0:60:Hat Open.wav
448,192,58287,1,2,0:0:0:0:
320,192,58456,1,0,0:0:0:60:Hat Open.wav
64,192,58626,1,2,0:0:0:0:
192,192,58626,1,8,0:0:0:0:
320,192,58795,1,0,0:0:0:60:Hat Open.wav
448,192,58965,1,2,0:0:0:0:
64,192,59134,1,8,0:0:0:0:
192,192,59134,1,0,0:0:0:40:Clap.wav
64,192,59304,1,8,0:0:0:0:
192,192,59304,1,0,0:0:0:40:Clap.wav
320,192,59473,1,0,0:0:0:50:Tom1.wav
64,192,59643,128,2,59982:0:0:0:0:
448,192,59643,1,4,0:0:0:0:
192,192,59982,1,8,0:0:0:0:
320,192,59982,1,2,0:0:0:0:
448,192,60151,128,0,60660:0:0:0:60:Hat Open.wav
64,192,60321,1,2,0:0:0:0:
192,192,60660,128,8,60999:0:0:0:0:
320,192,60660,1,2,0:0:0:0:
448,192,60999,128,2,61338:0:0:0:0:
64,192,61338,128,2,61676:0:0:0:0:
192,192,61338,1,8,0:0:0:0:
320,192,61676,128,2,62015:0:0:0:0:
64,192,62015,1,2,0:0:0:0:
448,192,62015,1,8,0:0:0:0:
192,192,62185,1,8,0:0:0:0:
320,192,62354,128,4,62693:0:0:0:0:
448,192,62354,1,2,0:0:0:0:
64,192,62693,1,8,0:0:0:0:
192,192,62693,1,0,0:0:0:60:Hat Open.wav
192,192,63032,128,2,63371:0:0:0:0:
448,192,63032,1,4,0:0:0:0:
64,192,63371,1,8,0:0:0:0:
320,192,63371,1,0,0:0:0:0:
192,192,63541,1,2,0:0:0:0:
448,192,63541,128,4,63880:0:0:0:0:
64,192,63880,1,2,0:0:0:0:
192,192,64049,1,8,0:0:0:0:
320,192,64049,1,0,0:0:0:0:
64,192,64219,1,2,0:0:0:0:
448,192,64219,128,0,64388:0:0:0:60:Hat Open.wav
192,192,64558,1,2,0:0:0:0:
320,192,64558,128,0,64727:0:0:0:60:Hat Open.wav
64,192,64897,1,2,0:0:0:0:
192,192,64897,128,4,65236:0:0:0:0:
320,192,65236,1,0,0:0:0:60:Hat Open.wav
64,192,65405,1,8,0:0:0:0:
448,192,65405,1,2,0:0:0:0:
192,192,65575,1,0,0:0:0:60:Hat Open.wav
320,192,65744,128,2,66083:0:0:0:0:
64,192,66083,1,8,0:0:0:0:
448,192,66083,1,2,0:0:0:0:
192,192,66253,128,0,66592:0:0:0:60:Hat Open.wav
448,192,66422,1,2,0:0:0:0:
64,192,66592,1,0,0:0:0:60:Hat Open.wav
192,192,66761,1,2,0:0:0:0:
320,192,66761,1,8,0:0:0:0:
448,192,66931,1,0,0:0:0:60:Hat Open.wav
64,192,67100,1,2,0:0:0:0:
192,192,67270,1,8,0:0:0:0:
320,192,67270,1,0,0:0:0:40:Clap.wav
192,192,67439,1,10,0:0:0:0:
320,192,67439,1,0,0:0:0:40:Clap.wav
192,192,67778,1,2,0:0:0:0:
448,192,67778,128,4,68117:0:0:0:0:
64,192,68117,1,8,0:0:0:0:
320,192,68117,128,2,68456:0:0:0:0:
192,192,68456,128,2,68795:0:0:0:0:
64,192,68795,128,2,69134:0:0:0:0:
448,192,68795,1,8,0:0:0:0:
320,192,69134,128,2,69473:0:0:0:0:
64,192,69473,1,8,0:0:0:0:
448,192,69473,128,2,69812:0:0:0:0:
320,192,69812,1,2,0:0:0:0:
64,192,69982,1,8,0:0:0:0:
192,192,69982,1,0,0:0:0:40:Clap.wav
64,192,70151,1,8,0:0:0:0:
192,192,70151,1,0,0:0:0:40:Clap.wav
320,192,70321,1,0,0:0:0:50:Tom1.wav
64,192,70490,1,4,0:0:0:0:
448,192,70490,128,2,70829:0:0:0:0:
192,192,70829,1,0,0:0:0:60:Hat Open.wav
64,192,70999,128,2,71846:0:0:0:0:
320,192,71168,1,8,0:0:0:0:
448,192,71338,1,2,0:0:0:0:
192,192,71676,1,8,0:0:0:0:
448,192,71846,1,2,0:0:0:0:
192,192,72015,1,8,0:0:0:0:
320,192,72015,1,0,0:0:0:0:
64,192,72185,1,0,0:0:0:60:Hat Open.wav
320,192,72354,1,2,0:0:0:0:
192,192,72524,1,8,0:0:0:0:
448,192,72524,1,0,0:0:0:60:Hat Open.wav
64,192,72693,1,2,0:0:0:0:
320,192,72863,1,0,0:0:0:60:Hat Open.wav
64,192,73032,1,8,0:0:0:0:
192,192,73032,1,0,0:0:0:0:
320,192,73202,1,2,0:0:0:0:
448,192,73202,128,4,73541:0:0:0:0:
64,192,73541,1,0,0:0:0:60:Hat Open.wav
192,192,73710,1,2,0:0:0:0:
320,192,73880,1,8,0:0:0:0:
448,192,73880,1,0,0:0:0:60:Hat Open.wav
192,192,74049,1,2,0:0:0:0:
64,192,74219,1,8,0:0:0:0:
448,192,74219,1,0,0:0:0:0:
192,192,74388,128,4,74727:0:0:0:0:
320,192,74388,1,2,0:0:0:0:
448,192,74727,1,2,0:0:0:0:
64,192,74897,1,8,0:0:0:0:
320,192,74897,1,0,0:0:0:60:Hat Open.wav
192,192,75066,1,2,0:0:0:0:
320,192,75236,128,8,75405:0:0:0:0:
448,192,75236,1,0,0:0:0:0:
64,192,75405,128,2,75575:0:0:0:0:
448,192,75575,128,0,75744:0:0:0:50:Tom2.wav
192,192,75744,128,2,75914:0:0:0:0:
320,192,75914,1,8,0:0:0:0:
448,192,75914,1,4,0:0:0:0:
320,192,76253,1,8,0:0:0:0:
448,192,76253,1,0,0:0:0:60:Hat Open.wav
320,192,76592,1,8,0:0:0:0:
448,192,76592,1,0,0:0:0:60:Hat Open.wav
192,192,76761,1,2,0:0:0:0:
64,192,76931,1,8,0:0:0:0:
448,192,76931,1,0,0:0:0:60:Hat Open.wav
320,192,77100,1,2,0:0:0:0:
64,192,77270,1,8,0:0:0:0:
192,192,77270,1,0,0:0:0:60:Hat Open.wav
64,192,77609,1,8,0:0:0:0:
192,192,77609,1,0,0:0:0:60:Hat Open.wav
448,192,77778,1,2,0:0:0:0:
192,192,77948,1,8,0:0:0:0:
320,192,77948,1,0,0:0:0:60:Hat Open.wav
64,192,78117,1,2,0:0:0:0:
320,192,78287,1,8,0:0:0:0:
448,192,78287,1,0,0:0:0:60:Hat Open.wav
192,192,78456,1,2,0:0:0:0:
64,192,78626,1,8,0:0:0:0:
448,192,78626,1,0,0:0:0:60:Hat Open.wav
64,192,78965,1,8,0:0:0:0:
448,192,78965,1,0,0:0:0:60:Hat Open.wav
64,192,79304,1,8,0:0:0:0:
448,192,79304,1,0,0:0:0:60:Hat Open.wav
192,192,79473,1,2,0:0:0:0:
320,192,79643,1,8,0:0:0:0:
448,192,79643,1,0,0:0:0:60:Hat Open.wav
64,192,79812,1,2,0:0:0:0:
192,192,79982,1,8,0:0:0:0:
320,192,79982,1,0,0:0:0:60:Hat Open.wav
192,192,80321,1,8,0:0:0:0:
320,192,80321,1,0,0:0:0:60:Hat Open.wav
448,192,80490,1,2,0:0:0:0:
64,192,80660,1,8,0:0:0:0:
192,192,80660,1,0,0:0:0:60:Hat Open.wav
320,192,80829,1,2,0:0:0:0:
192,192,80999,1,8,0:0:0:0:
448,192,80999,1,0,0:0:0:60:Hat Open.wav
64,192,81168,1,2,0:0:0:0:
320,192,81338,1,4,0:0:0:0:
448,192,81338,1,8,0:0:0:0:
192,192,81676,1,8,0:0:0:0:
320,192,81676,1,0,0:0:0:60:Hat Open.wav
64,192,82015,1,8,0:0:0:0:
192,192,82015,1,0,0:0:0:60:Hat Open.wav
448,192,82185,1,2,0:0:0:0:
64,192,82354,1,8,0:0:0:0:
320,192,82354,1,0,0:0:0:60:Hat Open.wav
192,192,82524,1,2,0:0:0:0:
320,192,82693,1,8,0:0:0:0:
448,192,82693,1,0,0:0:0:60:Hat Open.wav
64,192,83032,1,8,0:0:0:0:
448,192,83032,1,0,0:0:0:60:Hat Open.wav
320,192,83202,1,2,0:0:0:0:
64,192,83371,1,8,0:0:0:0:
192,192,83371,1,0,0:0:0:60:Hat Open.wav
448,192,83541,1,2,0:0:0:0:
64,192,83710,1,8,0:0:0:0:
320,192,83710,1,0,0:0:0:60:Hat Open.wav
192,192,83880,1,2,0:0:0:0:
320,192,84049,128,2,84388:0:0:0:0:
448,192,84049,1,4,0:0:0:0:
64,192,84388,1,8,0:0:0:0:
192,192,84388,1,0,0:0:0:0:
320,192,84558,1,2,0:0:0:0:
448,192,84558,128,4,84897:0:0:0:0:
192,192,84897,1,2,0:0:0:0:
64,192,85066,128,8,85405:0:0:0:0:
320,192,85066,1,0,0:0:0:0:
192,192,85405,1,8,0:0:0:0:
448,192,85405,1,0,0:0:0:50:Tom3.wav
320,192,85575,1,2,0:0:0:0:
64,192,85744,1,8,0:0:0:0:
448,192,85744,1,4,0:0:0:0:
192,192,85914,1,0,0:0:0:0:
64,192,86083,1,8,0:0:0:0:
320,192,86083,128,0,86422:0:0:0:0:
192,192,86422,128,0,86761:0:0:0:50:Tom3.wav
320,192,86761,128,4,87778:0:0:0:0:
448,192,86761,1,2,0:0:0:0:
64,192,87100,1,0,0:0:0:40:Ride.wav
448,192,87270,1,2,0:0:0:0:
192,192,87439,1,8,0:0:0:0:
64,192,87778,1,0,0:0:0:40:Ride.wav
448,192,87948,1,2,0:0:0:0:
64,192,88117,1,2,0:0:0:0:
192,192,88287,1,8,0:0:0:0:
320,192,88287,1,0,0:0:0:0:
448,192,88456,1,0,0:0:0:40:Ride.wav
64,192,88626,1,2,0:0:0:0:
192,192,88795,128,8,89134:0:0:0:0:
320,192,88795,1,0,0:0:0:0:
64,192,89134,1,8,0:0:0:0:
448,192,89134,128,0,89473:0:0:0:0:
192,192,89473,1,4,0:0:0:0:
320,192,89473,1,2,0:0:0:0:
64,192,89643,1,0,0:0:0:0:
320,192,89812,1,8,0:0:0:0:
448,192,89812,1,0,0:0:0:60:Hat Open.wav
192,192,89982,128,2,90321:0:0:0:0:
448,192,90321,1,2,0:0:0:0:
64,192,90490,1,8,0:0:0:0:
320,192,90490,1,0,0:0:0:60:Hat Open.wav
192,192,90660,1,0,0:0:0:0:
448,192,90829,1,2,0:0:0:0:
64,192,90999,1,2,0:0:0:0:
192,192,91168,1,8,0:0:0:0:
320,192,91168,1,0,0:0:0:60:Hat Open.wav
448,192,91338,128,2,91676:0:0:0:0:
192,192,91676,1,2,0:0:0:0:
64,192,91846,1,8,0:0:0:0:
320,192,91846,1,0,0:0:0:60:Hat Open.wav
448,192,92015,1,0,0:0:0:0:
192,192,92185,1,2,0:0:0:0:
320,192,92354,1,0,0:0:0:0:
192,192,92524,1,8,0:0:0:0:
448,192,92524,1,0,0:0:0:60:Hat Open.wav
64,192,92693,128,2,93032:0:0:0:0:
448,192,93032,1,2,0:0:0:0:
192,192,93202,1,8,0:0:0:0:
320,192,93202,1,0,0:0:0:60:Hat Open.wav
64,192,93371,1,0,0:0:0:0:
448,192,93541,1,2,0:0:0:0:
320,192,93710,1,2,0:0:0:0:
64,192,93880,1,8,0:0:0:0:
192,192,93880,1,0,0:0:0:60:Hat Open.wav
320,192,94049,128,2,94388:0:0:0:0:
192,192,94388,1,2,0:0:0:0:
64,192,94558,1,8,0:0:0:0:
448,192,94558,1,0,0:0:0:60:Hat Open.wav
320,192,94727,1,8,0:0:0:0:
192,192,94897,1,4,0:0:0:0:
448,192,94897,128,2,95236:0:0:0:0:
64,192,95236,1,8,0:0:0:0:
320,192,95236,1,0,0:0:0:40:Clap.wav
64,192,95405,1,4,0:0:0:0:
192,192,95405,128,2,95744:0:0:0:0:
320,192,95744,1,2,0:0:0:0:
64,192,95914,1,8,0:0:0:0:
448,192,95914,1,0,0:0:0:40:Clap.wav
192,192,96083,1,0,0:0:0:0:
64,192,96253,1,2,0:0:0:0:
320,192,96253,128,4,96592:0:0:0:0:
192,192,96592,1,8,0:0:0:0:
448,192,96592,1,0,0:0:0:40:Clap.wav
64,192,96761,128,2,97100:0:0:0:0:
448,192,96761,1,4,0:0:0:0:
320,192,97100,1,2,0:0:0:0:
192,192,97270,128,8,97609:0:0:0:0:
448,192,97270,1,0,0:0:0:40:Clap.wav
320,192,97609,128,4,97948:0:0:0:0:
448,192,97609,1,2,0:0:0:0:
64,192,97948,1,8,0:0:0:0:
192,192,97948,1,0,0:0:0:40:Clap.wav
64,192,98117,128,2,98456:0:0:0:0:
448,192,98117,1,4,0:0:0:0:
192,192,98456,1,8,0:0:0:0:
320,192,98456,1,0,0:0:0:40:Clap.wav
192,192,98626,1,8,0:0:0:0:
64,192,98795,1,2,0:0:0:0:
448,192,98795,128,4,99134:0:0:0:0:
320,192,99134,1,2,0:0:0:0:
64,192,99304,1,8,0:0:0:0:
192,192,99304,1,0,0:0:0:60:Hat Open.wav
320,192,99473,1,2,0:0:0:0:
64,192,99643,128,8,99812:0:0:0:0:
448,192,99643,1,0,0:0:0:40:Clap.wav
192,192,99812,128,0,99982:0:0:0:50:Tom1.wav
320,192,99982,128,0,100151:0:0:0:50:Tom2.wav
64,192,100151,1,2,0:0:0:0:
448,192,100151,128,4,100490:0:0:0:0:
192,192,100490,1,2,0:0:0:0:
64,192,100660,1,8,0:0:0:0:
320,192,100660,1,0,0:0:0:60:Hat Open.wav
448,192,100829,1,2,0:0:0:0:
64,192,100999,1,8,0:0:0:0:
192,192,100999,1,0,0:0:0:60:Hat Open.wav
320,192,101168,1,2,0:0:0:0:
192,192,101338,1,8,0:0:0:0:
448,192,101338,1,0,0:0:0:0:
64,192,101507,128,2,101846:0:0:0:0:
320,192,101507,1,4,0:0:0:0:
448,192,101846,1,2,0:0:0:0:
192,192,102015,1,8,0:0:0:0:
320,192,102015,1,0,0:0:0:60:Hat Open.wav
64,192,102185,1,2,0:0:0:0:
320,192,102354,1,8,0:0:0:0:
448,192,102354,1,0,0:0:0:50:Tom3.wav
192,192,102524,1,8,0:0:0:0:
64,192,102693,1,8,0:0:0:0:
448,192,102693,1,0,0:0:0:50:Tom3.wav
192,192,102863,128,2,104049:0:0:0:0:
320,192,102863,128,4,104501:0:0:0:0:
