osu file format v14

[General]
AudioFilename: audio.MP3
AudioLeadIn: 0
PreviewTime: -1
Countdown: 1
SampleSet: Soft
StackLeniency: 0.7
Mode: 0
LetterboxInBreaks: 0
WidescreenStoryboard: 0

[Editor]
DistanceSpacing: 1
BeatDivisor: 4
GridSize: 4
TimelineZoom: 1

[Metadata]
Title:Szerelem Szall (Nightcore Mix)
TitleUnicode:Szerelem Száll (Nightcore Mix)
Artist:Peat Jr. & Fernando
ArtistUnicode:Peat Jr. & Fernando
Creator:ShadowSoul
Version:
Source:
Tags:
BeatmapID:1131181
BeatmapSetID:533986

[Difficulty]
HPDrainRate:7
CircleSize:4
OverallDifficulty:7
ApproachRate:9
SliderMultiplier:1.8
SliderTickRate:1

[Events]
//Background and Video events
0,0,"bg.jpg",0,0
//Break Periods
//Storyboard Layer 0 (Background)
//Storyboard Layer 1 (Fail)
//Storyboard Layer 2 (Pass)
//Storyboard Layer 3 (Foreground)
//Storyboard Sound Samples

[TimingPoints]
2332,378.787878787879,4,2,0,15,1,0

[HitObjects]
256,192,816,12,0,1953,0:0:0:0:
312,88,2332,6,0,L|352:184,1,90
288,296,2710,2,0,L|248:200,1,90
178,148,3089,2,0,L|144:232,1,90
101,115,3468,2,0,L|136:32,1,90
72,192,3847,6,0,P|40:232|32:272,1,90
178,148,4225,2,0,P|210:108|218:68,1,90
144,232,4604,2,0,P|193:244|233:234,1,90
101,115,4982,2,0,P|51:102|11:112,1,90
176,80,5362,6,0,B|216:56|216:56|232:16,1,90
308,48,5741,1,0,0:0:0:0:
396,32,5930,1,0,0:0:0:0:
476,72,6119,2,0,P|468:120|476:160,1,90
400,208,6498,1,0,0:0:0:0:
344,288,6688,1,0,0:0:0:0:
344,288,6782,1,0,0:0:0:0:
344,288,6877,2,0,P|256:312|168:288,2,180
256,64,8013,6,0,L|256:160,1,90
312,216,8392,6,0,P|344:176|352:136,1,90
160,138,8771,2,0,P|170:182|200:216,1,90
208,56,9150,2,0,B|168:40|168:40|120:48,1,90
304,56,9528,2,0,B|344:40|344:40|392:48,1,90
320,152,9907,5,0,0:0:0:0:
320,152,10097,1,0,0:0:0:0:
192,152,10286,1,0,0:0:0:0:
192,152,10476,1,0,0:0:0:0:
160,328,10665,2,0,B|192:288|192:288|200:248,1,90
352,328,11044,2,0,B|320:288|320:288|312:248,1,90
256,192,11422,6,0,B|288:104|224:96|256:16,1,180
255,16,11991,1,0,0:0:0:0:
376,136,12180,2,0,P|388:88|384:40,1,90
126,47,12559,2,0,P|124:92|136:136,1,90
256,192,12938,12,0,13695,0:0:0:0:
132,220,14074,5,0,0:0:0:0:
136,224,14453,6,0,P|147:187|147:131,1,90
184,56,14832,1,0,0:0:0:0:
264,16,15021,1,0,0:0:0:0:
352,8,15210,2,0,B|376:48|376:48|416:64,1,90
472,200,15589,2,0,B|448:160|448:160|408:144,1,90
352,224,15968,5,0,0:0:0:0:
272,288,16157,1,0,0:0:0:0:
256,184,16347,1,0,0:0:0:0:
328,120,16536,1,0,0:0:0:0:
424,136,16725,2,0,P|432:96|456:48,1,90
360,32,17104,1,0,0:0:0:0:
360,32,17294,1,0,0:0:0:0:
259,50,17483,6,0,P|204:66|179:87,1,90
153,213,17862,2,0,P|196:203|232:176,1,90
328,120,18241,2,0,P|327:164|319:209,2,90
259,50,18809,1,0,0:0:0:0:
259,50,18903,1,0,0:0:0:0:
259,50,18998,1,0,0:0:0:0:
259,50,19377,5,0,0:0:0:0:
442,46,19756,1,0,0:0:0:0:
480,222,20135,1,0,0:0:0:0:
336,336,20513,6,0,L|248:368,1,90
128,288,20892,2,0,L|216:256,1,90
296,176,21271,1,0,0:0:0:0:
320,48,21460,1,0,0:0:0:0:
296,176,21650,1,0,0:0:0:0:
320,48,21839,1,0,0:0:0:0:
216,88,22028,6,0,B|176:72|176:72|152:32,1,90
392,128,22407,2,0,B|432:144|432:144|456:184,1,90
376,272,22786,1,0,0:0:0:0:
272,64,22975,1,0,0:0:0:0:
232,248,23165,1,0,0:0:0:0:
416,88,23354,1,0,0:0:0:0:
376,272,23544,6,0,P|408:312|416:352,1,90
256,176,23922,2,0,P|224:136|216:96,1,90
248,296,24301,2,0,P|199:308|159:298,1,90
368,152,24679,2,0,P|418:139|458:149,1,90
504,224,25059,1,0,0:0:0:0:
424,16,25438,5,0,0:0:0:0:
364,76,25816,1,0,0:0:0:0:
288,112,26195,1,0,0:0:0:0:
200,104,26385,5,0,0:0:0:0:
200,104,26479,1,0,0:0:0:0:
200,104,26574,2,0,B|160:88|160:88|112:88,1,90
56,144,26858,2,0,B|96:160|96:160|144:160,1,90
142,160,27142,1,0,0:0:0:0:
288,120,27332,1,0,0:0:0:0:
288,120,27426,1,0,0:0:0:0:
288,120,27521,1,0,0:0:0:0:
448,72,27710,5,0,0:0:0:0:
464,104,27805,1,0,0:0:0:0:
480,136,27900,1,0,0:0:0:0:
496,168,27994,1,0,0:0:0:0:
512,200,28089,2,0,P|480:216|432:240,1,90
384,328,28373,2,0,P|336:304|287:304,1,90
240,248,28657,1,0,0:0:0:0:
216,56,28847,5,0,0:0:0:0:
448,72,29036,1,0,0:0:0:0:
312,120,29225,1,0,0:0:0:0:
288,104,29320,1,0,0:0:0:0:
264,88,29415,1,0,0:0:0:0:
240,72,29510,1,0,0:0:0:0:
216,56,29604,6,0,B|168:48|168:48|120:48,1,90
80,120,29888,1,0,0:0:0:0:
80,120,29983,2,0,B|128:128|128:128|176:128,1,90
312,120,30362,5,0,0:0:0:0:
192,336,30741,1,0,0:0:0:0:
84,248,30930,1,0,0:0:0:0:
80,120,31119,1,0,0:0:0:0:
80,120,31214,1,0,0:0:0:0:
312,120,31403,1,0,0:0:0:0:
312,120,31498,1,0,0:0:0:0:
432,208,31688,5,0,0:0:0:0:
432,208,31877,2,0,B|464:184|464:184|512:168,1,90
432,48,32256,2,0,B|400:24|400:24|352:8,1,90
216,80,32635,2,0,P|152:96|80:80,2,135
328,176,33392,5,0,0:0:0:0:
236,288,33582,1,0,0:0:0:0:
376,276,33771,1,0,0:0:0:0:
352,380,33960,1,0,0:0:0:0:
476,324,34150,6,0,P|484:268|508:188,2,135
376,272,34907,1,0,0:0:0:0:
316,128,35097,1,0,0:0:0:0:
460,48,35286,1,0,0:0:0:0:
256,192,35475,12,0,37559,0:0:0:0:
312,319,37938,6,0,P|318:275|335:233,1,90
176,233,38316,2,0,P|193:275|199:319,1,90
324,144,38695,2,0,B|280:116|256:84|256:84|232:116|189:142,1,180
392,92,39263,2,0,B|336:64|304:24|304:24|280:0|241:3,1,180
160,32,39832,1,0,0:0:0:0:
80,80,40021,1,0,0:0:0:0:
31,156,40210,2,0,P|47:203|54:256,1,90
126,290,40589,6,0,B|158:255|158:255|205:229,1,90
386,290,40968,2,0,B|354:255|354:255|316:234,1,90
204,129,41347,2,0,P|192:75|172:31,1,90
308,129,41725,2,0,P|320:75|340:31,1,90
100,38,42104,5,0,0:0:0:0:
381,162,42294,1,0,0:0:0:0:
131,162,42483,1,0,0:0:0:0:
412,38,42673,1,0,0:0:0:0:
56,244,42862,5,0,0:0:0:0:
256,304,43052,1,0,0:0:0:0:
456,244,43241,1,0,0:0:0:0:
255,45,43619,5,0,0:0:0:0:
114,101,43809,2,0,P|160:121|199:119,1,90
398,101,44188,1,0,0:0:0:0:
398,101,44282,1,0,0:0:0:0:
398,101,44377,2,0,P|352:121|313:119,1,90
256,204,44756,6,0,B|256:297,1,90
256,294,45135,1,0,0:0:0:0:
324,110,45324,2,0,B|323:63|323:63|333:18,1,90
188,110,45703,1,0,0:0:0:0:
188,110,45797,1,0,0:0:0:0:
188,110,45892,2,0,B|189:63|189:63|179:18,1,90
151,191,46271,6,0,P|119:231|111:271,1,90
296,252,46649,2,0,P|328:212|336:172,1,90
243,334,47028,2,0,P|292:346|332:336,1,90
193,114,47406,2,0,P|143:101|103:111,1,90
256,192,47786,12,0,49301,0:0:0:0:
256,40,49869,5,0,0:0:0:0:
316,104,50059,2,0,P|256:128|192:104,1,135
192,104,50438,1,0,0:0:0:0:
88,220,50627,1,0,0:0:0:0:
