osu file format v14

[General]
AudioFilename: audio.mp3
AudioLeadIn: 0
PreviewTime: 117129
Countdown: 0
SampleSet: Normal
StackLeniency: 0.4
Mode: 0
LetterboxInBreaks: 0
WidescreenStoryboard: 1

[Editor]
Bookmarks: 117219,140434,163787
DistanceSpacing: 1
BeatDivisor: 4
GridSize: 32
TimelineZoom: 2.6

[Metadata]
Title:Alrighty Aphrodite
TitleUnicode:Alrighty Aphrodite
Artist:Peach Pit
ArtistUnicode:Peach Pit
Creator:-Zel
Version:Normal
Source:
Tags:rock english being so normal fsjallink kadzackzz
BeatmapID:0
BeatmapSetID:1915272

[Difficulty]
HPDrainRate:3
CircleSize:3.5
OverallDifficulty:4
ApproachRate:5.5
SliderMultiplier:1.1
SliderTickRate:1

[Events]
//Background and Video events
0,0,"Sandro_Botticelli_-_La_nascita_di_VenereEDIT.jpg",0,0
//Break Periods
2,140732,162756
//Storyboard Layer 0 (Background)
//Storyboard Layer 1 (Fail)
//Storyboard Layer 2 (Pass)
//Storyboard Layer 3 (Foreground)
//Storyboard Layer 4 (Overlay)
//Storyboard Sound Samples

[TimingPoints]
63,368.098159509202,4,1,1,70,1,0
63,-100,4,1,1,70,0,0
799,364.741641337386,4,1,1,70,1,0
1346,-100,4,1,1,70,0,0
2987,379.746835443038,4,1,1,70,1,0
2987,-100,4,1,1,70,0,0
3746,362.537764350453,4,1,1,70,1,0
4289,-100,4,1,1,70,0,0
5921,370.37037037037,4,1,1,70,1,0
5921,-100,4,1,1,70,0,0
6661,365.853658536585,4,1,1,70,1,0
7209,-100,4,1,1,70,0,0
10313,370.37037037037,4,1,1,70,1,0
11053,-100,4,1,1,72,0,0
11238,-86.2068965517241,4,1,2,74,0,0
11424,326.086956521739,4,1,2,74,1,0
11587,379.746835443038,4,1,1,78,1,0
11776,373.831775700935,4,1,2,80,1,0
12149,365.853658536585,4,1,2,80,1,0
13978,-100,4,1,3,80,0,0
14344,-100,4,1,2,80,0,0
14709,352.941176470588,4,1,3,80,1,0
15061,369.230769230769,4,1,3,80,1,0
16168,361.44578313253,4,1,3,80,1,0
16348,-100,4,1,2,80,0,0
17613,365.853658536585,4,1,2,80,1,0
19258,-100,4,1,2,90,0,0
20544,368.098159509202,4,1,2,90,1,0
20728,-100,4,1,3,100,0,0
22384,-100,4,1,3,96,0,0
22568,-100,4,1,2,93,0,0
22752,-100,4,1,2,90,0,0
23120,-100,4,1,2,84,0,0
23488,365.853658536585,4,1,2,80,1,0
24951,357.142857142857,4,1,2,80,1,0
25665,371.517027863777,4,1,3,80,1,0
26408,357.142857142857,4,1,3,80,1,0
26765,372.670807453416,4,1,3,80,1,0
27137,356.083086053413,4,1,2,80,1,0
27849,370.37037037037,4,1,2,80,1,0
28034,-100,4,1,2,80,0,0
28219,389.61038961039,4,1,2,80,1,0
28219,-101.010101010101,4,1,2,80,0,0
28608,375,4,1,3,80,1,0
28983,348.837209302326,4,1,2,80,1,0
29331,365.853658536585,4,1,2,90,1,0
32257,350.877192982456,4,1,2,90,1,0
32257,-111.111111111111,4,1,4,70,0,0
32432,-100,4,1,3,100,0,0
32607,368.098159509202,4,1,2,100,1,0
32607,-111.111111111111,4,1,4,70,0,0
32975,-100,4,1,3,100,0,0
33159,-100,4,1,2,100,0,0
33343,372.670807453416,4,1,2,100,1,0
33343,-111.111111111111,4,1,4,70,0,0
33529,-100,4,1,3,100,0,0
33901,-100,4,1,3,92,0,0
34088,-100,4,1,2,88,0,0
34461,365.853658536585,4,1,3,80,1,0
34461,-111.111111111111,4,1,4,70,0,0
34643,-100,4,1,3,75,0,0
34825,-100,4,1,3,70,0,0
35009,-100,4,1,3,65,0,0
35192,361.44578313253,4,1,4,70,1,0
35192,-111.111111111111,4,1,4,70,0,0
35553,-111.111111111111,4,1,4,70,0,0
36457,362.537764350453,4,1,4,70,1,0
36457,-111.111111111111,4,1,4,70,0,0
37182,-111.111111111111,4,1,4,70,0,0
37907,-113.636363636364,4,1,4,70,0,0
38095,370.37037037037,4,1,4,70,1,0
38095,-111.111111111111,4,1,4,70,0,0
38835,368.098159509202,4,1,4,70,1,0
38835,-111.111111111111,4,1,4,70,0,0
39387,-111.111111111111,4,1,4,85,0,0
40601,372.670807453415,4,1,4,85,1,0
40787,512.820512820512,4,1,4,85,1,0
41043,359.281437125748,4,1,4,85,1,0
41043,-111.111111111111,4,1,4,70,0,0
41402,365.853658536585,4,1,4,70,1,0
41402,-111.111111111111,4,1,4,70,0,0
41950,-99.2063492063492,4,1,4,70,0,0
42133,357.142857142857,4,1,4,70,1,0
42492,368.098159509202,4,1,4,70,1,0
42676,-111.111111111111,4,1,4,70,0,0
43228,-111.111111111111,4,1,4,70,0,0
44332,365.853658536585,4,1,4,70,1,0
44332,-111.111111111111,4,1,4,80,0,0
46896,363.636363636363,4,1,4,80,1,0
46896,-111.111111111111,4,1,4,80,0,0
47350,-111.111111111111,4,1,4,70,0,0
47623,348.837209302326,4,1,4,70,1,0
47623,-111.111111111111,4,1,4,80,0,0
48146,368.098159509202,4,1,4,70,1,0
48146,-111.111111111111,4,1,4,70,0,0
48238,-111.111111111111,4,1,4,70,0,0
49618,-112.359550561798,4,1,4,70,0,0
49804,370.37037037037,4,1,4,70,1,0
49804,-111.111111111111,4,1,4,80,0,0
50174,-111.111111111111,4,1,4,70,0,0
50544,350.877192982456,4,1,4,70,1,0
50544,-111.111111111111,4,1,4,70,0,0
51070,387.096774193548,4,1,4,70,1,0
51070,-110.192837465565,4,1,4,70,0,0
51650,375,4,1,4,70,1,0
51650,-111.111111111111,4,1,4,70,0,0
52026,359.281437125748,4,1,4,70,1,0
52026,-111.111111111111,4,1,4,70,0,0
52744,363.636363636363,4,1,4,70,1,0
52744,-111.111111111111,4,1,4,70,0,0
54198,368.098159509202,4,1,4,70,1,0
54198,-111.111111111111,4,1,4,70,0,0
55026,-111.111111111111,4,1,4,70,0,0
55670,357.142857142857,4,1,4,70,1,0
55670,-111.111111111111,4,1,4,70,0,0
56027,384.615384615384,4,1,4,70,1,0
56027,-111.111111111111,4,1,4,70,0,0
56411,365.853658536585,4,1,4,70,1,0
56411,-111.111111111111,4,1,4,70,0,0
56776,344.827586206897,4,1,4,70,1,0
56776,-111.111111111111,4,1,4,70,0,0
56948,402.684563758389,4,1,4,70,1,0
56948,-103.092783505155,4,1,4,75,0,0
57151,355.029585798816,4,1,4,75,1,0
57151,-111.111111111111,4,1,4,70,0,0
57506,372.670807453416,4,1,4,75,1,0
57506,-111.111111111111,4,1,4,70,0,0
57878,366.97247706422,4,1,4,75,1,0
57878,-111.111111111111,4,1,4,70,0,0
58611,368.098159509202,4,1,4,90,1,0
58611,-100,4,1,4,90,0,1
58979,-100,4,1,5,100,0,1
59347,-100,4,1,5,100,0,1
59715,-100,4,1,5,95,0,1
59899,-99.009900990099,4,1,5,95,0,1
60083,363.636363636364,4,1,5,95,1,1
61541,359.281437125748,4,1,5,95,1,1
62618,338.983050847458,4,1,5,95,1,1
62787,382.165605095541,4,1,5,95,1,1
62787,-91.743119266055,4,1,5,95,0,1
62978,335.195530726257,4,1,5,95,1,1
63313,384.615384615385,4,1,5,95,1,1
64082,365.853658536585,4,1,5,90,1,1
64447,368.098159509202,4,1,5,90,1,1
64815,-100,4,1,5,95,0,1
65183,-100,4,1,5,95,0,1
65922,365.853658536585,4,1,5,95,1,1
65922,-100,4,1,5,95,0,1
67385,352.941176470588,4,1,5,95,1,1
67737,368.098159509202,4,1,5,95,1,1
68841,363.636363636363,4,1,2,95,1,1
68841,-100,4,1,2,95,0,1
69749,-100,4,1,3,95,0,1
70296,359.281437125748,4,1,5,100,1,1
71014,377.358490566037,4,1,5,100,1,1
71391,-100,4,1,5,95,0,1
71580,-96.6183574879227,4,1,5,95,0,1
71768,352.941176470588,4,1,5,95,1,1
72297,-105.820105820106,4,1,5,95,0,1
72473,375,4,1,5,95,1,1
73035,-97.0873786407767,4,1,5,95,0,1
73223,357.142857142857,4,1,5,95,1,1
73937,369.79969183359,4,1,5,90,1,1
74491,-100,4,1,3,100,0,1
75231,-100,4,1,3,100,0,1
75970,-100,4,1,5,95,0,1
76157,365.853658536585,4,1,5,100,1,1
76705,-100,4,1,5,100,0,1
77070,-100,4,1,5,95,0,1
77620,357.142857142857,4,1,5,95,1,1
77798,-100,4,1,5,100,0,1
77977,365.853658536585,4,1,5,100,1,1
78342,-100,4,1,5,90,0,1
79076,359.281437125748,4,1,5,100,1,1
79255,-100,4,1,5,100,0,1
79420,368.098159509202,4,1,5,100,1,1
79788,357.142857142857,4,1,5,100,1,1
79788,-100,4,1,5,100,0,1
80323,-100,4,1,5,100,0,0
80502,348.837209302325,4,1,5,100,1,0
81199,363.636363636363,4,1,5,100,1,0
81924,377.358490566037,4,1,3,100,1,0
81924,-100,4,1,3,100,0,0
82678,370.37037037037,4,1,2,90,1,0
83418,370.37037037037,4,1,2,90,1,0
83603,-100,4,1,2,85,0,0
83788,-100,4,1,2,85,0,0
84528,-100,4,1,3,90,0,0
84899,379.746835443037,4,1,3,100,1,0
84899,-100,4,1,3,100,0,0
85658,363.636363636363,4,1,3,90,1,0
86748,-100,4,1,3,85,0,0
87839,373.831775700934,4,1,3,100,1,0
87839,-98.5221674876847,4,1,3,100,0,0
88212,364.188163884673,4,1,3,100,1,0
88576,-100,4,1,2,90,0,0
89486,-100,4,1,3,85,0,0
89668,-100,4,1,3,85,0,0
90761,357.142857142857,4,1,3,100,1,0
90761,-100,4,1,3,100,0,0
91118,365.853658536585,4,1,3,100,1,0
91483,-100,4,1,3,100,0,0
92032,-100,4,1,2,80,0,0
93313,377.358490566037,4,1,2,80,1,0
93692,370.37037037037,4,1,2,75,1,0
93692,-111.111111111111,4,1,2,75,0,0
94062,359.281437125748,4,1,4,75,1,0
94062,-111.111111111111,4,1,4,75,0,0
94960,388.349514563106,4,1,4,75,1,0
94960,-111.111111111111,4,1,4,75,0,0
95348,365.853658536585,4,1,4,75,1,0
95713,-111.111111111111,4,1,4,75,0,0
98091,365.853658536585,4,1,4,75,1,0
98822,372.670807453416,4,1,4,75,1,0
99194,389.610389610389,4,1,4,75,1,0
99583,352.941176470588,4,1,4,75,1,0
99583,-111.111111111111,4,1,4,75,0,0
99935,379.746835443037,4,1,4,75,1,0
100314,357.142857142857,4,1,4,75,1,0
100849,-111.111111111111,4,1,4,75,0,0
101028,370.37037037037,4,1,4,75,1,0
101768,-111.111111111111,4,1,4,75,0,0
102509,364.741641337386,4,1,4,75,1,0
102873,378.548895899053,4,1,4,85,1,0
102873,-111.111111111111,4,1,4,75,0,0
103251,355.029585798816,4,1,4,75,1,0
103251,-111.111111111111,4,1,4,75,0,0
103783,375,4,1,4,75,1,0
103783,-111.111111111111,4,1,4,75,0,0
104158,-111.111111111111,4,1,4,75,0,0
104720,359.281437125748,4,1,4,70,1,0
104720,-111.111111111111,4,1,4,75,0,0
105079,320.855614973262,4,1,4,65,1,0
105239,405.405405405405,4,1,4,65,1,0
105442,365.853658536585,4,1,4,60,1,0
105807,-111.111111111111,4,1,4,60,0,0
106172,-111.111111111111,4,1,4,75,0,0
109646,-112.359550561798,4,1,4,75,0,0
109832,370.37037037037,4,1,4,75,1,0
110202,-111.111111111111,4,1,4,75,0,0
111313,361.44578313253,4,1,4,75,1,0
111313,-111.111111111111,4,1,4,75,0,0
112578,-111.111111111111,4,1,4,75,0,0
112758,365.853658536585,4,1,4,75,1,0
113489,-111.111111111111,4,1,4,75,0,0
114587,-111.111111111111,4,1,4,85,0,0
115501,-109.89010989011,4,1,4,85,0,0
115684,361.44578313253,4,1,4,85,1,0
116406,-111.111111111111,4,1,4,75,0,0
116768,-111.111111111111,4,1,4,85,0,0
116858,-111.111111111111,4,1,5,90,0,0
117129,363.636363636364,4,1,5,100,1,1
117129,-100,4,1,5,100,0,1
118219,-100,4,1,5,95,0,1
118399,-101.010101010101,4,1,5,95,0,1
118584,368.098159509202,4,1,5,95,1,1
119872,-99.009900990099,4,1,5,95,0,1
120056,363.636363636364,4,1,5,95,1,1
120783,-100,4,1,5,90,0,1
121147,329.670329670329,4,1,5,90,1,1
121311,350.877192982456,4,1,5,90,1,1
121837,392.156862745098,4,1,2,90,1,1
122621,368.098159509202,4,1,3,95,1,1
122990,366.97247706422,4,1,5,95,1,1
123723,-100,4,1,5,95,0,1
125741,-100,4,1,2,95,0,1
125925,355.029585798816,4,1,3,100,1,1
125925,-100,4,1,3,100,0,1
126635,372.670807453416,4,1,2,100,1,1
127194,-97.0873786407767,4,1,5,100,0,1
127380,358.208955223881,4,1,5,100,1,1
127555,-100,4,1,2,100,0,1
128454,379.746835443037,4,1,3,100,1,1
128833,368.098159509202,4,1,3,100,1,1
128833,-100,4,1,3,100,0,1
129201,-100,4,1,5,100,0,1
129937,-100,4,1,5,95,0,1
130307,361.44578313253,4,1,5,95,1,1
131572,-101.010101010101,4,1,5,95,0,1
131752,368.098159509202,4,1,5,95,1,1
132488,-100,4,1,5,90,0,1
132856,333.333333333333,4,1,3,100,1,1
133022,364.741641337386,4,1,3,100,1,1
133751,-101.010101010101,4,1,3,100,0,1
133933,370.37037037037,4,1,3,100,1,1
134673,-100,4,1,5,100,0,1
134684,363.636363636363,4,1,5,100,1,1
135411,-100,4,1,5,95,0,1
135956,-101.010101010101,4,1,5,95,0,1
136138,368.098159509202,4,1,5,95,1,1
136690,-100,4,1,5,90,0,1
137610,-100,4,1,5,100,0,1
137794,-100,4,1,5,100,0,1
138990,-100,4,1,5,100,0,0
139082,382.165605095541,4,1,5,100,1,0
139464,352.941176470588,4,1,5,100,1,0
140532,361.44578313253,4,1,5,100,1,0
141977,365.853658536585,4,1,5,100,1,0
143440,361.44578313253,4,1,5,100,1,0
146331,370.37037037037,4,1,5,100,1,0
147442,359.281437125748,4,1,5,100,1,0
147801,365.853658536585,4,1,5,100,1,0
150727,361.44578313253,4,1,5,100,1,0
152181,379.746835443038,4,1,5,100,1,0
152940,361.44578313253,4,1,5,100,1,0
153662,355.029585798816,4,1,5,100,1,0
154727,352.941176470588,4,1,5,100,1,0
155079,365.853658536585,4,1,5,100,1,0
156552,375,4,1,5,100,1,0
158052,363.636363636363,4,1,5,100,1,0
159506,352.941176470588,4,1,5,100,1,0
159858,365.853658536585,4,1,5,100,1,0
160589,384.615384615385,4,1,5,100,1,0
160973,361.44578313253,4,1,5,100,1,0
163506,374.999999999999,4,1,5,100,1,0
163881,387.096774193548,4,1,5,100,1,0
163977,-100,4,1,5,100,0,1
164655,368.098159509202,4,1,5,100,1,1
165207,-100,4,1,5,100,0,1
165575,-100,4,1,5,95,0,1
166127,365.853658536585,4,1,5,95,1,1
167956,-100,4,1,3,90,0,1
168139,-100,4,1,2,90,0,1
168504,-100,4,1,3,90,0,1
168870,-100,4,1,2,95,0,1
169235,-100,4,1,3,95,0,1
169785,377.358490566037,4,1,5,100,1,1
170162,-100,4,1,3,95,0,1
170539,-100,4,1,5,95,0,1
170917,365.853658536585,4,1,5,95,1,1
171648,-100,4,1,5,95,0,1
172746,368.098159509202,4,1,3,100,1,1
173482,-100,4,1,2,100,0,1
173850,-100,4,1,3,100,0,1
174034,-100,4,1,2,100,0,1
174218,357.142857142857,4,1,2,100,1,1
175289,-100,4,1,6,100,0,1
175658,389.610389610389,4,1,5,100,1,1
176047,372.670807453415,4,1,5,100,1,1
176419,363.636363636363,4,1,5,95,1,1
176964,-100,4,1,5,95,0,1
177146,363.636363636363,4,1,5,95,1,1
178418,-100,4,1,5,95,0,1
178600,361.445783132529,4,1,5,95,1,1
178961,-100,4,1,5,90,0,1
179322,-100,4,1,5,95,0,1
179865,-100,4,1,3,95,0,1
180949,-100,4,1,2,95,0,1
181130,372.670807453415,4,1,2,95,1,1
181316,-100,4,1,2,100,0,1
181502,384.615384615383,4,1,5,100,1,1
181886,370.370370370369,4,1,2,95,1,1
182256,-100,4,1,5,95,0,1
182626,-100,4,1,5,100,0,1
182811,-100,4,1,5,100,0,1
182997,368.098159509201,4,1,5,100,1,1
183181,-100,4,1,5,90,0,1
184101,-100,4,1,5,100,0,1
184469,363.636363636362,4,1,5,100,1,1
184469,-100,4,1,5,100,0,1
185832,-100,4,1,5,100,0,0
185923,357.142857142857,4,1,5,100,1,0
186637,370.37037037037,4,1,5,100,1,0
187377,363.636363636364,4,1,7,70,1,0
188649,-100,4,1,7,80,0,0
189013,-100,4,1,7,70,0,0
190287,365.853658536584,4,1,7,70,1,0
191567,-100,4,1,7,85,0,0
191750,370.370370370369,4,1,7,85,1,0
193231,365.853658536584,4,1,7,90,1,0
194877,-100,4,1,7,85,0,0
195242,-100,4,1,7,90,0,0
195426,-100,4,1,7,85,0,0
195609,-100,4,1,7,80,0,0
195974,-100,4,1,7,75,0,0
196156,-100,4,1,7,70,0,0
196339,-100,4,1,7,75,0,0
197071,-100,4,1,7,80,0,0
197986,-100,4,1,7,90,0,0
198352,-100,4,1,7,75,0,0
198718,-100,4,1,7,70,0,0
199084,363.636363636362,4,1,7,85,1,0
199084,-100,4,1,7,85,0,0
199811,-100,4,1,7,75,0,0
200356,-100,4,1,7,70,0,0
201265,-100,4,1,7,80,0,0
201993,361.445783132529,4,1,7,85,1,0
201993,-100,4,1,7,85,0,0
202354,-100,4,1,7,75,0,0
202534,-100,4,1,7,90,0,0
202715,-100,4,1,7,80,0,0
202895,-100,4,1,7,95,0,0
203077,370.370370370369,4,1,7,85,1,0

[Colours]
Combo1 : 251,231,151
Combo2 : 250,177,69
Combo3 : 248,217,41
Combo4 : 249,146,53
Combo5 : 242,249,162
Combo6 : 219,249,164

[HitObjects]
345,307,11053,5,0,0:0:0:0:
345,307,11238,2,0,P|379:294|402:275,2,59.9500006403351
285,357,11776,2,0,P|255:345|158:329,1,110
179,329,12514,1,0,0:0:0:0:
48,377,13246,6,0,B|20:314|20:314|54:266,1,110
99,227,13795,1,0,0:0:0:0:
99,227,13978,2,0,B|136:240|136:240|147:264|147:264|204:285,1,110
302,202,14709,2,0,B|264:188|264:188|253:164|253:164|196:143,1,110
212,149,15430,1,0,0:0:0:0:
135,82,16348,5,0,0:0:0:0:
135,82,16529,2,0,B|80:62|80:62|35:115,2,110
243,154,17613,6,0,P|290:162|339:120,1,110
394,29,18344,2,0,P|441:21|490:63,1,110
498,83,18893,1,0,0:0:0:0:
424,164,19259,1,0,0:0:0:0:
437,189,19442,1,0,0:0:0:0:
510,271,19808,1,0,0:0:0:0:
504,297,19991,1,0,0:0:0:0:
496,323,20173,2,0,B|456:335|456:335|428:321|428:321|389:332,1,110
371,349,20728,5,0,0:0:0:0:
348,364,20912,1,0,0:0:0:0:
261,296,21280,1,0,0:0:0:0:
235,285,21464,1,0,0:0:0:0:
152,358,21832,1,0,0:0:0:0:
52,312,22200,5,0,0:0:0:0:
52,312,22384,2,0,P|63:285|85:265,1,55
63,192,22752,2,0,P|91:188|120:197,1,55
170,140,23120,2,0,P|187:163|194:192,1,55
254,235,23488,6,0,L|381:209,1,110
361,212,24219,1,0,0:0:0:0:
466,91,24951,2,0,B|477:43|477:43|509:28,2,82.5
401,137,25665,6,0,B|334:136|380:90|302:91,1,110
190,19,26408,2,0,B|123:19|169:65|91:64,1,110
96,64,27137,1,0,0:0:0:0:
93,192,28034,5,0,0:0:0:0:
93,192,28219,2,0,B|65:209|37:205|37:205|17:187|15:154,2,106.700002523575
207,118,29331,6,0,P|269:117|331:141,1,110
299,262,30062,2,0,P|237:263|175:239,1,110
169,231,30611,1,0,0:0:0:0:
83,161,30977,1,0,0:0:0:0:
72,136,31160,1,0,0:0:0:0:
166,80,31526,1,0,0:0:0:0:
177,55,31709,1,0,0:0:0:0:
188,30,31891,2,0,L|310:18,1,110
318,36,32432,5,0,0:0:0:0:
326,60,32607,1,0,0:0:0:0:
235,122,32975,1,0,0:0:0:0:
229,146,33159,1,0,0:0:0:0:
321,208,33529,2,0,B|387:194|387:194|400:166|400:166|473:147,1,165
454,260,34461,6,0,L|437:342,1,49.4999984893799
380,352,34826,2,0,L|298:335,1,55
301,336,35192,1,0,0:0:0:0:
181,380,35553,6,0,P|129:362|67:362,1,98.9999969787599
22,290,36276,1,0,0:0:0:0:
22,290,36457,2,0,P|25:208|67:181,2,98.9999969787599
119,271,37544,1,0,0:0:0:0:
215,249,37907,2,0,P|230:198|175:120,1,148.49999546814
71,111,38835,2,0,B|29:91|36:59|36:59|79:26,1,98.9999969787599
80,26,39387,1,0,0:0:0:0:
262,44,41043,6,0,L|383:63,1,98.9999969787599
457,94,41767,1,0,0:0:0:0:
457,94,41950,2,0,B|481:84|488:46|488:46|451:-10,2,110
436,106,42860,1,0,0:0:0:0:
460,201,43228,6,0,L|428:321,1,98.9999969787599
415,312,43780,1,0,0:0:0:0:
393,324,43964,1,0,0:0:0:0:
312,265,44332,1,0,0:0:0:0:
234,326,44697,1,0,0:0:0:0:
212,338,44881,1,0,0:0:0:0:
115,315,45246,6,0,L|132:213,1,98.9999969787599
134,192,45795,1,0,0:0:0:0:
88,104,46161,2,0,B|75:49|75:49|121:36,1,98.9999969787599
140,35,46710,1,0,0:0:0:0:
167,29,46896,1,0,0:0:0:0:
263,6,47259,6,0,P|289:53|265:111,1,98.9999969787599
208,164,47971,1,0,0:0:0:0:
208,164,48146,2,0,B|242:177|242:177|248:197|248:197|294:217,1,98.9999969787599
329,303,48882,2,0,B|363:290|363:290|369:270|369:270|415:250,1,98.9999969787599
481,220,49434,1,0,0:0:0:0:
481,220,49618,2,0,P|497:173|431:109,1,148.49999546814
434,109,50544,1,0,0:0:0:0:
330,90,50894,5,0,0:0:0:0:
330,90,51070,2,0,B|305:43|305:43|327:31|338:-7,2,98.9999969787599
341,111,52025,1,0,0:0:0:0:
396,192,52385,2,0,L|377:262,1,49.4999984893799
320,286,52744,6,0,B|263:271|284:317|213:303,1,98.9999969787599
153,182,53471,1,0,0:0:0:0:
153,182,53653,2,0,B|210:167|189:213|260:199,1,98.9999969787599
401,111,54934,2,0,P|446:127|452:179,2,98.9999969787599
315,145,56027,6,0,L|207:128,1,98.9999969787599
178,229,56776,1,0,0:0:0:0:
178,229,56948,2,0,L|340:254,1,148.49999546814
371,339,57878,6,0,L|451:355,1,49.4999984893799
485,305,58244,2,0,L|501:224,1,49.4999984893799
463,186,58611,6,0,B|455:143|455:143|471:127|471:127|462:81,1,110
327,151,59347,1,0,0:0:0:0:
327,151,59531,2,0,P|298:167|256:168,1,55
236,101,59899,6,0,L|105:81,1,110
32,174,60628,2,0,L|169:197,1,110
137,324,61355,2,0,P|233:245|297:251,1,165
267,244,62259,1,0,0:0:0:0:
348,364,62618,5,0,0:0:0:0:
348,364,62787,2,0,B|405:337|405:337|422:230,1,165
420,236,63697,1,0,0:0:0:0:
441,98,64082,2,0,L|452:21,1,55
381,7,64447,6,0,P|322:7|273:56,1,110
244,104,64999,1,0,0:0:0:0:
244,104,65183,2,0,P|185:103|136:54,1,110
27,14,65919,6,0,P|42:114|44:167,1,110
22,197,66470,2,0,P|37:237|36:273,1,55
115,244,66836,2,0,P|107:286|89:316,1,55
154,362,67202,5,0,0:0:0:0:
154,362,67385,2,0,B|195:349|195:349|201:327|201:327|247:314,1,110
243,314,68105,1,0,0:0:0:0:
354,377,68657,5,0,0:0:0:0:
354,377,68841,2,0,P|364:343|358:309,1,55
440,321,69204,2,0,P|431:286|409:260,1,55
487,230,69568,2,0,P|462:204|430:192,1,55
483,127,69931,2,0,P|449:116|415:122,1,55
367,68,70296,6,0,B|324:29|324:29|270:45,1,110
222,184,71014,1,0,0:0:0:0:
222,184,71202,2,0,L|210:257,1,55
146,279,71580,6,0,P|89:306|29:274,1,110
34,165,72297,2,0,P|87:138|145:168,1,106.700002523575
228,54,73035,2,0,L|415:97,1,165
388,90,73937,1,0,0:0:0:0:
464,203,74306,5,0,0:0:0:0:
464,203,74491,2,0,B|483:271|483:271|447:325,2,110
390,179,75416,2,0,L|330:194,1,55
303,262,75785,1,0,0:0:0:0:
295,288,75970,1,0,0:0:0:0:
286,314,76157,6,0,B|229:323|229:323|193:281,1,110
86,182,76888,1,0,0:0:0:0:
86,182,77071,2,0,L|71:45,1,110
128,14,77620,2,0,P|180:34|234:36,1,110
299,85,78159,1,0,0:0:0:0:
299,85,78342,2,0,P|351:65|405:62,1,110
489,167,79076,5,0,0:0:0:0:
480,189,79255,1,0,0:0:0:0:
470,214,79420,2,0,L|378:237,1,55
348,187,79788,1,0,0:0:0:0:
348,187,79966,2,0,L|256:164,1,55
225,208,80323,1,0,0:0:0:0:
429,115,81924,6,0,B|454:81|454:81|413:26|413:26|349:55|349:55|356:96,1,220
370,225,83418,5,0,0:0:0:0:
376,249,83603,1,0,0:0:0:0:
395,269,83788,2,0,B|466:266|426:317|514:309,2,110
297,330,84899,6,0,B|259:360|259:360|211:311|141:321|141:321|129:269,1,220
241,224,86567,2,0,L|283:79,1,110
295,104,87112,1,0,0:0:0:0:
309,81,87294,1,0,0:0:0:0:
307,52,87476,1,0,0:0:0:0:
205,18,87839,6,0,B|141:34|141:34|100:17|100:17|64:52|64:52|2:67,1,220
129,124,89486,1,0,0:0:0:0:
129,124,89668,2,0,L|147:194,1,55
114,248,90032,2,0,P|157:216|211:218,1,110
298,289,90761,6,0,B|321:299|330:331|330:331|354:303|394:304,1,110
356,198,91483,1,0,0:0:0:0:
356,198,91666,2,0,L|375:115,1,55
374,117,92032,5,0,0:0:0:0:
455,349,93692,5,0,0:0:0:0:
390,269,94062,2,0,P|314:229|233:241,1,148.49999546814
164,254,94960,2,0,P|116:238|67:235,1,98.9999969787599
90,139,95713,2,0,P|137:154|186:157,1,98.9999969787599
253,233,96445,2,0,P|328:214|414:212,1,148.49999546814
467,138,97360,2,0,B|505:113|505:113|491:45,1,98.9999969787599
487,36,97908,1,0,0:0:0:0:
223,9,99583,6,0,P|167:20|100:22,1,98.9999969787599
29,87,100314,1,0,0:0:0:0:
29,87,100492,2,0,B|99:87|55:126|127:129,1,110
223,173,101213,1,0,0:0:0:0:
214,199,101398,1,0,0:0:0:0:
121,234,101768,1,0,0:0:0:0:
191,304,102139,2,0,L|173:367,2,49.4999984893799
290,267,102873,6,0,B|313:239|313:239|392:253,1,98.9999969787599
398,254,103428,1,0,0:0:0:0:
461,323,103783,2,0,P|487:268|473:195,1,98.9999969787599
430,182,104345,2,0,P|418:151|417:128,1,49.4999984893799
483,95,104720,2,0,B|502:38|502:38|483:20|480:-11,1,98.9999969787599
484,6,105442,1,0,0:0:0:0:
395,49,105807,6,0,B|312:19|339:90|256:64,1,148.49999546814
178,128,106722,2,0,P|175:78|164:30,1,98.9999969787599
65,44,107454,2,0,P|67:93|78:141,1,98.9999969787599
3,205,108185,2,0,P|79:189|139:226,1,148.49999546814
77,302,109100,6,0,P|125:308|173:323,1,98.9999969787599
241,364,109649,2,0,P|289:357|337:342,1,98.9999969787599
390,259,110387,1,0,0:0:0:0:
400,237,110572,1,0,0:0:0:0:
412,216,110757,1,0,0:0:0:0:
385,125,111128,5,0,0:0:0:0:
385,125,111313,2,0,L|254:113,1,98.9999969787599
200,66,112035,1,0,0:0:0:0:
191,90,112216,1,0,0:0:0:0:
101,132,112578,2,0,L|121:264,1,98.9999969787599
120,257,113123,1,0,0:0:0:0:
91,351,113489,2,0,P|136:338|221:330,1,98.9999969787599
286,341,114221,6,0,B|343:344|317:307|393:314,1,98.9999969787599
383,215,114953,1,0,0:0:0:0:
391,191,115136,1,0,0:0:0:0:
306,140,115501,2,0,B|253:106|277:54|277:54|334:27,1,148.49999546814
424,6,116406,2,0,L|497:30,1,49.4999984893799
508,91,116768,2,0,L|484:164,1,49.4999984893799
442,196,117129,6,0,B|378:205|378:205|369:234|340:246,1,110
208,196,117856,1,0,0:0:0:0:
208,196,118038,2,0,L|216:135,1,55
186,69,118401,6,0,B|136:41|136:41|84:76,1,110
24,210,119136,2,0,B|74:238|74:238|126:203,1,110
263,167,119872,2,0,L|227:334,1,165
228,328,120783,1,0,0:0:0:0:
379,373,121146,5,0,0:0:0:0:
379,373,121311,2,0,B|391:329|391:329|379:308|379:308|391:256,1,110
449,218,121837,2,0,P|435:185|396:167,1,55
440,99,122229,2,0,P|405:94|370:119,1,55
335,45,122621,2,0,P|313:72|317:115,1,55
301,168,122990,6,0,B|279:169|256:149|256:149|197:163,1,110
152,226,123540,1,0,0:0:0:0:
152,226,123723,2,0,B|132:216|122:187|122:187|64:170,1,110
91,17,124457,6,0,L|215:55,1,110
258,2,125008,2,0,P|271:36|268:76,1,55
348,48,125374,2,0,P|340:90|322:120,1,55
272,143,125742,5,0,0:0:0:0:
272,143,125925,2,0,P|219:135|144:164,1,110
174,231,126457,1,0,0:0:0:0:
174,231,126635,2,0,P|226:238|301:209,1,110
345,263,127194,2,0,B|409:253|380:299|473:285,2,110
300,325,128096,2,0,B|236:315|265:361|172:347,1,110
42,308,128833,6,0,B|8:259|8:259|29:199,1,110
171,159,129569,1,0,0:0:0:0:
171,159,129753,2,0,L|184:223,1,55
151,285,130121,6,0,B|176:288|200:308|200:308|214:278|247:259,1,110
357,175,130849,2,0,B|336:164|322:133|322:133|298:153|272:157,1,110
137,86,131572,2,0,B|110:66|103:28|103:28|8:8,1,165
9,8,132488,1,0,0:0:0:0:
72,171,132856,5,0,0:0:0:0:
72,171,133022,2,0,P|119:163|175:209,1,110
267,313,133751,2,0,P|314:321|370:275,1,110
427,245,134303,1,0,0:0:0:0:
435,218,134488,1,0,0:0:0:0:
444,192,134684,6,0,B|462:129|462:129|434:106|429:68,1,110
397,26,135229,1,0,0:0:0:0:
397,26,135411,2,0,P|341:37|266:38,1,110
235,95,135956,2,0,P|179:84|104:83,1,110
17,192,136690,5,0,0:0:0:0:
17,192,136874,2,0,P|73:203|148:204,1,110
225,322,137610,5,0,0:0:0:0:
234,300,137794,1,0,0:0:0:0:
244,275,137978,2,0,P|262:234|266:204,1,55
318,169,138346,1,0,0:0:0:0:
318,169,138530,2,0,P|300:128|296:98,1,55
281,42,138898,1,0,0:0:0:0:
256,192,138990,12,0,140532,0:0:0:0:
154,160,163881,6,0,B|115:121|115:121|66:146,2,110
191,226,164839,2,0,L|175:296,1,55
222,343,165207,6,0,P|286:346|320:297,1,110
392,300,165759,1,0,0:0:0:0:
392,300,165943,2,0,P|426:246|401:192,1,110
338,106,166675,2,0,L|150:85,1,165
174,87,167590,1,0,0:0:0:0:
53,182,167956,5,0,0:0:0:0:
53,182,168139,2,0,B|96:188|96:188|110:208|110:208|172:216,1,110
227,227,168687,1,0,0:0:0:0:
251,214,168870,1,0,0:0:0:0:
275,200,169053,2,0,L|348:216,1,55
397,247,169419,2,0,L|481:232,1,55
502,182,169785,6,0,P|513:136|471:82,1,110
411,116,170351,1,0,0:0:0:0:
411,116,170539,2,0,P|376:83|308:92,1,110
252,127,171099,2,0,B|186:127|205:86|152:87,1,110
81,56,171648,1,0,0:0:0:0:
81,56,171831,2,0,P|73:88|85:129,1,55
131,164,172197,2,0,L|110:285,1,110
143,342,172746,6,0,B|172:336|185:308|185:308|193:341|223:352,1,110
297,349,173298,1,0,0:0:0:0:
297,349,173482,2,0,B|320:340|328:307|328:307|341:335|370:341,1,110
440,373,174034,6,0,P|471:334|472:313,1,55
416,276,174396,2,0,L|402:209,1,55
454,163,174753,1,0,0:0:0:0:
454,163,174932,2,0,B|459:117|459:117|472:109|472:109|479:57,1,110
339,18,175658,6,0,B|271:7|271:7|254:34|211:35,1,110
97,96,176419,1,0,0:0:0:0:
97,96,176600,2,0,L|82:180,1,55
41,212,176964,6,0,P|100:189|147:224,1,110
220,202,177509,1,0,0:0:0:0:
220,202,177691,2,0,P|268:241|262:301,1,110
401,358,178418,2,0,L|425:167,1,165
421,194,179322,1,0,0:0:0:0:
481,54,179684,5,0,0:0:0:0:
481,54,179865,2,0,B|516:98|516:98|489:152,1,110
340,168,180587,2,0,B|304:212|304:212|327:260,1,110
369,329,181130,1,0,0:0:0:0:
345,342,181316,1,0,0:0:0:0:
321,355,181502,6,0,B|277:348|277:348|262:333|262:333|214:325,1,110
146,361,182071,1,0,0:0:0:0:
146,361,182256,2,0,P|102:329|104:246,1,110
22,239,182811,2,0,P|27:184|100:145,1,110
73,6,183549,5,0,0:0:0:0:
73,6,183733,2,0,P|127:22|202:31,1,110
331,89,184469,5,0,0:0:0:0:
322,111,184650,1,0,0:0:0:0:
312,136,184832,2,0,P|294:177|290:207,1,55
238,242,185196,1,0,0:0:0:0:
238,242,185378,2,0,P|256:283|260:313,1,55
275,369,185741,1,0,0:0:0:0:
256,192,185832,12,0,187377,0:0:0:0:
