osu file format v14

[General]
AudioFilename: audio.mp3
AudioLeadIn: 0
PreviewTime: 117129
Countdown: 0
SampleSet: Normal
StackLeniency: 0.7
Mode: 0
LetterboxInBreaks: 0
WidescreenStoryboard: 1

[Editor]
Bookmarks: 140434,163787,187467
DistanceSpacing: 0.6
BeatDivisor: 4
GridSize: 32
TimelineZoom: 2.599999

[Metadata]
Title:Alrighty Aphrodite
TitleUnicode:Alrighty Aphrodite
Artist:Peach Pit
ArtistUnicode:Peach Pit
Creator:-Zel
Version:Fsjallink's Insane
Source:
Tags:rock english being so normal fsjallink kadzackzz
BeatmapID:4030096
BeatmapSetID:1915272

[Difficulty]
HPDrainRate:4
CircleSize:4
OverallDifficulty:8
ApproachRate:9
SliderMultiplier:1.6
SliderTickRate:1

[Events]
//Background and Video events
0,0,"Sandro_Botticelli_-_La_nascita_di_VenereEDIT.jpg",0,0
//Break Periods
//Storyboard Layer 0 (Background)
//Storyboard Layer 1 (Fail)
//Storyboard Layer 2 (Pass)
//Storyboard Layer 3 (Foreground)
//Storyboard Layer 4 (Overlay)
//Storyboard Sound Samples

[TimingPoints]
63,368.098159509202,4,1,1,70,1,0
799,364.741641337386,4,1,1,70,1,0
2987,379.746835443038,4,1,1,70,1,0
3746,362.537764350453,4,1,1,70,1,0
5921,370.37037037037,4,1,1,70,1,0
6661,365.853658536585,4,1,1,70,1,0
10313,370.37037037037,4,1,1,70,1,0
11424,326.086956521739,4,1,1,70,1,0
11587,379.746835443038,4,1,1,78,1,0
11776,373.831775700935,4,1,1,78,1,0
12145,-100,4,1,2,80,0,0
12149,365.853658536585,4,1,2,80,1,0
13978,-100,4,1,3,80,0,0
14343,-100,4,1,2,80,0,0
14709,352.941176470588,4,1,3,80,1,0
15061,369.230769230769,4,1,3,80,1,0
16168,361.44578313253,4,1,2,80,1,0
17613,365.853658536585,4,1,2,80,1,0
19259,-100,4,1,2,90,0,0
20544,368.098159509202,4,1,2,90,1,0
20728,-100,4,1,3,100,0,0
22384,-100,4,1,3,96,0,0
22568,-100,4,1,2,93,0,0
22752,-100,4,1,2,90,0,0
22936,-100,4,1,2,87,0,0
23120,-100,4,1,2,84,0,0
23304,-100,4,1,2,82,0,0
23488,365.853658536585,4,1,2,80,1,0
24951,357.142857142857,4,1,2,80,1,0
25665,371.517027863777,4,1,3,80,1,0
26408,357.142857142857,4,1,3,80,1,0
26765,372.670807453416,4,1,3,80,1,0
27137,356.083086053413,4,1,2,80,1,0
27849,370.37037037037,4,1,2,80,1,0
28219,389.61038961039,4,1,3,80,1,0
28413,-100,4,1,2,80,0,0
28608,375,4,1,3,80,1,0
28983,348.837209302326,4,1,2,80,1,0
29331,365.853658536585,4,1,2,90,1,0
32257,350.877192982456,4,1,2,90,1,0
32432,-100,4,1,3,100,0,0
32607,368.098159509202,4,1,2,100,1,0
32975,-100,4,1,3,100,0,0
33159,-100,4,1,2,100,0,0
33343,372.670807453416,4,1,2,100,1,0
33529,-100,4,1,3,100,0,0
33901,-100,4,1,3,92,0,0
34088,-100,4,1,2,88,0,0
34274,-100,4,1,3,84,0,0
34461,365.853658536585,4,1,3,80,1,0
34643,-100,4,1,3,75,0,0
34826,-100,4,1,3,70,0,0
35009,-100,4,1,3,65,0,0
35192,361.44578313253,4,1,4,70,1,0
35553,-117.647058823529,4,1,4,70,0,0
36457,362.537764350453,4,1,4,70,1,0
36457,-117.647058823529,4,1,4,70,0,0
38095,370.37037037037,4,1,4,70,1,0
38465,-117.647058823529,4,1,4,70,0,0
38835,368.098159509202,4,1,4,70,1,0
39019,-117.647058823529,4,1,4,70,0,0
39387,-117.647058823529,4,1,4,85,0,0
40601,372.670807453415,4,1,4,85,1,0
40787,512.820512820512,4,1,4,85,1,0
41043,359.281437125748,4,1,4,70,1,0
41402,365.853658536585,4,1,4,70,1,0
41402,-117.647058823529,4,1,4,70,0,0
41950,-119.047619047619,4,1,4,70,0,0
42133,357.142857142857,4,1,4,70,1,0
42492,368.098159509202,4,1,4,70,1,0
42860,-117.647058823529,4,1,4,70,0,0
44332,365.853658536585,4,1,4,80,1,0
44514,-117.647058823529,4,1,4,80,0,0
46710,-117.647058823529,4,1,4,70,0,0
46896,363.636363636363,4,1,4,70,1,0
46896,-105.263157894737,4,1,4,70,0,0
47623,348.837209302326,4,1,4,70,1,0
48146,368.098159509202,4,1,4,70,1,0
49804,370.37037037037,4,1,4,70,1,0
50174,-117.647058823529,4,1,4,70,0,0
50544,350.877192982456,4,1,4,70,1,0
50544,-117.647058823529,4,1,4,70,0,0
51070,387.096774193548,4,1,4,70,1,0
51070,-117.647058823529,4,1,4,70,0,0
51457,-119.047619047619,4,1,4,70,0,0
51650,375,4,1,4,70,1,0
52026,359.281437125748,4,1,4,70,1,0
52026,-117.647058823529,4,1,4,70,0,0
52744,363.636363636363,4,1,4,70,1,0
52744,-117.647058823529,4,1,4,70,0,0
54198,368.098159509202,4,1,4,70,1,0
54382,-117.647058823529,4,1,4,70,0,0
55670,357.142857142857,4,1,4,70,1,0
55670,-117.647058823529,4,1,4,70,0,0
56027,384.615384615384,4,1,4,70,1,0
56027,-119.047619047619,4,1,4,70,0,0
56411,365.853658536585,4,1,4,75,1,0
56593,-120.481927710843,4,1,4,75,0,0
56776,344.827586206897,4,1,4,75,1,0
56948,402.684563758389,4,1,4,75,1,0
56948,-107.52688172043,4,1,4,75,0,0
57151,355.029585798816,4,1,4,75,1,0
57506,372.670807453416,4,1,4,75,1,0
57878,366.97247706422,4,1,4,75,1,0
58061,-100,4,1,4,80,0,0
58244,-100,4,1,4,85,0,0
58428,-100,4,1,4,90,0,0
58611,368.098159509202,4,1,5,100,1,1
60083,363.636363636364,4,1,5,95,1,1
61541,359.281437125748,4,1,5,95,1,1
62259,-100,4,1,5,90,0,1
62618,338.983050847458,4,1,5,90,1,1
62787,382.165605095541,4,1,5,90,1,1
62787,-93.4579439252336,4,1,5,90,0,1
62978,335.195530726257,4,1,5,90,1,1
63313,384.615384615385,4,1,5,90,1,1
64082,365.853658536585,4,1,5,90,1,1
64447,368.098159509202,4,1,5,95,1,1
65922,365.853658536585,4,1,5,95,1,1
67385,352.941176470588,4,1,5,95,1,1
67385,-99.009900990099,4,1,5,95,0,1
67737,368.098159509202,4,1,5,95,1,1
68841,363.636363636363,4,1,2,95,1,1
70296,359.281437125748,4,1,5,100,1,1
71014,377.358490566037,4,1,5,100,1,1
71768,352.941176470588,4,1,5,95,1,1
72297,-98.0392156862745,4,1,5,95,0,1
72473,375,4,1,5,95,1,1
73223,357.142857142857,4,1,5,95,1,1
73223,-99.502487562189,4,1,5,95,0,1
73937,369.79969183359,4,1,5,90,1,1
76157,365.853658536585,4,1,5,100,1,1
77620,357.142857142857,4,1,5,100,1,1
77620,-99.502487562189,4,1,5,100,0,1
77977,365.853658536585,4,1,5,100,1,1
78708,-100.502512562814,4,1,5,100,0,1
79076,359.281437125748,4,1,5,100,1,1
79420,368.098159509202,4,1,5,100,1,1
79788,357.142857142857,4,1,5,100,1,1
80323,-100,4,1,5,100,0,0
80502,348.837209302325,4,1,5,100,1,0
81199,363.636363636363,4,1,5,100,1,0
81924,377.358490566037,4,1,3,100,1,0
82678,370.37037037037,4,1,2,90,1,0
83418,370.37037037037,4,1,2,85,1,0
84899,379.746835443037,4,1,3,100,1,0
84899,-100.502512562814,4,1,3,100,0,0
85658,363.636363636363,4,1,3,90,1,0
87839,373.831775700934,4,1,3,100,1,0
88212,364.188163884673,4,1,3,100,1,0
90761,357.142857142857,4,1,2,95,1,0
91118,365.853658536585,4,1,3,100,1,0
93313,377.358490566037,4,1,3,100,1,0
93692,370.37037037037,4,1,2,75,1,0
93692,-117.647058823529,4,1,2,75,0,0
94062,359.281437125748,4,1,4,75,1,0
94062,-117.647058823529,4,1,4,75,0,0
94960,388.349514563106,4,1,4,75,1,0
94960,-117.647058823529,4,1,4,75,0,0
95348,365.853658536585,4,1,4,75,1,0
95348,-117.647058823529,4,1,4,75,0,0
97908,-117.647058823529,4,1,4,85,0,0
98091,365.853658536585,4,1,4,85,1,0
98822,372.670807453416,4,1,4,65,1,0
98822,-198.019801980198,4,1,4,65,0,0
99194,389.610389610389,4,1,4,65,1,0
99583,352.941176470588,4,1,4,75,1,0
99583,-115.606936416185,4,1,4,75,0,0
99935,379.746835443037,4,1,4,75,1,0
100314,357.142857142857,4,1,4,75,1,0
100492,-117.647058823529,4,1,4,75,0,0
100849,-116.959064327485,4,1,4,75,0,0
101028,370.37037037037,4,1,4,75,1,0
101398,-117.647058823529,4,1,4,75,0,0
102509,364.741641337386,4,1,4,75,1,0
102873,378.548895899053,4,1,4,75,1,0
102873,-119.047619047619,4,1,4,75,0,0
103251,355.029585798816,4,1,4,75,1,0
103428,-117.647058823529,4,1,4,75,0,0
103783,375,4,1,4,75,1,0
104345,-117.647058823529,4,1,4,75,0,0
104720,359.281437125748,4,1,4,70,1,0
104720,-117.647058823529,4,1,4,70,0,0
105079,320.855614973262,4,1,4,65,1,0
105079,-111.111111111111,4,1,4,65,0,0
105239,405.405405405405,4,1,4,65,1,0
105442,365.853658536585,4,1,4,60,1,0
105807,-117.647058823529,4,1,4,60,0,0
106172,-117.647058823529,4,1,4,75,0,0
109832,370.37037037037,4,1,4,75,1,0
110202,-117.647058823529,4,1,4,75,0,0
111313,361.44578313253,4,1,4,75,1,0
111313,-117.647058823529,4,1,4,75,0,0
112758,365.853658536585,4,1,4,75,1,0
113123,-117.647058823529,4,1,4,75,0,0
114404,-117.647058823529,4,1,4,85,0,0
115684,361.44578313253,4,1,4,85,1,0
116045,-117.647058823529,4,1,4,75,0,0
116406,-117.647058823529,4,1,4,80,0,0
116587,-117.647058823529,4,1,4,85,0,0
117129,363.636363636364,4,1,5,100,1,1
118584,368.098159509202,4,1,5,95,1,1
120056,363.636363636364,4,1,5,95,1,1
121147,329.670329670329,4,1,5,90,1,1
121311,350.877192982456,4,1,5,90,1,1
121837,392.156862745098,4,1,2,90,1,1
122621,368.098159509202,4,1,3,95,1,1
122990,366.97247706422,4,1,5,95,1,1
125925,355.029585798816,4,1,3,100,1,1
126635,372.670807453416,4,1,2,100,1,1
127194,-102.040816326531,4,1,2,100,0,1
127380,358.208955223881,4,1,2,100,1,1
128454,379.746835443037,4,1,3,100,1,1
128833,368.098159509202,4,1,5,100,1,1
130307,361.44578313253,4,1,5,95,1,1
131752,368.098159509202,4,1,5,95,1,1
132488,-102.040816326531,4,1,5,95,0,1
132856,333.333333333333,4,1,3,100,1,1
133022,364.741641337386,4,1,3,100,1,1
133933,370.37037037037,4,1,3,100,1,1
134684,363.636363636363,4,1,3,100,1,1
135047,-100,4,1,5,100,0,1
136138,368.098159509202,4,1,5,95,1,1
137610,-100,4,1,5,100,0,1
138898,-100,4,1,5,100,0,0
139082,382.165605095541,4,1,5,100,1,0
139464,352.941176470588,4,1,5,100,1,0
140532,361.44578313253,4,1,6,100,1,0
141977,365.853658536585,4,1,6,100,1,0
143440,361.44578313253,4,1,6,100,1,0
146331,370.37037037037,4,1,6,100,1,0
147442,359.281437125748,4,1,6,100,1,0
147801,365.853658536585,4,1,6,100,1,0
150727,361.44578313253,4,1,6,100,1,0
152181,379.746835443038,4,1,6,100,1,0
152560,-101.010101010101,4,1,6,100,0,0
152940,361.44578313253,4,1,6,100,1,0
153662,355.029585798816,4,1,6,100,1,0
154727,352.941176470588,4,1,6,100,1,0
155079,365.853658536585,4,1,6,100,1,0
156552,375,4,1,6,100,1,0
158052,363.636363636363,4,1,6,100,1,0
159324,-101.010101010101,4,1,6,100,0,0
159506,352.941176470588,4,1,6,100,1,0
159858,365.853658536585,4,1,6,100,1,0
160589,384.615384615385,4,1,6,100,1,0
160973,361.44578313253,4,1,6,100,1,0
163506,374.999999999999,4,1,6,100,1,0
163787,-100,4,1,6,100,0,1
163881,387.096774193548,4,1,5,100,1,1
164655,368.098159509202,4,1,5,100,1,1
165207,-100,4,1,5,95,0,1
166127,365.853658536585,4,1,5,95,1,1
167590,-100,4,1,3,90,0,1
167956,-100,4,1,2,90,0,1
168139,-100,4,1,3,90,0,1
168687,-100,4,1,2,95,0,1
169053,-100,4,1,3,95,0,1
169602,-100,4,1,5,100,0,1
169785,377.358490566037,4,1,5,100,1,1
170728,-101.010101010101,4,1,5,100,0,1
170917,365.853658536585,4,1,5,95,1,1
172562,-100,4,1,2,100,0,1
172746,368.098159509202,4,1,3,100,1,1
174034,-102.040816326531,4,1,3,100,0,1
174218,357.142857142857,4,1,2,100,1,1
175658,389.610389610389,4,1,5,100,1,1
176047,372.670807453415,4,1,5,100,1,1
176419,363.636363636363,4,1,5,95,1,1
177146,363.636363636363,4,1,5,95,1,1
178600,361.445783132529,4,1,5,90,1,1
179142,-100,4,1,5,95,0,1
179684,-100,4,1,3,95,0,1
180226,-100,4,1,2,95,0,1
180407,-100,4,1,3,95,0,1
180768,-100,4,1,2,95,0,1
181130,372.670807453415,4,1,2,100,1,1
181502,384.615384615383,4,1,5,100,1,1
181886,370.370370370369,4,1,2,95,1,1
182071,-100,4,1,5,95,0,1
182441,-100,4,1,5,100,0,1
182904,-100,4,1,5,90,0,1
182997,368.098159509201,4,1,5,90,1,1
183733,-100,4,1,5,100,0,1
184101,-100,4,1,5,90,0,1
184469,363.636363636362,4,1,5,100,1,1
185741,-100,4,1,5,100,0,0
185923,357.142857142857,4,1,5,100,1,0
186637,370.37037037037,4,1,5,100,1,0
187377,363.636363636364,4,1,7,70,1,0
190287,365.853658536584,4,1,7,70,1,0
191750,370.370370370369,4,1,7,70,1,0
193231,365.853658536584,4,1,7,70,1,0
199084,363.636363636362,4,1,7,70,1,0
201993,361.445783132529,4,1,7,70,1,0
203077,370.370370370369,4,1,7,70,1,0

[Colours]
Combo1 : 251,231,151
Combo2 : 250,177,69
Combo3 : 248,217,41
Combo4 : 249,146,53
Combo5 : 242,249,162
Combo6 : 219,249,164

[HitObjects]
256,192,9221,12,0,11587,0:0:0:0:
326,57,11776,6,0,P|435:51|488:43,2,158.074,0|0|0,0:0|0:0|0:0,0:0:0:0:
326,57,12880,2,0,P|330:103|329:141,1,80,0|0,0:0|0:0,0:0:0:0:
250,277,13246,1,0,0:0:0:0:
385,222,13429,1,0,0:0:0:0:
385,222,13520,2,0,P|442:223|511:222,1,120,0|0,0:0|0:0,0:0:0:0:
220,105,13978,2,0,P|143:127|131:223,1,160,0|0,0:0|0:0,0:0:0:0:
69,303,14527,1,0,0:0:0:0:
291,338,14709,6,0,P|253:278|163:278,1,160,0|0,0:0|0:0,0:0:0:0:
71,328,15245,1,0,0:0:0:0:
96,110,15430,1,0,0:0:0:0:
7,143,15614,2,0,P|16:192|25:253,1,80,0|0,0:0|0:0,0:0:0:0:
183,109,15984,2,0,P|174:60|165:-1,1,80,0|0,0:0|0:0,0:0:0:0:
123,211,16348,1,0,0:0:0:0:
259,173,16529,5,0,0:0:0:0:
259,173,16619,1,0,0:0:0:0:
259,173,16710,1,0,0:0:0:0:
96,110,16890,1,0,0:0:0:0:
205,267,17071,1,0,0:0:0:0:
205,267,17161,2,0,P|327:255|330:255,1,120,0|0,0:0|0:0,0:0:0:0:
488,90,17613,6,0,P|441:57|347:97,1,160,0|0,0:0|0:0,0:0:0:0:
303,165,18161,1,0,0:0:0:0:
506,264,18344,2,0,P|493:209|443:170,1,120,0|0,0:0|0:0,0:0:0:0:
413,189,18710,1,0,0:0:0:0:
256,273,18893,2,0,P|263:324|274:379,1,80,0|0,0:0|0:0,0:0:0:0:
267,154,19259,1,0,0:0:0:0:
145,284,19442,2,0,P|164:234|176:195,1,80,0|0,0:0|0:0,0:0:0:0:
388,101,19808,1,0,0:0:0:0:
262,190,19991,1,0,0:0:0:0:
166,62,20173,2,0,P|115:47|12:107,1,162.624,0|0,0:0|0:0,0:0:0:0:
5,166,20728,1,0,0:0:0:0:
64,356,20912,1,0,0:0:0:0:
64,356,21280,5,0,0:0:0:0:
166,133,21464,2,0,P|177:185|191:218,1,80,0|0,0:0|0:0,0:0:0:0:
334,362,21832,2,0,P|350:309|383:256,1,80,0|0,0:0|0:0,0:0:0:0:
457,153,22200,1,0,0:0:0:0:
276,246,22384,1,0,0:0:0:0:
457,252,22568,1,0,0:0:0:0:
369,187,22752,1,0,0:0:0:0:
400,358,22936,1,0,0:0:0:0:
202,296,23120,1,0,0:0:0:0:
337,299,23304,1,0,0:0:0:0:
130,352,23488,5,0,0:0:0:0:
242,203,23670,2,0,P|188:182|86:235,1,160,0|0,0:0|0:0,0:0:0:0:
8,257,24219,2,0,P|15:302|18:344,1,80,0|0,0:0|0:0,0:0:0:0:
47,155,24585,2,0,P|40:110|37:68,1,80,0|0,0:0|0:0,0:0:0:0:
141,6,24951,1,0,0:0:0:0:
128,192,25129,1,0,0:0:0:0:
128,192,25218,2,0,P|180:179|250:175,1,120,0|0,0:0|0:0,0:0:0:0:
418,283,25665,2,0,P|465:252|461:198,1,80,0|0,0:0|0:0,0:0:0:0:
305,301,26036,2,0,P|330:339|380:353,1,80,0|0,0:0|0:0,0:0:0:0:
352,136,26408,6,0,P|314:133|245:241,1,160,0|0,0:0|0:0,0:0:0:0:
184,294,26951,1,0,0:0:0:0:
158,103,27137,1,0,0:0:0:0:
54,246,27315,2,0,P|120:210|150:182,1,80,0|0,0:0|0:0,0:0:0:0:
103,14,27671,2,0,P|37:50|7:78,1,80,0|0,0:0|0:0,0:0:0:0:
215,189,28034,1,0,0:0:0:0:
184,75,28219,1,0,0:0:0:0:
297,53,28413,1,0,0:0:0:0:
328,162,28608,2,0,P|325:217|322:303,1,120,0|0,0:0|0:0,0:0:0:0:
304,311,28983,2,0,P|262:320|221:333,1,80,0|0,0:0|0:0,0:0:0:0:
435,342,29331,6,0,P|484:318|482:216,1,160,0|0,0:0|0:0,0:0:0:0:
416,169,29879,1,0,0:0:0:0:
482,62,30062,2,0,P|447:30|323:59,1,160,0|0,0:0|0:0,0:0:0:0:
222,207,30611,2,0,P|179:194|114:188,1,80,0|0,0:0|0:0,0:0:0:0:
327,243,30977,1,0,0:0:0:0:
117,171,31160,2,0,P|176:157|214:149,1,80,0|0,0:0|0:0,0:0:0:0:
0,84,31526,1,0,0:0:0:0:
89,174,31709,1,0,0:0:0:0:
5,277,31891,2,0,P|46:305|164:302,1,160.437333333333,0|0,0:0|0:0,0:0:0:0:
209,235,32432,1,0,0:0:0:0:
411,286,32607,1,0,0:0:0:0:
411,286,32975,5,0,0:0:0:0:
326,75,33159,2,0,P|331:132|337:172,1,80,0|0,0:0|0:0,0:0:0:0:
238,353,33529,2,0,P|227:307|123:251,1,160,0|0,0:0|0:0,0:0:0:0:
119,159,34088,1,0,0:0:0:0:
16,192,34274,1,0,0:0:0:0:
162,24,34461,1,0,0:0:0:0:
189,209,34643,1,0,0:0:0:0:
323,182,34826,1,0,0:0:0:0:
308,67,35009,1,0,0:0:0:0:
326,206,35192,6,0,P|333:265|336:304,1,80,0|0,0:0|0:0,0:0:0:0:
450,146,35553,2,0,P|463:91|409:16,1,136,0|0,0:0|0:0,0:0:0:0:
294,40,36095,2,0,P|253:52|218:55,1,68.0000000000002,0|0,0:0|0:0,0:0:0:0:
51,201,36457,2,0,P|84:205|117:215,1,68.0000000000003,0|0,0:0|0:0,0:0:0:0:
227,54,36819,2,0,P|193:49|160:39,1,68.0000000000003,0|0,0:0|0:0,0:0:0:0:
212,224,37182,1,0,0:0:0:0:
320,112,37363,2,0,P|354:174|332:244,1,136,0|0,0:0|0:0,0:0:0:0:
357,318,37907,1,0,0:0:0:0:
125,287,38095,1,0,0:0:0:0:
125,287,38465,6,0,P|173:279|215:278,1,68.0000000000002,0|0,0:0|0:0,0:0:0:0:
326,299,38835,1,0,0:0:0:0:
154,161,39019,2,0,P|218:143|281:198,1,136,0|0,0:0|0:0,0:0:0:0:
272,179,40583,6,0,P|269:229|269:254,1,58.1558679636637,0|0,0:0|0:0,0:0:0:0:
275,43,41043,1,0,0:0:0:0:
275,43,41402,2,0,P|207:54|128:67,1,136.000000000001,0|0,0:0|0:0,0:0:0:0:
351,117,41950,2,0,P|398:109|433:100,1,67.2565346303304,0|0,0:0|0:0,0:0:0:0:
506,167,42311,1,0,0:0:0:0:
506,167,42676,5,0,0:0:0:0:
472,304,42860,2,0,P|452:253|447:233,1,68.0000000000002,0|0,0:0|0:0,0:0:0:0:
368,40,43228,2,0,P|288:47|262:120,1,136,0|0,0:0|0:0,0:0:0:0:
289,175,43780,1,0,0:0:0:0:
126,269,43964,6,0,P|131:220|210:170,1,136.000002593994,0|0,0:0|0:0,0:0:0:0:
315,323,44514,2,0,P|251:310|216:309,1,68.0000000000002,0|0,0:0|0:0,0:0:0:0:
374,198,44880,2,0,P|407:193|440:184,1,68.0000000000002,0|0,0:0|0:0,0:0:0:0:
206,244,45246,2,0,P|155:236|70:236,1,136.000000000001,0|0,0:0|0:0,0:0:0:0:
5,53,45795,1,0,0:0:0:0:
96,150,45978,1,0,0:0:0:0:
204,71,46161,1,0,0:0:0:0:
116,60,46344,1,0,0:0:0:0:
223,207,46527,1,0,0:0:0:0:
356,68,46710,1,0,0:0:0:0:
356,68,46801,1,0,0:0:0:0:
356,68,46896,6,0,B|368:173|318:119|349:256,1,152.072727272728,0|0,0:0|0:0,0:0:0:0:
356,315,47441,1,0,0:0:0:0:
462,160,47623,2,0,P|499:180|499:289,1,160,0|0,0:0|0:0,0:0:0:0:
279,261,48146,2,0,P|329:223|362:230,1,80,0|0,0:0|0:0,0:0:0:0:
225,359,48514,2,0,P|162:351|147:324,1,80,0|0,0:0|0:0,0:0:0:0:
279,148,48882,1,0,0:0:0:0:
191,237,49066,2,0,P|154:209|56:249,1,160,0|0,0:0|0:0,0:0:0:0:
6,311,49618,1,0,0:0:0:0:
24,61,49804,1,0,0:0:0:0:
24,61,50174,6,0,P|78:68|123:71,1,68.0000000000002,0|0,0:0|0:0,0:0:0:0:
191,224,50544,2,0,P|168:183|226:93,1,136,0|0,0:0|0:0,0:0:0:0:
361,106,51070,2,0,P|370:160|371:182,1,68.0000000000002,0|0,0:0|0:0,0:0:0:0:
474,292,51457,2,0,P|465:238|464:216,1,67.2932012969971,0|0,0:0|0:0,0:0:0:0:
465,138,51837,1,0,0:0:0:0:
403,332,52026,2,0,P|310:351|251:364,1,136,0|0,0:0|0:0,0:0:0:0:
193,303,52564,1,0,0:0:0:0:
273,169,52744,6,0,P|295:213|296:257,1,68.0000000000002,0|0,0:0|0:0,0:0:0:0:
120,345,53107,2,0,P|98:301|97:257,1,68.0000000000002,0|0,0:0|0:0,0:0:0:0:
208,79,53471,2,0,P|269:79|328:114,1,102,0|0,0:0|0:0,0:0:0:0:
327,113,53834,1,0,0:0:0:0:
423,44,54016,6,0,P|475:40|495:32,1,68.3740012969971,0|0,0:0|0:0,0:0:0:0:
354,196,54382,2,0,P|302:200|282:208,1,68.0000000000002,0|0,0:0|0:0,0:0:0:0:
201,259,54750,1,0,0:0:0:0:
378,342,54934,2,0,P|303:349|237:318,1,136,0|0,0:0|0:0,0:0:0:0:
186,242,55486,1,0,0:0:0:0:
230,76,55670,2,0,P|196:90|153:100,1,68.0000000000002,0|0,0:0|0:0,0:0:0:0:
8,187,56027,6,0,P|61:193|96:281,1,134.232002593994,0|0,0:0|0:0,0:0:0:0:
248,346,56593,2,0,P|239:300|238:260,1,66.5043212969971,0|0,0:0|0:0,0:0:0:0:
299,97,56948,2,0,P|359:126|430:109,1,140.756082593994,0|0,0:0|0:0,0:0:0:0:
496,48,57506,1,0,0:0:0:0:
475,263,57692,1,0,0:0:0:0:
349,224,57878,1,0,0:0:0:0:
436,115,58061,5,0,0:0:0:0:
439,140,58244,5,0,0:0:0:0:
442,167,58428,5,0,0:0:0:0:
272,162,58611,6,0,P|222:173|169:182,1,80,0|0,0:0|0:0,0:0:0:0:
384,330,58979,2,0,P|434:319|487:310,1,80,0|0,0:0|0:0,0:0:0:0:
346,55,59347,2,0,P|267:40|199:100,1,160,0|0,0:0|0:0,0:0:0:0:
177,180,59899,1,0,0:0:0:0:
42,32,60083,6,0,P|89:44|119:78,1,80,0|0,0:0|0:0,0:0:0:0:
241,264,60446,2,0,P|288:252|318:218,1,80,0|0,0:0|0:0,0:0:0:0:
291,119,60810,1,0,0:0:0:0:
156,272,60992,2,0,P|148:331|143:377,1,80,0|0,0:0|0:0,0:0:0:0:
11,205,61355,1,0,0:0:0:0:
11,205,61446,1,0,0:0:0:0:
11,205,61541,6,0,P|23:134|35:42,1,160,0|0,0:0|0:0,0:0:0:0:
123,24,62079,1,0,0:0:0:0:
219,171,62259,2,0,P|273:159|365:149,1,120,0|0,0:0|0:0,0:0:0:0:
367,151,62618,1,0,0:0:0:0:
312,297,62787,2,0,P|362:343|468:335,1,160.795466666667,0|0,0:0|0:0,0:0:0:0:
478,262,63313,1,0,0:0:0:0:
417,82,63505,1,0,0:0:0:0:
251,178,63697,1,0,0:0:0:0:
407,198,63889,1,0,0:0:0:0:
301,33,64082,2,0,P|312:82|318:141,1,80,0|0,0:0|0:0,0:0:0:0:
173,306,64447,6,0,P|113:276|122:172,1,160,0|0,0:0|0:0,0:0:0:0:
37,137,64999,1,0,0:0:0:0:
213,38,65183,1,0,0:0:0:0:
205,141,65367,2,0,P|199:192|190:243,1,80,0|0,0:0|0:0,0:0:0:0:
354,355,65735,1,0,0:0:0:0:
354,355,65827,1,0,0:0:0:0:
354,355,65922,6,0,P|409:307|370:225,1,159.024390243902,0|0,0:0|0:0,0:0:0:0:
461,159,66470,1,0,0:0:0:0:
331,120,66653,1,0,0:0:0:0:
217,302,66836,2,0,P|293:278|317:263,1,80,0|0,0:0|0:0,0:0:0:0:
254,56,67202,1,0,0:0:0:0:
184,217,67385,6,0,P|128:208|78:106,1,161.355466666666,0|0,0:0|0:0,0:0:0:0:
144,37,67921,1,0,0:0:0:0:
76,197,68105,2,0,P|66:250|60:299,1,80,0|0,0:0|0:0,0:0:0:0:
262,357,68473,2,0,P|272:304|278:255,1,80,0|0,0:0|0:0,0:0:0:0:
261,82,68841,5,0,0:0:0:0:
181,127,69022,1,0,0:0:0:0:
181,127,69113,1,0,0:0:0:0:
181,127,69204,1,0,0:0:0:0:
255,174,69386,1,0,0:0:0:0:
127,49,69568,5,0,0:0:0:0:
33,107,69750,1,0,0:0:0:0:
112,181,69931,1,0,0:0:0:0:
1,28,70113,1,0,0:0:0:0:
13,285,70296,6,0,P|51:265|118:264,1,79.0419161676647,0|0,0:0|0:0,0:0:0:0:
267,124,70655,2,0,P|247:77|244:32,1,80,0|0,0:0|0:0,0:0:0:0:
318,221,71014,2,0,P|328:268|251:366,1,160,0|0,0:0|0:0,0:0:0:0:
102,285,71580,1,0,0:0:0:0:
151,131,71768,2,0,P|204:159|215:243,1,120,0|0,0:0|0:0,0:0:0:0:
201,243,72120,1,0,0:0:0:0:
366,308,72297,2,0,P|416:296|465:291,1,81.8042666666667,0|0,0:0|0:0,0:0:0:0:
442,140,72660,2,0,P|402:134|363:124,1,80,0|0,0:0|0:0,0:0:0:0:
151,224,73035,1,0,0:0:0:0:
151,224,73129,1,0,0:0:0:0:
151,224,73223,6,0,P|210:224|327:217,2,160.89712,0|0|0,0:0|0:0|0:0,0:0:0:0:
151,224,74306,2,0,P|146:275|143:318,1,80,0|0,0:0|0:0,0:0:0:0:
164,86,74676,1,0,0:0:0:0:
40,148,74861,1,0,0:0:0:0:
154,209,75046,1,0,0:0:0:0:
28,56,75231,2,0,P|68:29|113:24,1,80,0|0,0:0|0:0,0:0:0:0:
398,142,75601,5,0,0:0:0:0:
397,159,75785,5,0,0:0:0:0:
396,176,75970,5,0,0:0:0:0:
293,293,76157,6,0,P|261:236|324:135,1,160,0|0,0:0|0:0,0:0:0:0:
510,225,76705,1,0,0:0:0:0:
431,313,76888,1,0,0:0:0:0:
399,126,77071,2,0,P|407:77|418:35,1,80,0|0,0:0|0:0,0:0:0:0:
261,177,77437,1,0,0:0:0:0:
261,177,77528,1,0,0:0:0:0:
261,177,77620,6,0,P|171:166|85:188,1,160.896,0|0,0:0|0:0,0:0:0:0:
26,336,78159,2,0,P|41:284|50:249,1,80,0|0,0:0|0:0,0:0:0:0:
108,47,78525,1,0,0:0:0:0:
250,153,78708,2,0,P|302:142|434:114,1,160.435146666667,0|0,0:0|0:0,0:0:0:0:
253,52,79255,5,0,0:0:0:0:
346,213,79420,1,0,0:0:0:0:
161,191,79604,1,0,0:0:0:0:
367,111,79788,1,0,0:0:0:0:
276,277,79966,1,0,0:0:0:0:
470,264,80145,1,0,0:0:0:0:
250,153,80323,1,0,0:0:0:0:
256,192,80676,12,0,81924,0:0:0:0:
250,153,82301,6,0,P|247:207|244:247,1,80,0|0,0:0|0:0,0:0:0:0:
203,41,82678,2,0,P|142:41|74:109,1,160,0|0,0:0|0:0,0:0:0:0:
116,188,83233,1,0,0:0:0:0:
30,335,83418,1,0,0:0:0:0:
13,166,83603,1,0,0:0:0:0:
123,307,83788,2,0,P|192:291|283:287,1,160,0|0,0:0|0:0,0:0:0:0:
210,122,84343,1,0,0:0:0:0:
372,148,84529,1,0,0:0:0:0:
222,322,84714,1,0,0:0:0:0:
356,243,84899,6,0,B|425:250|425:250|453:268|453:268|522:273,2,159.157333333333,0|0|0,0:0|0:0|0:0,0:0:0:0:
356,243,86021,2,0,P|355:297|351:343,1,80,0|0,0:0|0:0,0:0:0:0:
352,104,86385,1,0,0:0:0:0:
220,183,86567,1,0,0:0:0:0:
179,57,86748,1,0,0:0:0:0:
307,178,86930,1,0,0:0:0:0:
152,252,87112,5,0,0:0:0:0:
118,140,87294,1,0,0:0:0:0:
55,324,87476,1,0,0:0:0:0:
17,205,87658,1,0,0:0:0:0:
180,252,87839,6,0,B|248:261|248:261|281:281|281:281|355:289,1,160,0|0,0:0|0:0,0:0:0:0:
331,197,88394,1,0,0:0:0:0:
183,61,88576,2,0,P|136:73|76:72,1,80,0|0,0:0|0:0,0:0:0:0:
20,237,88940,2,0,P|59:239|98:250,1,80,0|0,0:0|0:0,0:0:0:0:
185,341,89304,1,0,0:0:0:0:
200,154,89486,2,0,P|254:132|356:161,1,160,0|0,0:0|0:0,0:0:0:0:
437,351,90032,2,0,P|436:294|451:246,1,80,0|0,0:0|0:0,0:0:0:0:
356,64,90397,1,0,0:0:0:0:
271,219,90579,1,0,0:0:0:0:
183,19,90761,6,0,P|202:73|198:125,1,80,0|0,0:0|0:0,0:0:0:0:
86,330,91118,2,0,P|90:290|105:253,1,80,0|0,0:0|0:0,0:0:0:0:
379,113,91483,1,0,0:0:0:0:
277,239,91666,1,0,0:0:0:0:
197,108,91849,1,0,0:0:0:0:
83,168,92032,1,0,0:0:0:0:
83,168,93692,6,0,P|86:210|89:253,1,68.0000000000002,0|0,0:0|0:0,0:0:0:0:
240,342,94062,2,0,P|285:318|286:226,1,136,0|0,0:0|0:0,0:0:0:0:
250,151,94600,1,0,0:0:0:0:
427,85,94780,1,0,0:0:0:0:
383,159,94960,2,0,P|372:204|384:248,1,68.0000000000003,0|0,0:0|0:0,0:0:0:0:
504,337,95348,2,0,P|461:310|420:326,1,68.0000000000002,0|0,0:0|0:0,0:0:0:0:
269,358,95713,1,0,0:0:0:0:
198,242,95896,1,0,0:0:0:0:
296,210,96079,2,0,P|347:221|382:226,1,68.0000000000002,0|0,0:0|0:0,0:0:0:0:
141,163,96445,1,0,0:0:0:0:
326,116,96628,6,0,P|281:121|241:129,1,68.0000000000002,0|0,0:0|0:0,0:0:0:0:
52,265,96994,2,0,P|97:260|144:249,1,68.0000000000002,0|0,0:0|0:0,0:0:0:0:
307,237,97360,1,0,0:0:0:0:
316,342,97543,1,0,0:0:0:0:
200,354,97726,1,0,0:0:0:0:
412,224,97908,1,0,0:0:0:0:
412,224,98822,2,0,L|415:280,2,40.4293333333333,0|0|0,0:0|0:0|0:0,0:0:0:0:
412,224,99583,6,0,P|354:261|270:237,1,138.312002593994,0|0,0:0|0:0,0:0:0:0:
208,148,100124,1,0,0:0:0:0:
149,333,100314,1,0,0:0:0:0:
27,224,100492,2,0,P|75:218|113:214,1,68.0000000000002,0|0,0:0|0:0,0:0:0:0:
290,103,100849,2,0,P|256:59|165:84,1,139.427202593994,0|0,0:0|0:0,0:0:0:0:
226,279,101398,2,0,P|245:231|265:209,1,68.0000000000002,0|0,0:0|0:0,0:0:0:0:
447,94,101768,1,0,0:0:0:0:
361,160,101953,1,0,0:0:0:0:
401,264,102139,2,0,P|443:260|486:252,1,68.0000000000002,0|0,0:0|0:0,0:0:0:0:
261,140,102509,1,0,0:0:0:0:
261,140,102873,6,0,P|267:196|197:260,1,134.554482593994,0|0,0:0|0:0,0:0:0:0:
106,123,103428,2,0,P|120:80|126:47,1,68.0000000000002,0|0,0:0|0:0,0:0:0:0:
64,234,103783,1,0,0:0:0:0:
64,234,104158,5,0,0:0:0:0:
198,155,104345,2,0,P|254:170|293:184,1,68.0000000000002,0|0,0:0|0:0,0:0:0:0:
481,149,104720,2,0,P|479:100|414:64,1,102,0|0,0:0|0:0,0:0:0:0:
406,62,105079,2,0,P|396:108|384:145,1,71.9999978027344,0|0,0:0|0:0,0:0:0:0:
325,336,105442,1,0,0:0:0:0:
325,336,105807,6,0,P|287:308|291:212,1,136.000000000001,0|0,0:0|0:0,0:0:0:0:
155,240,106356,2,0,P|169:209|178:177,1,68.0000000000002,0|0,0:0|0:0,0:0:0:0:
76,181,106722,1,0,0:0:0:0:
76,181,106813,1,0,0:0:0:0:
76,181,106905,1,0,0:0:0:0:
69,275,107088,2,0,P|76:322|89:362,1,68.0000000000002,0|0,0:0|0:0,0:0:0:0:
181,149,107454,1,0,0:0:0:0:
25,79,107637,1,0,0:0:0:0:
55,245,107820,2,0,P|70:202|78:169,1,68.0000000000002,0|0,0:0|0:0,0:0:0:0:
228,67,108185,1,0,0:0:0:0:
228,67,108277,1,0,0:0:0:0:
228,67,108368,6,0,P|271:92|263:195,1,136.000000000001,0|0,0:0|0:0,0:0:0:0:
232,249,108917,1,0,0:0:0:0:
413,354,109100,2,0,B|416:274|446:315|452:225,1,136.000000000001,0|0,0:0|0:0,0:0:0:0:
364,191,109649,1,0,0:0:0:0:
364,191,110017,5,0,0:0:0:0:
333,351,110202,2,0,P|295:350|258:335,1,68.0000000000002,0|0,0:0|0:0,0:0:0:0:
204,179,110572,1,0,0:0:0:0:
86,311,110757,2,0,P|147:319|196:268,1,136,0|0,0:0|0:0,0:0:0:0:
209,27,111313,2,0,P|227:68|261:86,1,68.0000000000002,0|0,0:0|0:0,0:0:0:0:
491,85,111674,2,0,P|440:90|415:114,1,68.0000000000002,0|0,0:0|0:0,0:0:0:0:
318,274,112035,1,0,0:0:0:0:
214,164,112216,2,0,P|167:138|127:143,1,68.0000000000002,0|0,0:0|0:0,0:0:0:0:
40,162,112578,1,0,0:0:0:0:
40,162,112940,5,0,0:0:0:0:
161,315,113123,2,0,P|176:269|138:223,1,102,0|0,0:0|0:0,0:0:0:0:
122,231,113489,2,0,P|66:248|50:253,1,68.0000000000002,0|0,0:0|0:0,0:0:0:0:
240,350,113855,2,0,P|296:333|312:328,1,68.0000000000002,0|0,0:0|0:0,0:0:0:0:
415,290,114221,1,0,0:0:0:0:
415,290,114404,1,0,0:0:0:0:
251,177,114587,6,0,P|314:167|390:206,1,136.000000000001,0|0,0:0|0:0,0:0:0:0:
229,257,115136,2,0,P|164:251|138:250,1,68.0000000000002,0|0,0:0|0:0,0:0:0:0:
75,88,115501,2,0,P|138:78|214:117,1,135.256535927327,0|0,0:0|0:0,0:0:0:0:
337,319,116045,2,0,P|317:258|327:230,1,68.0000000000002,0|0,0:0|0:0,0:0:0:0:
392,45,116406,1,0,0:0:0:0:
477,180,116587,1,0,0:0:0:0:
230,242,116768,1,0,0:0:0:0:
230,242,117129,6,0,P|244:185|240:141,1,80,0|0,0:0|0:0,0:0:0:0:
42,23,117492,2,0,P|28:80|32:124,1,80,0|0,0:0|0:0,0:0:0:0:
102,347,117856,2,0,P|95:286|147:193,1,160,0|0,0:0|0:0,0:0:0:0:
315,213,118401,1,0,0:0:0:0:
315,213,118492,1,0,0:0:0:0:
315,213,118584,6,0,P|337:261|333:307,1,80,0|0,0:0|0:0,0:0:0:0:
149,178,118952,2,0,P|127:130|131:84,1,80,0|0,0:0|0:0,0:0:0:0:
213,22,119320,1,0,0:0:0:0:
161,258,119504,2,0,P|107:266|56:271,1,80,0|0,0:0|0:0,0:0:0:0:
262,139,119872,1,0,0:0:0:0:
262,139,119964,1,0,0:0:0:0:
262,139,120056,6,0,P|324:133|442:122,2,160,0|0|0,0:0|0:0|0:0,0:0:0:0:
262,139,121147,1,0,0:0:0:0:
301,322,121311,2,0,P|273:273|265:237,1,80,0|0,0:0|0:0,0:0:0:0:
322,31,121661,1,0,0:0:0:0:
461,73,121837,1,0,0:0:0:0:
345,217,122033,1,0,0:0:0:0:
336,40,122229,1,0,0:0:0:0:
396,125,122425,1,0,0:0:0:0:
205,193,122621,1,0,0:0:0:0:
242,50,122805,1,0,0:0:0:0:
242,50,122897,1,0,0:0:0:0:
242,50,122990,6,0,P|178:37|86:71,1,159.510703363915,0|0,0:0|0:0,0:0:0:0:
269,245,123540,1,0,0:0:0:0:
331,81,123723,1,0,0:0:0:0:
361,217,123907,2,0,P|367:265|375:325,1,80,0|0,0:0|0:0,0:0:0:0:
443,141,124274,1,0,0:0:0:0:
247,348,124457,6,0,P|208:327|185:202,1,160,0|0,0:0|0:0,0:0:0:0:
201,126,125008,1,0,0:0:0:0:
77,251,125191,1,0,0:0:0:0:
153,46,125375,2,0,P|211:35|258:45,1,80,0|0,0:0|0:0,0:0:0:0:
413,107,125742,1,0,0:0:0:0:
293,300,125925,6,0,P|299:192|349:156,1,160,0|0,0:0|0:0,0:0:0:0:
437,112,126457,1,0,0:0:0:0:
249,23,126635,2,0,P|288:47|342:50,1,80,0|0,0:0|0:0,0:0:0:0:
87,200,127007,1,0,0:0:0:0:
193,136,127194,2,0,P|249:119|292:132,1,78.2826666666667,0|0,0:0|0:0,0:0:0:0:
61,345,127559,2,0,P|97:317|112:278,1,80,0|0,0:0|0:0,0:0:0:0:
57,59,127917,1,0,0:0:0:0:
228,248,128096,1,0,0:0:0:0:
214,110,128275,1,0,0:0:0:0:
350,33,128454,1,0,0:0:0:0:
350,33,128833,6,0,B|366:148|305:80|336:218,1,160,0|0,0:0|0:0,0:0:0:0:
344,287,129385,1,0,0:0:0:0:
503,353,129569,2,0,P|493:296|436:236,1,120,0|0,0:0|0:0,0:0:0:0:
432,237,129937,1,0,0:0:0:0:
251,349,130121,1,0,0:0:0:0:
218,195,130307,6,0,P|171:173|129:178,1,80,0|0,0:0|0:0,0:0:0:0:
332,368,130668,2,0,P|365:340|385:285,1,80,0|0,0:0|0:0,0:0:0:0:
352,75,131029,2,0,P|396:35|502:75,1,160,0|0,0:0|0:0,0:0:0:0:
504,144,131572,1,0,0:0:0:0:
309,222,131752,2,0,P|239:230|143:237,1,160,0|0,0:0|0:0,0:0:0:0:
63,245,132304,1,0,0:0:0:0:
193,108,132488,6,0,P|129:68|37:119,1,156.939946666667,0|0,0:0|0:0,0:0:0:0:
38,343,133022,1,0,0:0:0:0:
155,268,133204,1,0,0:0:0:0:
21,176,133386,1,0,0:0:0:0:
134,354,133569,1,0,0:0:0:0:
256,196,133751,1,0,0:0:0:0:
129,167,133933,5,0,0:0:0:0:
229,324,134118,1,0,0:0:0:0:
67,258,134303,1,0,0:0:0:0:
214,124,134488,1,0,0:0:0:0:
13,91,134673,1,0,0:0:0:0:
13,91,135047,6,0,P|71:92|96:94,1,80,0|0,0:0|0:0,0:0:0:0:
331,128,135411,1,0,0:0:0:0:
243,295,135593,2,0,P|169:265|151:209,1,120,0|0,0:0|0:0,0:0:0:0:
168,204,135956,1,0,0:0:0:0:
356,134,136138,2,0,P|411:146|465:157,1,80,0|0,0:0|0:0,0:0:0:0:
233,113,136506,5,0,0:0:0:0:
233,113,136690,1,0,0:0:0:0:
413,58,136874,1,0,0:0:0:0:
347,239,137058,1,0,0:0:0:0:
215,110,137242,2,0,P|148:120|50:136,1,160,0|0,0:0|0:0,0:0:0:0:
196,21,137794,1,0,0:0:0:0:
122,224,137978,5,0,0:0:0:0:
241,218,138162,1,0,0:0:0:0:
82,35,138346,1,0,0:0:0:0:
180,152,138530,1,0,0:0:0:0:
14,240,138714,1,0,0:0:0:0:
198,40,138898,1,0,0:0:0:0:
256,192,138990,12,0,140532,0:0:0:0:
198,40,140893,6,0,P|198:112|202:147,1,80,0|0,0:0|0:0,0:0:0:0:
117,298,141254,2,0,P|59:273|43:179,1,160,0|0,0:0|0:0,0:0:0:0:
91,104,141797,1,0,0:0:0:0:
236,221,141977,1,0,0:0:0:0:
263,67,142159,1,0,0:0:0:0:
144,184,142342,2,0,P|135:243|127:283,1,80,0|0,0:0|0:0,0:0:0:0:
252,367,142708,2,0,P|318:356|415:347,1,160,0|0,0:0|0:0,0:0:0:0:
492,340,143257,1,0,0:0:0:0:
429,115,143440,6,0,P|375:131|344:175,1,80,0|0,0:0|0:0,0:0:0:0:
139,301,143801,2,0,P|176:266|182:208,1,80,0|0,0:0|0:0,0:0:0:0:
160,37,144162,2,0,P|101:23|20:81,1,160,0|0,0:0|0:0,0:0:0:0:
61,311,144705,1,0,0:0:0:0:
146,119,144885,2,0,P|188:128|226:135,1,80,0|0,0:0|0:0,0:0:0:0:
361,270,145247,1,0,0:0:0:0:
188,291,145427,1,0,0:0:0:0:
246,101,145608,2,0,P|314:113|353:119,1,80,0|0,0:0|0:0,0:0:0:0:
114,237,145970,1,0,0:0:0:0:
114,237,146150,1,0,0:0:0:0:
183,33,146331,5,0,0:0:0:0:
302,192,146516,1,0,0:0:0:0:
484,100,146701,2,0,P|420:58|339:85,1,160,0|0,0:0|0:0,0:0:0:0:
402,309,147256,1,0,0:0:0:0:
472,197,147442,2,0,P|422:193|383:188,1,80,0|0,0:0|0:0,0:0:0:0:
137,179,147801,5,0,0:0:0:0:
347,122,147983,1,0,0:0:0:0:
152,78,148166,2,0,P|202:82|241:87,1,80,0|0,0:0|0:0,0:0:0:0:
10,235,148532,1,0,0:0:0:0:
164,166,148715,1,0,0:0:0:0:
58,22,148898,2,0,P|54:69|50:113,1,80,0|0,0:0|0:0,0:0:0:0:
257,10,149264,6,0,P|282:68|242:137,1,120,0|0,0:0|0:0,0:0:0:0:
242,137,149630,1,0,0:0:0:0:
152,78,149813,1,0,0:0:0:0:
320,196,149996,2,0,P|333:237|240:313,1,160,0|0,0:0|0:0,0:0:0:0:
82,160,150544,2,0,P|111:130|133:78,1,80.4373333333334,0|0,0:0|0:0,0:0:0:0:
158,4,150907,1,0,0:0:0:0:
197,205,151088,5,0,0:0:0:0:
197,205,151269,1,0,0:0:0:0:
39,76,151449,1,0,0:0:0:0:
237,123,151630,1,0,0:0:0:0:
308,47,151811,1,0,0:0:0:0:
308,47,152181,6,0,P|260:30|216:27,1,80,0|0,0:0|0:0,0:0:0:0:
332,254,152560,2,0,P|395:239|453:168,1,158.731786666667,0|0,0:0|0:0,0:0:0:0:
316,33,153120,1,0,0:0:0:0:
236,180,153301,2,0,P|233:228|235:283,1,80,0|0,0:0|0:0,0:0:0:0:
192,28,153662,5,0,0:0:0:0:
41,155,153839,1,0,0:0:0:0:
78,58,154017,1,0,0:0:0:0:
218,174,154194,1,0,0:0:0:0:
86,274,154372,2,0,P|108:212|114:171,1,80,0|0,0:0|0:0,0:0:0:0:
406,201,154727,1,0,0:0:0:0:
406,201,155079,6,0,P|343:212|315:220,1,80,0|0,0:0|0:0,0:0:0:0:
164,302,155444,2,0,P|197:342|327:320,1,160,0|0,0:0|0:0,0:0:0:0:
399,117,155993,1,0,0:0:0:0:
209,223,156176,1,0,0:0:0:0:
147,108,156359,1,0,0:0:0:0:
278,158,156552,1,0,0:0:0:0:
256,192,156645,12,0,158052,0:0:0:0:
278,158,158415,6,0,P|291:203|295:243,1,80,0|0,0:0|0:0,0:0:0:0:
426,339,158779,2,0,P|478:317|489:213,1,160,0|0,0:0|0:0,0:0:0:0:
310,60,159324,2,0,P|253:73|213:71,1,79.5556,0|0,0:0|0:0,0:0:0:0:
183,255,159682,1,0,0:0:0:0:
299,151,159858,1,0,0:0:0:0:
144,92,160040,1,0,0:0:0:0:
302,243,160223,1,0,0:0:0:0:
188,224,160406,1,0,0:0:0:0:
395,48,160589,1,0,0:0:0:0:
395,48,160973,6,0,B|401:109|401:109|386:147|386:147|398:242,1,160,0|0,0:0|0:0,0:0:0:0:
406,297,161515,1,0,0:0:0:0:
287,369,161695,1,0,0:0:0:0:
274,216,161876,1,0,0:0:0:0:
495,325,162057,2,0,P|494:285|486:247,1,80,0|0,0:0|0:0,0:0:0:0:
309,73,162418,5,0,0:0:0:0:
265,235,162599,1,0,0:0:0:0:
159,124,162780,1,0,0:0:0:0:
381,126,162960,1,0,0:0:0:0:
267,256,163141,1,0,0:0:0:0:
165,105,163322,1,0,0:0:0:0:
268,152,163506,1,0,0:0:0:0:
145,265,163693,1,0,0:0:0:0:
80,31,163881,1,0,0:0:0:0:
80,31,164268,6,0,P|82:79|86:123,1,80,0|0,0:0|0:0,0:0:0:0:
234,303,164655,2,0,P|281:267|383:283,1,160,0|0,0:0|0:0,0:0:0:0:
446,345,165207,1,0,0:0:0:0:
372,137,165391,5,0,0:0:0:0:
208,211,165575,2,0,P|162:207|127:168,1,80,0|0,0:0|0:0,0:0:0:0:
354,273,165943,2,0,P|348:331|318:355,1,80,0|0,0:0|0:0,0:0:0:0:
287,152,166309,2,0,P|270:106|318:26,1,120,0|0,0:0|0:0,0:0:0:0:
326,37,166675,1,0,0:0:0:0:
337,250,166858,6,0,P|258:264|224:274,1,80,0|0,0:0|0:0,0:0:0:0:
33,337,167224,1,0,0:0:0:0:
33,337,167407,1,0,0:0:0:0:
92,171,167590,2,0,P|148:181|227:200,1,120,0|0,0:0|0:0,0:0:0:0:
233,202,167956,1,0,0:0:0:0:
436,71,168139,2,0,P|401:29|281:40,1,160,0|0,0:0|0:0,0:0:0:0:
229,90,168687,5,0,0:0:0:0:
276,285,168870,1,0,0:0:0:0:
368,231,169053,1,0,0:0:0:0:
307,139,169236,5,0,0:0:0:0:
349,336,169419,1,0,0:0:0:0:
443,281,169602,1,0,0:0:0:0:
230,208,169785,6,0,P|197:157|233:57,1,160,0|0,0:0|0:0,0:0:0:0:
289,27,170351,1,0,0:0:0:0:
438,173,170539,1,0,0:0:0:0:
490,46,170728,2,0,P|438:56|400:66,1,79.57176,0|0,0:0|0:0,0:0:0:0:
296,202,171099,1,0,0:0:0:0:
445,269,171282,1,0,0:0:0:0:
398,89,171465,2,0,P|346:99|308:109,1,80,0|0,0:0|0:0,0:0:0:0:
215,263,171831,2,0,P|226:322|233:359,1,80,0|0,0:0|0:0,0:0:0:0:
156,132,172197,2,0,P|122:85|16:103,1,160,0|0,0:0|0:0,0:0:0:0:
214,234,172746,6,0,P|298:216|388:202,1,160,0|0,0:0|0:0,0:0:0:0:
460,192,173298,1,0,0:0:0:0:
243,126,173482,2,0,P|323:115|351:107,1,80,0|0,0:0|0:0,0:0:0:0:
125,117,173850,1,0,0:0:0:0:
257,41,174034,2,0,P|185:22|156:17,1,78.696,0|0,0:0|0:0,0:0:0:0:
14,204,174396,2,0,P|86:223|115:228,1,80,0|0,0:0|0:0,0:0:0:0:
246,202,174753,5,0,0:0:0:0:
241,225,174843,1,0,0:0:0:0:
237,248,174932,1,0,0:0:0:0:
233,271,175021,1,0,0:0:0:0:
229,294,175110,2,0,L|218:353,1,40,0|0,0:0|0:0,0:0:0:0:
111,223,175289,1,0,0:0:0:0:
111,223,175378,1,0,0:0:0:0:
111,223,175468,2,0,L|122:164,1,40,0|0,0:0|0:0,0:0:0:0:
398,232,175658,1,0,0:0:0:0:
398,232,176047,6,0,P|390:299|387:328,1,80,0|0,0:0|0:0,0:0:0:0:
503,137,176419,2,0,P|451:105|356:124,1,160,0|0,0:0|0:0,0:0:0:0:
246,203,176964,1,0,0:0:0:0:
212,56,177146,1,0,0:0:0:0:
355,121,177327,2,0,P|346:202|344:224,1,80,0|0,0:0|0:0,0:0:0:0:
127,36,177691,2,0,P|118:117|116:139,1,80,0|0,0:0|0:0,0:0:0:0:
240,8,178055,2,0,B|222:101|263:69|241:179,1,160,0|0,0:0|0:0,0:0:0:0:
56,336,178600,6,0,P|18:298|34:170,1,160,0|0,0:0|0:0,0:0:0:0:
65,93,179142,1,0,0:0:0:0:
231,247,179322,2,0,P|166:222|146:198,1,80,0|0,0:0|0:0,0:0:0:0:
390,103,179684,2,0,P|379:173|360:200,1,80,0|0,0:0|0:0,0:0:0:0:
307,304,180045,1,0,0:0:0:0:
297,92,180226,1,0,0:0:0:0:
469,181,180407,1,0,0:0:0:0:
238,236,180587,1,0,0:0:0:0:
350,192,180768,5,0,0:0:0:0:
407,285,180949,1,0,0:0:0:0:
246,358,181130,1,0,0:0:0:0:
331,183,181316,1,0,0:0:0:0:
176,116,181502,1,0,0:0:0:0:
176,116,181886,6,0,P|180:167|177:211,1,80,0|0,0:0|0:0,0:0:0:0:
181,1,182256,1,0,0:0:0:0:
272,155,182441,2,0,P|287:94|292:64,1,80,0|0,0:0|0:0,0:0:0:0:
285,253,182811,1,0,0:0:0:0:
285,253,182904,1,0,0:0:0:0:
285,253,182997,2,0,P|318:280|440:261,1,160,0|0,0:0|0:0,0:0:0:0:
185,152,183549,1,0,0:0:0:0:
182,300,183733,1,0,0:0:0:0:
68,217,183917,1,0,0:0:0:0:
58,363,184101,2,0,P|130:344|217:324,1,160,0|0,0:0|0:0,0:0:0:0:
322,298,184650,1,0,0:0:0:0:
213,113,184832,5,0,0:0:0:0:
161,218,185014,1,0,0:0:0:0:
354,213,185196,1,0,0:0:0:0:
148,313,185378,1,0,0:0:0:0:
83,153,185559,1,0,0:0:0:0:
256,192,185741,5,0,0:0:0:0:
256,192,185832,12,0,187377,0:0:0:0:
