osu file format v14

[General]
AudioFilename: audio.mp3
AudioLeadIn: 0
PreviewTime: 117129
Countdown: 0
SampleSet: Normal
StackLeniency: 0.4
Mode: 0
LetterboxInBreaks: 0
WidescreenStoryboard: 1

[Editor]
Bookmarks: 82018,138990,187467
DistanceSpacing: 1.2
BeatDivisor: 4
GridSize: 32
TimelineZoom: 3.5

[Metadata]
Title:Alrighty Aphrodite
TitleUnicode:Alrighty Aphrodite
Artist:Peach Pit
ArtistUnicode:Peach Pit
Creator:-Zel
Version:Collab Hard
Source:
Tags:rock english being so normal fsjallink kadzackzz
BeatmapID:4035195
BeatmapSetID:1915272

[Difficulty]
HPDrainRate:3.5
CircleSize:4
OverallDifficulty:6
ApproachRate:7.8
SliderMultiplier:1.3
SliderTickRate:1

[Events]
//Background and Video events
0,0,"Sandro_Botticelli_-_La_nascita_di_VenereEDIT.jpg",0,0
//Break Periods
//Storyboard Layer 0 (Background)
//Storyboard Layer 1 (Fail)
//Storyboard Layer 2 (Pass)
//Storyboard Layer 3 (Foreground)
//Storyboard Layer 4 (Overlay)
//Storyboard Sound Samples

[TimingPoints]
63,368.098159509202,4,1,1,70,1,0
63,-125,4,1,1,70,0,0
799,364.741641337386,4,1,1,70,1,0
799,-125,4,1,1,70,0,0
2987,379.746835443038,4,1,1,70,1,0
2987,-125,4,1,1,70,0,0
3746,362.537764350453,4,1,1,70,1,0
3746,-125,4,1,1,70,0,0
5921,370.37037037037,4,1,1,70,1,0
5921,-125,4,1,1,70,0,0
6661,365.853658536585,4,1,1,70,1,0
6661,-125,4,1,1,70,0,0
10313,370.37037037037,4,1,1,70,1,0
10683,-125,4,1,1,70,0,0
11053,-125,4,1,1,72,0,0
11238,-125,4,1,2,74,0,0
11424,326.086956521739,4,1,2,76,1,0
11587,379.746835443038,4,1,1,78,1,0
11776,373.831775700935,4,1,2,80,1,0
11776,-111.111111111111,4,1,2,80,0,0
12149,365.853658536585,4,1,2,80,1,0
12514,-111.111111111111,4,1,2,80,0,0
13978,-111.111111111111,4,1,3,80,0,0
14344,-111.111111111111,4,1,2,80,0,0
14709,352.941176470588,4,1,3,80,1,0
14709,-111.111111111111,4,1,3,80,0,0
15061,369.230769230769,4,1,3,80,1,0
15614,-111.111111111111,4,1,3,80,0,0
16168,361.44578313253,4,1,3,80,1,0
16348,-100,4,1,2,80,0,0
16890,-111.111111111111,4,1,2,80,0,0
17613,365.853658536585,4,1,2,90,1,0
17613,-111.111111111111,4,1,2,90,0,0
20544,368.098159509202,4,1,2,90,1,0
20728,-100,4,1,3,100,0,0
20912,-111.111111111111,4,1,3,100,0,0
22384,-111.111111111111,4,1,3,96,0,0
22568,-111.111111111111,4,1,2,93,0,0
22752,-111.111111111111,4,1,2,90,0,0
22936,-111.111111111111,4,1,2,87,0,0
23120,-111.111111111111,4,1,2,84,0,0
23304,-111.111111111111,4,1,2,82,0,0
23488,365.853658536585,4,1,2,80,1,0
23488,-111.111111111111,4,1,2,80,0,0
24951,357.142857142857,4,1,2,80,1,0
24951,-111.111111111111,4,1,2,80,0,0
25665,371.517027863777,4,1,3,80,1,0
25665,-111.111111111111,4,1,3,80,0,0
26408,357.142857142857,4,1,3,80,1,0
26408,-111.111111111111,4,1,3,80,0,0
26765,372.670807453416,4,1,3,80,1,0
27137,356.083086053413,4,1,2,80,1,0
27137,-111.111111111111,4,1,2,80,0,0
27849,370.37037037037,4,1,2,80,1,0
28219,389.61038961039,4,1,2,80,1,0
28267,-100,4,1,3,80,0,0
28413,-100,4,1,2,80,0,0
28608,375,4,1,3,80,1,0
28608,-111.111111111111,4,1,3,80,0,0
28983,348.837209302326,4,1,2,80,1,0
29331,365.853658536585,4,1,2,90,1,0
29331,-111.111111111111,4,1,2,90,0,0
32257,350.877192982456,4,1,2,90,1,0
32257,-111.111111111111,4,1,3,100,0,0
32607,368.098159509202,4,1,2,100,1,0
32607,-111.111111111111,4,1,3,100,0,0
33159,-111.111111111111,4,1,2,100,0,0
33343,372.670807453416,4,1,2,100,1,0
33529,-111.111111111111,4,1,3,100,0,0
34088,-111.111111111111,4,1,2,88,0,0
34461,365.853658536585,4,1,3,80,1,0
34643,-100,4,1,3,75,0,0
34826,-100,4,1,3,70,0,0
35009,-100,4,1,3,65,0,0
35192,361.44578313253,4,1,4,70,1,0
35553,-125,4,1,4,70,0,0
36457,362.537764350453,4,1,4,70,1,0
36457,-123.456790123457,4,1,4,70,0,0
37544,-125,4,1,4,70,0,0
37907,-129.87012987013,4,1,4,70,0,0
38095,370.37037037037,4,1,4,70,1,0
38465,-125,4,1,4,70,0,0
38835,368.098159509202,4,1,4,70,1,0
40601,372.670807453415,4,1,4,85,1,0
40787,512.820512820512,4,1,4,85,1,0
41043,359.281437125748,4,1,4,70,1,0
41043,-125,4,1,4,70,0,0
41402,365.853658536585,4,1,4,70,1,0
41402,-125,4,1,4,70,0,0
41950,-123.915737298637,4,1,4,70,0,0
42133,357.142857142857,4,1,4,70,1,0
42133,-125,4,1,4,70,0,0
42492,368.098159509202,4,1,4,70,1,0
42492,-125,4,1,4,70,0,0
43780,-125,4,1,4,70,0,0
44332,365.853658536585,4,1,4,70,1,0
44926,-100,4,1,4,80,0,0
45246,-125,4,1,4,80,0,0
46803,-125,4,1,4,70,0,0
46896,363.636363636363,4,1,4,70,1,0
47259,-122.324159021407,4,1,4,70,0,0
47623,348.837209302326,4,1,4,70,1,0
47623,-125,4,1,4,70,0,0
48146,368.098159509202,4,1,4,70,1,0
48146,-125,4,1,4,70,0,0
48514,-125,4,1,4,70,0,0
49804,370.37037037037,4,1,4,70,1,0
49804,-125,4,1,4,70,0,0
50174,-125,4,1,4,70,0,0
50544,350.877192982456,4,1,4,70,1,0
51070,387.096774193548,4,1,4,70,1,0
51070,-122.699386503067,4,1,4,70,0,0
51650,375,4,1,4,70,1,0
52026,359.281437125748,4,1,4,70,1,0
52744,363.636363636363,4,1,4,70,1,0
52744,-125,4,1,4,70,0,0
53653,-125,4,1,4,70,0,0
54198,368.098159509202,4,1,4,70,1,0
54198,-125,4,1,4,70,0,0
54934,-125,4,1,4,70,0,0
55486,-125,4,1,4,70,0,0
55670,357.142857142857,4,1,4,70,1,0
55670,-125,4,1,4,70,0,0
56027,384.615384615384,4,1,4,70,1,0
56027,-121.580547112462,4,1,4,70,0,0
56411,365.853658536585,4,1,4,70,1,0
56639,-100,4,1,4,75,0,0
56776,344.827586206897,4,1,4,75,1,0
56948,402.684563758389,4,1,4,75,1,0
56948,-125,4,1,4,70,0,0
57151,355.029585798816,4,1,4,75,1,0
57506,372.670807453416,4,1,4,75,1,0
57878,366.97247706422,4,1,4,75,1,0
58244,-100,4,1,4,80,0,0
58428,-100,4,1,4,85,0,0
58611,368.098159509202,4,1,4,90,1,0
58611,-100,4,1,4,90,0,1
59025,-100,4,1,5,100,0,1
59715,-100,4,1,5,95,0,1
59899,-100,4,1,5,95,0,1
60083,363.636363636364,4,1,5,95,1,1
60628,-100,4,1,5,95,0,1
61541,359.281437125748,4,1,5,95,1,1
62618,338.983050847458,4,1,5,90,1,1
62787,382.165605095541,4,1,5,90,1,1
62787,-93.4579439252336,4,1,5,90,0,1
62978,335.195530726257,4,1,5,90,1,1
63313,384.615384615385,4,1,5,90,1,1
64082,365.853658536585,4,1,5,90,1,1
64082,-90.9090909090909,4,1,5,90,0,1
64447,368.098159509202,4,1,5,90,1,1
64447,-90.9090909090909,4,1,5,90,0,1
64815,-90.9090909090909,4,1,5,95,0,1
65922,365.853658536585,4,1,5,95,1,1
66653,-90.9090909090909,4,1,5,95,0,1
67385,352.941176470588,4,1,5,95,1,1
67385,-99.009900990099,4,1,5,95,0,1
67737,368.098159509202,4,1,5,95,1,1
68841,363.636363636363,4,1,2,95,1,1
69568,-90.9090909090909,4,1,2,95,0,1
69749,-90.9090909090909,4,1,3,95,0,1
70296,359.281437125748,4,1,5,100,1,1
71014,377.358490566037,4,1,5,100,1,1
71391,-100,4,1,5,95,0,1
71580,-100,4,1,5,95,0,1
71768,352.941176470588,4,1,5,95,1,1
71944,-100,4,1,5,95,0,1
72473,375,4,1,5,95,1,1
73035,-97.0873786407767,4,1,5,95,0,1
73223,357.142857142857,4,1,5,95,1,1
73937,369.79969183359,4,1,5,90,1,1
74491,-100,4,1,3,100,0,1
75970,-100,4,1,5,95,0,1
76157,365.853658536585,4,1,5,100,1,1
76888,-100,4,1,5,100,0,1
77253,-100,4,1,5,95,0,1
77437,-98.5221674876847,4,1,5,95,0,1
77620,357.142857142857,4,1,5,95,1,1
77798,-100,4,1,5,100,0,1
77977,365.853658536585,4,1,5,100,1,1
78342,-100,4,1,5,90,0,1
79076,359.281437125748,4,1,5,100,1,1
79420,368.098159509202,4,1,5,100,1,1
79788,357.142857142857,4,1,5,100,1,1
80413,-100,4,1,5,100,0,0
80502,348.837209302325,4,1,5,100,1,0
81199,363.636363636363,4,1,5,100,1,0
81743,-100,4,1,5,80,0,0
81924,377.358490566037,4,1,3,100,1,0
82678,370.37037037037,4,1,2,90,1,0
83418,370.37037037037,4,1,2,85,1,0
84343,-100,4,1,3,90,0,0
84714,-100,4,1,2,95,0,0
84899,379.746835443037,4,1,3,100,1,0
84899,-133.333333333333,4,1,3,100,0,0
85658,363.636363636363,4,1,3,100,1,0
86021,-100,4,1,3,90,0,0
86567,-100,4,1,3,85,0,0
87293,-100,4,1,3,90,0,0
87839,373.831775700934,4,1,3,100,1,0
88212,364.188163884673,4,1,3,100,1,0
88940,-100,4,1,2,90,0,0
89850,-100,4,1,3,85,0,0
90396,-100,4,1,3,90,0,0
90761,357.142857142857,4,1,2,95,1,0
91118,365.853658536585,4,1,3,100,1,0
92947,-147.058823529412,4,1,3,100,0,0
93313,377.358490566037,4,1,2,60,1,0
93692,370.37037037037,4,1,2,60,1,0
94062,359.281437125748,4,1,4,75,1,0
94960,388.349514563106,4,1,4,75,1,0
95348,365.853658536585,4,1,4,75,1,0
98091,365.853658536585,4,1,4,75,1,0
98822,372.670807453416,4,1,4,75,1,0
99194,389.610389610389,4,1,4,65,1,0
99583,352.941176470588,4,1,4,75,1,0
99583,-100,4,1,4,75,0,0
99935,379.746835443037,4,1,4,75,1,0
100314,357.142857142857,4,1,4,75,1,0
101028,370.37037037037,4,1,4,75,1,0
102509,364.741641337386,4,1,4,75,1,0
102873,378.548895899053,4,1,4,85,1,0
103251,355.029585798816,4,1,4,75,1,0
103783,375,4,1,4,75,1,0
104720,359.281437125748,4,1,4,70,1,0
105079,320.855614973262,4,1,4,70,1,0
105079,-100.502512562814,4,1,4,70,0,0
105239,405.405405405405,4,1,4,65,1,0
105442,365.853658536585,4,1,4,65,1,0
105807,-100,4,1,4,60,0,0
106172,-100,4,1,4,75,0,0
109832,370.37037037037,4,1,4,75,1,0
111313,361.44578313253,4,1,4,75,1,0
112758,365.853658536585,4,1,4,75,1,0
114587,-100,4,1,4,85,0,0
115684,361.44578313253,4,1,4,85,1,0
116045,-100,4,1,4,75,0,0
116587,-100,4,1,4,80,0,0
116768,-100,4,1,4,85,0,0
116948,-100,4,1,5,90,0,0
117129,363.636363636364,4,1,3,95,1,0
117219,-100,4,1,3,95,0,1
117492,-100,4,1,5,100,0,1
118219,-100,4,1,5,95,0,1
118584,368.098159509202,4,1,5,95,1,1
120056,363.636363636364,4,1,5,95,1,1
120783,-100,4,1,5,90,0,1
121147,329.670329670329,4,1,5,90,1,1
121311,350.877192982456,4,1,5,90,1,1
121837,392.156862745098,4,1,5,90,1,1
121886,-100,4,1,2,90,0,1
122621,368.098159509202,4,1,3,95,1,1
122990,366.97247706422,4,1,5,95,1,1
125741,-100,4,1,2,95,0,1
125925,355.029585798816,4,1,2,100,1,1
126280,-100,4,1,3,100,0,1
126457,-100,4,1,2,100,0,1
126635,372.670807453416,4,1,2,100,1,1
127007,-100,4,1,3,100,0,1
127194,-100,4,1,5,100,0,1
127380,358.208955223881,4,1,2,100,1,1
128275,-100,4,1,3,100,0,1
128454,379.746835443037,4,1,3,100,1,1
128833,368.098159509202,4,1,5,95,1,1
129201,-100,4,1,5,100,0,1
129937,-100,4,1,5,95,0,1
130307,361.44578313253,4,1,5,95,1,1
131752,368.098159509202,4,1,5,95,1,1
132304,-100,4,1,5,90,0,1
132856,333.333333333333,4,1,3,100,1,1
133022,364.741641337386,4,1,3,100,1,1
133933,370.37037037037,4,1,3,100,1,1
134684,363.636363636363,4,1,5,100,1,1
135411,-100,4,1,5,95,0,1
136138,368.098159509202,4,1,5,95,1,1
136690,-100,4,1,5,90,0,1
137610,-100,4,1,5,100,0,1
138990,-100,4,1,5,100,0,0
139082,382.165605095541,4,1,5,100,1,0
139464,352.941176470588,4,1,5,100,1,0
139640,-83.3333333333333,4,1,5,100,0,0
140532,361.44578313253,4,1,6,100,1,0
140893,-83.3333333333333,4,1,6,100,0,0
141977,365.853658536585,4,1,6,100,1,0
142708,-83.3333333333333,4,1,6,100,0,0
143440,361.44578313253,4,1,6,100,1,0
143620,-83.3333333333333,4,1,6,100,0,0
146331,370.37037037037,4,1,6,100,1,0
146331,-83.3333333333333,4,1,6,100,0,0
146701,-83.3333333333333,4,1,6,100,0,0
147442,359.281437125748,4,1,6,100,1,0
147801,365.853658536585,4,1,6,100,1,0
147801,-83.3333333333333,4,1,6,100,0,0
148166,-83.3333333333333,4,1,6,100,0,0
150727,361.44578313253,4,1,6,100,1,0
151088,-83.3333333333333,4,1,6,100,0,0
152181,379.746835443038,4,1,6,100,1,0
152181,-83.3333333333333,4,1,6,100,0,0
152940,361.44578313253,4,1,6,100,1,0
153301,-83.3333333333333,4,1,6,100,0,0
153662,355.029585798816,4,1,6,100,1,0
154372,-83.3333333333333,4,1,6,100,0,0
154727,352.941176470588,4,1,6,100,1,0
154727,-83.3333333333333,4,1,6,100,0,0
155079,365.853658536585,4,1,6,100,1,0
155444,-83.3333333333333,4,1,6,100,0,0
156552,375,4,1,6,100,1,0
156552,-100,4,1,2,100,0,0
156739,-100,4,1,2,100,0,0
158052,363.636363636363,4,1,6,100,1,0
158052,-83.3333333333333,4,1,6,100,0,0
158779,-83.3333333333333,4,1,6,100,0,0
159506,352.941176470588,4,1,6,100,1,0
159858,365.853658536585,4,1,6,100,1,0
160223,-83.3333333333333,4,1,6,100,0,0
160589,384.615384615385,4,1,6,100,1,0
160589,-83.3333333333333,4,1,6,100,0,0
160973,361.44578313253,4,1,6,100,1,0
160973,-83.3333333333333,4,1,6,100,0,0
163506,374.999999999999,4,1,6,100,1,0
163881,387.096774193548,4,1,5,100,1,1
164655,368.098159509202,4,1,5,100,1,1
165207,-90.9090909090909,4,1,5,100,0,1
165391,-90.9090909090909,4,1,5,95,0,1
166127,365.853658536585,4,1,5,95,1,1
166127,-90.9090909090909,4,1,5,95,0,1
167956,-100,4,1,3,90,0,1
168139,-90.9090909090909,4,1,2,90,0,1
168504,-90.9090909090909,4,1,3,90,0,1
168869,-90.9090909090909,4,1,2,95,0,1
169236,-90.9090909090909,4,1,3,95,0,1
169785,377.358490566037,4,1,5,100,1,1
170209,-100,4,1,3,95,0,1
170351,-100,4,1,5,95,0,1
170539,-90.9090909090909,4,1,5,95,0,1
170917,365.853658536585,4,1,5,95,1,1
171282,-90.9090909090909,4,1,5,95,0,1
172746,368.098159509202,4,1,3,100,1,1
172746,-90.9090909090909,4,1,5,95,0,1
173160,-100,4,1,2,100,0,1
173482,-90.9090909090909,4,1,2,100,0,1
173850,-90.9090909090909,4,1,3,100,0,1
174034,-90.9090909090909,4,1,2,100,0,1
174218,357.142857142857,4,1,2,100,1,1
174396,-90.9090909090909,4,1,2,100,0,1
174753,-90.9090909090909,4,1,6,100,0,1
175658,389.610389610389,4,1,5,100,1,1
175658,-90.9090909090909,4,1,5,95,0,1
176047,372.670807453415,4,1,5,100,1,1
176419,363.636363636363,4,1,5,95,1,1
176964,-90.9090909090909,4,1,5,95,0,1
177146,363.636363636363,4,1,5,95,1,1
177327,-90.9090909090909,4,1,5,95,0,1
178600,361.445783132529,4,1,5,95,1,1
178961,-100,4,1,5,90,0,1
179322,-100,4,1,5,95,0,1
179865,-90.9090909090909,4,1,3,95,0,1
180949,-90.9090909090909,4,1,2,95,0,1
181130,372.670807453415,4,1,5,100,1,1
181502,384.615384615383,4,1,5,100,1,1
181502,-90.9090909090909,4,1,5,95,0,1
181886,370.370370370369,4,1,5,100,1,1
182256,-90.9090909090909,4,1,5,95,0,1
182626,-90.9090909090909,4,1,5,100,0,1
182997,368.098159509201,4,1,5,100,1,1
183181,-100,4,1,5,90,0,1
183917,-100,4,1,5,100,0,1
184469,363.636363636362,4,1,5,100,1,1
184832,-90.9090909090909,4,1,5,100,0,1
185832,-90.9090909090909,4,1,5,100,0,0
185923,357.142857142857,4,1,5,100,1,0
186637,370.37037037037,4,1,5,100,1,0
187377,363.636363636364,4,1,7,70,1,0
187740,-125,4,1,7,70,0,0
188286,-125,4,1,7,80,0,0
189013,-125,4,1,7,70,0,0
189921,-125,4,1,7,80,0,0
190287,365.853658536584,4,1,7,70,1,0
191201,-125,4,1,7,80,0,0
191383,-125,4,1,7,75,0,0
191750,370.370370370369,4,1,7,85,1,0
192490,-125,4,1,7,85,0,0
192952,-125,4,1,7,75,0,0
193231,365.853658536584,4,1,7,90,1,0
193916,-100,4,1,7,80,0,0
194145,-125,4,1,7,90,0,0
194693,-125,4,1,7,85,0,0
195060,-125,4,1,7,80,0,0
195243,-125,4,1,7,90,0,0
195426,-125,4,1,7,85,0,0
195608,-125,4,1,7,80,0,0
195791,-125,4,1,7,75,0,0
196157,-125,4,1,7,70,0,0
196340,-125,4,1,7,75,0,0
196888,-125,4,1,7,80,0,0
197986,-125,4,1,7,90,0,0
198170,-125,4,1,7,75,0,0
198534,-125,4,1,7,70,0,0
198900,-125,4,1,7,90,0,0
199084,363.636363636362,4,1,7,85,1,0
199720,-100,4,1,7,75,0,0
199811,-125,4,1,7,75,0,0
199992,-125,4,1,7,70,0,0
201265,-125,4,1,7,80,0,0
201993,361.445783132529,4,1,7,85,1,0
202354,-100,4,1,7,75,0,0
202535,-100,4,1,7,90,0,0
202715,-100,4,1,7,80,0,0
202896,-100,4,1,7,95,0,0
203077,370.370370370369,4,1,7,85,1,0

[Colours]
Combo1 : 251,231,151
Combo2 : 250,177,69
Combo3 : 248,217,41
Combo4 : 249,146,53
Combo5 : 242,249,162
Combo6 : 219,249,164

[HitObjects]
450,300,63,6,0,P|386:282|333:275,1,104,0|0,0:0|0:0,0:0:0:0:
329,200,615,1,0,0:0:0:0:
318,122,799,2,0,B|370:108|370:108|396:161,1,104,0|0,0:0|0:0,0:0:0:0:
329,200,1346,6,0,P|297:213|284:232,1,52,0|0,0:0|0:0,0:0:0:0:
210,209,1710,2,0,P|205:243|216:264,1,52,0|0,0:0|0:0,0:0:0:0:
153,311,2075,1,0,0:0:0:0:
209,365,2257,6,0,B|235:355|235:355|225:328,1,52,0|0,0:0|0:0,0:0:0:0:
153,311,2622,1,0,0:0:0:0:
86,352,2805,1,0,0:0:0:0:
34,293,2987,6,0,P|27:231|12:173,1,104,0|0,0:0|0:0,0:0:0:0:
68,130,3556,1,0,0:0:0:0:
4,84,3746,2,0,B|26:38|26:38|78:52,1,104,0|0,0:0|0:0,0:0:0:0:
68,130,4289,6,0,L|121:123,1,52,0|0,0:0|0:0,0:0:0:0:
175,68,4652,2,0,L|228:61,1,52,0|0,0:0|0:0,0:0:0:0:
300,86,5014,1,0,0:0:0:0:
354,30,5196,6,0,B|344:3|344:3|317:13,1,52,0|0,0:0|0:0,0:0:0:0:
300,86,5558,1,0,0:0:0:0:
338,153,5739,1,0,0:0:0:0:
413,133,5921,6,0,P|470:142|475:188,1,104,0|0,0:0|0:0,0:0:0:0:
438,248,6476,1,0,0:0:0:0:
436,326,6661,2,0,B|488:335|488:335|509:279,1,104,0|0,0:0|0:0,0:0:0:0:
438,248,7209,6,0,P|403:250|385:265,1,52,0|0,0:0|0:0,0:0:0:0:
327,306,7575,2,0,P|292:303|274:288,1,52,0|0,0:0|0:0,0:0:0:0:
229,232,7941,1,0,0:0:0:0:
291,185,8124,6,0,B|314:192|314:192|307:218,1,52,0|0,0:0|0:0,0:0:0:0:
229,232,8490,1,0,0:0:0:0:
213,155,8673,1,0,0:0:0:0:
276,109,8856,6,0,P|286:58|307:2,1,104,0|0,0:0|0:0,0:0:0:0:
304,9,9587,2,0,B|252:22|252:22|270:69,1,104,0|0,0:0|0:0,0:0:0:0:
361,76,10136,6,0,P|372:99|374:132,1,50.5786666666667,0|0,0:0|0:0,0:0:0:0:
326,187,10498,1,0,0:0:0:0:
326,187,10683,2,0,P|325:212|337:243,1,52,0|0,0:0|0:0,0:0:0:0:
409,254,11053,5,0,0:0:0:0:
421,330,11238,1,0,0:0:0:0:
346,362,11424,1,0,0:0:0:0:
294,303,11587,1,0,0:0:0:0:
224,334,11776,6,0,B|145:327|193:290|113:285,1,116.999996429443,0|0,0:0|0:0,0:0:0:0:
122,285,12514,2,0,B|156:286|172:255|172:255|203:235|237:251,1,117,0|0,0:0|0:0,0:0:0:0:
301,277,13063,1,0,0:0:0:0:
381,260,13246,6,0,B|403:265|403:265|422:305|422:305|455:315,2,87.7500000000001,0|0|0,0:0|0:0|0:0,0:0:0:0:
324,200,13978,2,0,L|318:129,1,58.5000000000001,0|0,0:0|0:0,0:0:0:0:
241,169,14344,2,0,L|235:98,1,58.5000000000001,0|0,0:0|0:0,0:0:0:0:
171,59,14709,6,0,B|129:84|129:84|149:150,1,116.999996429443,0|0,0:0|0:0,0:0:0:0:
148,149,15430,1,0,0:0:0:0:
71,178,15614,2,0,P|41:163|29:134,2,58.5000000000001,0|0|0,0:0|0:0|0:0,0:0:0:0:
229,225,16348,5,0,0:0:0:0:
313,260,16529,1,0,0:0:0:0:
313,260,16619,1,0,0:0:0:0:
313,260,16710,1,0,0:0:0:0:
387,219,16890,2,0,P|401:193|432:177,2,58.5000000000001,0|0|0,0:0|0:0|0:0,0:0:0:0:
432,288,17433,1,0,0:0:0:0:
359,327,17613,6,0,B|315:335|315:335|297:366|297:366|248:379,1,117,0|0,0:0|0:0,0:0:0:0:
48,279,18344,6,0,P|66:301|94:304,1,58.5000000000001,0|0,0:0|0:0,0:0:0:0:
169,269,18710,1,0,0:0:0:0:
102,220,18893,2,0,P|92:158|90:102,1,117,0|0,0:0|0:0,0:0:0:0:
23,55,19442,2,0,P|36:20|59:9,1,58.5000000000001,0|0,0:0|0:0,0:0:0:0:
131,37,19808,5,0,0:0:0:0:
209,12,19991,1,0,0:0:0:0:
281,49,20173,2,0,P|288:76|278:103,1,58.5000000000001,0|0,0:0|0:0,0:0:0:0:
277,103,20728,5,0,0:0:0:0:
208,147,20912,2,0,P|196:181|207:207,1,58.4999982147217,0|0,0:0|0:0,0:0:0:0:
280,180,21280,1,0,0:0:0:0:
291,257,21464,2,0,P|326:249|343:227,1,58.4999982147217,0|0,0:0|0:0,0:0:0:0:
433,251,21832,5,0,0:0:0:0:
433,251,22200,2,0,P|432:217|408:197,1,58.5000000000001,0|0,0:0|0:0,0:0:0:0:
336,177,22568,1,0,0:0:0:0:
307,100,22752,2,0,P|316:72|341:59,1,58.5000000000001,0|0,0:0|0:0,0:0:0:0:
242,155,23120,2,0,P|223:133|224:104,1,58.5000000000001,0|0,0:0|0:0,0:0:0:0:
155,63,23488,6,0,B|78:55|129:17|38:11,1,117,0|0,0:0|0:0,0:0:0:0:
54,12,24219,2,0,P|69:72|77:143,1,117,0|0,0:0|0:0,0:0:0:0:
60,290,24951,6,0,B|40:302|40:302|3:284|3:284|1:254,2,87.7500000000001,0|0|0,0:0|0:0|0:0,0:0:0:0:
70,208,25665,2,0,P|125:217|147:269,1,117,0|0,0:0|0:0,0:0:0:0:
289,357,26408,6,0,P|342:341|358:287,1,116.999996429443,0|0,0:0|0:0,0:0:0:0:
480,176,27137,2,0,P|482:141|498:46,1,117,0|0,0:0|0:0,0:0:0:0:
430,18,27671,1,0,0:0:0:0:
242,3,28034,5,0,0:0:0:0:
268,77,28219,1,0,0:0:0:0:
206,124,28413,1,0,0:0:0:0:
142,80,28608,2,0,P|168:135|163:196,1,117.311996429443,0|0,0:0|0:0,0:0:0:0:
164,189,29331,6,0,B|206:201|206:201|221:234|221:234|269:250,1,117,0|0,0:0|0:0,0:0:0:0:
406,368,30062,6,0,P|381:346|380:320,1,58.5000000000001,0|0,0:0|0:0,0:0:0:0:
461,309,30428,1,0,0:0:0:0:
403,241,30611,2,0,P|416:172|434:111,1,117,0|0,0:0|0:0,0:0:0:0:
432,50,31160,2,0,P|403:49|379:65,1,58.5000000000001,0|0,0:0|0:0,0:0:0:0:
307,23,31526,5,0,0:0:0:0:
266,96,31709,1,0,0:0:0:0:
333,138,31891,2,0,P|345:162|341:191,1,58.5000000000001,0|0,0:0|0:0,0:0:0:0:
340,192,32432,5,0,0:0:0:0:
365,266,32607,2,0,P|372:293|353:327,1,58.4999982147217,0|0,0:0|0:0,0:0:0:0:
290,288,32975,1,0,0:0:0:0:
215,313,33159,2,0,P|207:285|226:251,1,58.4999982147217,0|0,0:0|0:0,0:0:0:0:
290,288,33529,6,0,B|250:268|186:282|227:320|160:348|108:318,1,175.5,0|0,0:0|0:0,0:0:0:0:
131,327,34461,5,0,0:0:0:0:
85,258,34643,1,0,0:0:0:0:
159,224,34826,1,0,0:0:0:0:
162,144,35009,1,0,0:0:0:0:
85,117,35192,5,0,0:0:0:0:
85,117,35553,6,0,L|206:103,1,104,0|0,0:0|0:0,0:0:0:0:
187,105,36276,1,0,0:0:0:0:
235,159,36457,6,0,B|300:170|274:123|343:137,2,105.3,0|0|0,0:0|0:0|0:0,0:0:0:0:
235,159,37544,2,0,L|224:214,1,52,0|0,0:0|0:0,0:0:0:0:
288,250,37907,6,0,P|236:247|191:274,1,102.700002507324,0|0,0:0|0:0,0:0:0:0:
211,348,38465,2,0,P|262:350|307:324,1,104,0|0,0:0|0:0,0:0:0:0:
365,272,39019,2,0,P|396:268|425:285,1,65,0|0,0:0|0:0,0:0:0:0:
440,380,39387,5,0,0:0:0:0:
433,366,41043,6,0,P|443:313|466:255,1,104,0|0,0:0|0:0,0:0:0:0:
509,208,41584,1,0,0:0:0:0:
465,139,41767,1,0,0:0:0:0:
391,169,41950,6,0,B|353:176|353:176|339:196|339:196|284:207,2,104,0|0|0,0:0|0:0|0:0,0:0:0:0:
436,105,42860,2,0,P|455:90|489:75,1,52,0|0,0:0|0:0,0:0:0:0:
358,91,43228,6,0,B|292:90|327:51|251:55,1,104,0|0,0:0|0:0,0:0:0:0:
199,98,43780,1,0,0:0:0:0:
130,60,43964,1,0,0:0:0:0:
130,60,44332,6,0,P|98:105|98:125,1,65,0|0,0:0|0:0,0:0:0:0:
24,129,44697,1,0,0:0:0:0:
24,129,44880,2,0,P|33:159|56:181,1,65,0|0,0:0|0:0,0:0:0:0:
125,220,45246,6,0,B|151:216|169:240|169:240|167:277|204:296,1,104,0|0,0:0|0:0,0:0:0:0:
247,233,45795,2,0,L|311:248,1,52,0|0,0:0|0:0,0:0:0:0:
299,334,46161,2,0,B|367:330|324:290|413:290,1,104,0|0,0:0|0:0,0:0:0:0:
465,263,46710,6,0,L|509:279,2,26,0|0|0,0:0|0:0|0:0,0:0:0:0:
444,75,47259,6,0,P|492:83|512:128,2,104.17875,0|0|0,0:0|0:0|0:0,0:0:0:0:
373,106,48146,2,0,P|367:138|385:169,1,52,0|0,0:0|0:0,0:0:0:0:
317,209,48514,2,0,P|341:230|377:230,1,52,0|0,0:0|0:0,0:0:0:0:
364,309,48882,2,0,B|256:323,1,104,0|0,0:0|0:0,0:0:0:0:
197,361,49434,1,0,0:0:0:0:
105,330,49618,2,0,L|43:315,1,52,0|0,0:0|0:0,0:0:0:0:
55,318,50174,6,0,P|56:273|117:254,1,104,0|0,0:0|0:0,0:0:0:0:
201,141,50894,1,0,0:0:0:0:
201,141,51070,2,0,L|185:31,2,105.0075,0|0|0,0:0|0:0|0:0,0:0:0:0:
252,196,52025,1,0,0:0:0:0:
292,78,52564,5,0,0:0:0:0:
292,78,52744,2,0,P|346:66|351:5,1,104,0|0,0:0|0:0,0:0:0:0:
358,24,53471,2,0,B|398:16|398:16|442:50,2,78,0|0|0,0:0|0:0|0:0,0:0:0:0:
358,24,54382,2,0,L|374:131,1,104,0|0,0:0|0:0,0:0:0:0:
443,188,54934,6,0,P|429:236|382:249,1,104,0|0,0:0|0:0,0:0:0:0:
324,307,55486,1,0,0:0:0:0:
251,271,55670,1,0,0:0:0:0:
251,271,56027,6,0,P|259:219|311:60,1,208,0|0,0:0|0:0,0:0:0:0:
367,148,56948,2,0,B|236:101|272:208|175:181,1,208,0|0,0:0|0:0,0:0:0:0:
226,68,57878,5,0,0:0:0:0:
273,129,58061,1,0,0:0:0:0:
300,201,58244,1,0,0:0:0:0:
280,276,58428,1,0,0:0:0:0:
210,310,58611,6,0,P|274:318|337:334,2,130,0|0|0,0:0|0:0|0:0,0:0:0:0:
144,351,59531,1,0,0:0:0:0:
69,326,59715,1,0,0:0:0:0:
86,250,59899,6,0,L|102:179,1,65,0|0,0:0|0:0,0:0:0:0:
25,166,60264,2,0,P|-1:134|8:93,1,65,0|0,0:0|0:0,0:0:0:0:
77,107,60628,2,0,L|154:90,1,65,0|0,0:0|0:0,0:0:0:0:
217,119,60992,2,0,P|227:85|213:53,1,65,0|0,0:0|0:0,0:0:0:0:
192,206,61355,6,0,B|227:190|235:156|235:156|382:127,1,195,0|0,0:0|0:0,0:0:0:0:
359,132,62259,1,0,0:0:0:0:
397,8,62618,5,0,0:0:0:0:
397,8,62787,2,0,B|367:81|356:143,1,130,0|0,0:0|0:0,0:0:0:0:
385,208,63313,2,0,B|413:207|431:170|431:170|462:167|490:200,2,130,0|0|0,0:0|0:0|0:0,0:0:0:0:
448,266,64264,1,0,0:0:0:0:
393,322,64447,6,0,B|342:308|342:308|312:329|312:329|244:313,1,143.000004364014,0|0,0:0|0:0,0:0:0:0:
190,352,64999,1,0,0:0:0:0:
120,315,65183,2,0,B|99:284|99:284|116:253,2,71.5000021820069,0|0|0,0:0|0:0|0:0,0:0:0:0:
192,275,65735,1,0,0:0:0:0:
204,202,65922,6,0,B|213:163|213:163|208:141|208:141|227:55,1,130,0|0,0:0|0:0,0:0:0:0:
300,43,66470,1,0,0:0:0:0:
300,43,66562,1,0,0:0:0:0:
300,43,66653,2,0,P|334:65|342:100,1,71.5,0|0,0:0|0:0,0:0:0:0:
291,154,67019,1,0,0:0:0:0:
291,154,67202,1,0,0:0:0:0:
351,206,67385,6,0,P|229:185|67:168,1,267.799997752533,0|0,0:0|0:0,0:0:0:0:
85,169,68657,6,0,P|117:131|149:133,1,65.1430021820069,0|0,0:0|0:0,0:0:0:0:
198,84,69022,1,0,0:0:0:0:
198,84,69113,1,0,0:0:0:0:
198,84,69204,2,0,P|246:92|260:121,1,65,0|0,0:0|0:0,0:0:0:0:
261,184,69568,6,0,P|309:190|332:167,1,71.5,0|0,0:0|0:0,0:0:0:0:
399,167,69931,2,0,P|423:142|425:108,1,71.5,0|0,0:0|0:0,0:0:0:0:
498,75,70296,6,0,B|466:63|431:79|431:79|414:53|366:41,2,130,0|0|0,0:0|0:0|0:0,0:0:0:0:
487,165,71202,2,0,L|495:239,1,65,0|0,0:0|0:0,0:0:0:0:
431,295,71580,6,0,P|409:314|355:306,1,65,0|0,0:0|0:0,0:0:0:0:
312,272,71944,2,0,L|298:191,1,65,0|0,0:0|0:0,0:0:0:0:
250,148,72297,2,0,P|221:125|172:134,1,65,0|0,0:0|0:0,0:0:0:0:
126,168,72660,2,0,L|114:231,1,65,0|0,0:0|0:0,0:0:0:0:
35,254,73035,6,0,B|55:218|55:218|168:204|168:204|197:236,1,195,0|0,0:0|0:0,0:0:0:0:
194,233,73937,1,0,0:0:0:0:
25,208,74306,5,0,0:0:0:0:
25,208,74491,2,0,P|24:151|100:128,1,130,0|0,0:0|0:0,0:0:0:0:
83,122,75231,6,0,P|114:129|145:138,1,65,0|0,0:0|0:0,0:0:0:0:
214,99,75601,1,0,0:0:0:0:
288,121,75785,1,0,0:0:0:0:
305,197,75970,1,0,0:0:0:0:
249,252,76157,6,0,P|314:247|332:321,1,130,0|0,0:0|0:0,0:0:0:0:
388,358,76705,1,0,0:0:0:0:
428,291,76888,2,0,L|462:149,1,130,0|0,0:0|0:0,0:0:0:0:
416,96,77437,2,0,B|321:91|379:45|275:40,1,130,0|0,0:0|0:0,0:0:0:0:
302,42,78159,5,0,0:0:0:0:
316,119,78342,1,0,0:0:0:0:
243,92,78525,1,0,0:0:0:0:
71,25,79076,5,0,0:0:0:0:
105,96,79255,1,0,0:0:0:0:
60,161,79420,2,0,P|53:198|80:230,1,65,0|0,0:0|0:0,0:0:0:0:
186,259,79788,5,0,0:0:0:0:
197,182,79966,2,0,P|165:176|138:193,1,65,0|0,0:0|0:0,0:0:0:0:
109,297,80323,1,0,0:0:0:0:
261,174,81924,6,0,P|293:170|345:215,1,97.5,0|0,0:0|0:0,0:0:0:0:
391,265,82490,1,0,0:0:0:0:
426,193,82678,2,0,P|432:150|366:90,1,130,0|0,0:0|0:0,0:0:0:0:
376,91,83233,1,0,0:0:0:0:
323,19,83418,6,0,L|248:36,1,65,0|0,0:0|0:0,0:0:0:0:
216,101,83788,2,0,L|141:118,1,65,0|0,0:0|0:0,0:0:0:0:
74,68,84158,1,0,0:0:0:0:
40,152,84343,1,0,0:0:0:0:
103,217,84529,2,0,L|178:200,1,65,0|0,0:0|0:0,0:0:0:0:
257,256,84899,6,0,B|249:280|249:280|210:295|210:295|191:279,2,97.5,0|0|0,0:0|0:0|0:0,0:0:0:0:
420,214,86021,1,0,0:0:0:0:
474,279,86203,1,0,0:0:0:0:
431,351,86385,1,0,0:0:0:0:
375,287,86567,6,0,P|339:237|341:154,1,130,0|0,0:0|0:0,0:0:0:0:
288,100,87112,2,0,P|319:75|353:72,1,65,0|0,0:0|0:0,0:0:0:0:
415,114,87476,1,0,0:0:0:0:
240,182,87839,6,0,B|152:159|152:159|142:135|114:128,2,128.26125,0|0|0,0:0|0:0|0:0,0:0:0:0:
204,347,88940,1,0,0:0:0:0:
129,370,89122,1,0,0:0:0:0:
63,328,89304,1,0,0:0:0:0:
57,250,89486,6,0,P|60:184|19:111,1,130,0|0,0:0|0:0,0:0:0:0:
62,53,90032,2,0,B|113:12|113:12|192:29,2,130.178479166667,0|0|0,0:0|0:0|0:0,0:0:0:0:
133,191,91118,6,0,L|204:206,1,65,0|0,0:0|0:0,0:0:0:0:
283,173,91483,1,0,0:0:0:0:
370,150,91666,1,0,0:0:0:0:
436,213,91849,1,0,0:0:0:0:
503,143,92032,5,0,0:0:0:0:
452,369,92947,2,0,P|421:338|366:349,2,90.1116638895672,0|0|0,0:0|0:0|0:0,0:0:0:0:
321,216,94062,6,0,P|271:220|231:285,1,130,0|0,0:0|0:0,0:0:0:0:
78,255,94780,1,0,0:0:0:0:
111,171,94960,2,0,P|146:172|175:197,1,65,0|0,0:0|0:0,0:0:0:0:
247,142,95348,2,0,P|263:172|256:210,1,65,0|0,0:0|0:0,0:0:0:0:
232,284,95713,1,0,0:0:0:0:
149,342,95896,6,0,B|75:329|105:382|27:366,1,130,0|0,0:0|0:0,0:0:0:0:
5,284,96445,1,0,0:0:0:0:
30,203,96628,2,0,P|37:150|51:114,1,65,0|0,0:0|0:0,0:0:0:0:
99,77,96994,2,0,P|124:49|122:8,2,65,0|0|0,0:0|0:0|0:0,0:0:0:0:
163,132,97543,1,0,0:0:0:0:
242,105,97726,1,0,0:0:0:0:
251,20,97908,5,0,0:0:0:0:
251,20,98822,2,0,P|280:24|303:41,2,48.75,0|0|0,0:0|0:0|0:0,0:0:0:0:
310,179,99583,6,0,P|334:139|322:107,1,65,0|0,0:0|0:0,0:0:0:0:
249,100,99935,2,0,P|225:140|237:172,1,65,0|0,0:0|0:0,0:0:0:0:
245,238,100314,1,0,0:0:0:0:
310,291,100492,2,0,P|373:292|396:231,1,130,0|0,0:0|0:0,0:0:0:0:
433,72,101213,1,0,0:0:0:0:
433,72,101398,6,0,P|440:112|452:147,1,65,0|0,0:0|0:0,0:0:0:0:
367,163,101768,2,0,P|313:159|305:79,2,130.1755,0|0|0,0:0|0:0|0:0,0:0:0:0:
323,10,102873,6,0,P|276:60|194:65,1,130,0|0,0:0|0:0,0:0:0:0:
140,36,103428,1,0,0:0:0:0:
140,36,103606,2,0,P|108:58|93:86,1,65,0|0,0:0|0:0,0:0:0:0:
142,199,104158,1,0,0:0:0:0:
142,199,104345,2,0,P|82:183|36:252,1,130,0|0,0:0|0:0,0:0:0:0:
69,305,104899,1,0,0:0:0:0:
147,336,105079,2,0,P|174:310|163:274,2,73.125,0|0|0,0:0|0:0|0:0,0:0:0:0:
315,344,105807,6,0,B|359:332|359:332|376:295|376:295|423:283,2,130,0|0|0,0:0|0:0|0:0,0:0:0:0:
252,286,106722,2,0,P|263:254|307:226,1,65,0|0,0:0|0:0,0:0:0:0:
226,172,107088,2,0,P|251:149|303:147,1,65,0|0,0:0|0:0,0:0:0:0:
360,175,107454,1,0,0:0:0:0:
437,142,107637,2,0,P|456:108|427:87,2,65,0|0|0,0:0|0:0|0:0,0:0:0:0:
360,175,108185,1,0,0:0:0:0:
346,91,108368,6,0,P|327:46|235:49,1,130,0|0,0:0|0:0,0:0:0:0:
185,86,108917,1,0,0:0:0:0:
185,86,109100,2,0,L|103:72,1,65,0|0,0:0|0:0,0:0:0:0:
49,121,109466,1,0,0:0:0:0:
67,203,109649,2,0,L|94:337,1,131.066,0|0,0:0|0:0,0:0:0:0:
172,298,110202,5,0,0:0:0:0:
232,356,110387,1,0,0:0:0:0:
309,321,110572,1,0,0:0:0:0:
304,236,110757,2,0,P|263:227|239:243,1,65,0|0,0:0|0:0,0:0:0:0:
244,237,111128,1,0,0:0:0:0:
309,321,111313,6,0,P|378:323|428:376,2,130,0|0|0,0:0|0:0|0:0,0:0:0:0:
309,321,112216,1,0,0:0:0:0:
440,214,112578,2,0,P|410:194|416:162,1,65,0|0,0:0|0:0,0:0:0:0:
491,149,112940,1,0,0:0:0:0:
406,38,113123,2,0,P|436:58|430:90,1,65,0|0,0:0|0:0,0:0:0:0:
329,156,113489,5,0,0:0:0:0:
245,168,113672,1,0,0:0:0:0:
185,108,113855,2,0,B|175:72|175:72|209:38,1,65,0|0,0:0|0:0,0:0:0:0:
279,43,114221,5,0,0:0:0:0:
279,43,114587,2,0,L|302:175,2,130,0|0|0,0:0|0:0|0:0,0:0:0:0:
195,29,115501,2,0,P|147:37|120:65,1,65.3553333333333,0|0,0:0|0:0,0:0:0:0:
93,120,115864,1,0,0:0:0:0:
93,120,116045,2,0,P|75:165|86:202,1,65,0|0,0:0|0:0,0:0:0:0:
141,235,116406,5,0,0:0:0:0:
163,316,116587,1,0,0:0:0:0:
91,360,116768,2,0,P|76:331|93:286,1,65,0|0,0:0|0:0,0:0:0:0:
227,258,117129,6,0,P|278:297|288:358,2,130,0|0|0,0:0|0:0|0:0,0:0:0:0:
196,179,118038,1,0,0:0:0:0:
265,130,118219,1,0,0:0:0:0:
265,130,118401,6,0,L|334:142,1,65.715,0|0,0:0|0:0,0:0:0:0:
412,155,118768,2,0,P|445:187|451:220,1,65,0|0,0:0|0:0,0:0:0:0:
393,266,119136,2,0,P|360:234|354:201,1,65,0|0,0:0|0:0,0:0:0:0:
329,141,119504,2,0,L|341:72,1,65,0|0,0:0|0:0,0:0:0:0:
264,15,119872,1,0,0:0:0:0:
264,15,120056,6,0,B|229:8|229:8|183:52|183:52|145:44,2,130,0|0|0,0:0|0:0|0:0,0:0:0:0:
161,211,121147,1,0,0:0:0:0:
161,211,121311,2,0,B|176:284|210:238|228:316,1,130,0|0,0:0|0:0,0:0:0:0:
295,372,121886,2,0,P|341:357|344:277,1,130,0|0,0:0|0:0,0:0:0:0:
292,267,122621,2,0,B|318:289|318:289|360:281,1,65,0|0,0:0|0:0,0:0:0:0:
394,218,122990,6,0,L|366:355,1,130,0|0,0:0|0:0,0:0:0:0:
462,332,123540,1,0,0:0:0:0:
498,241,123723,2,0,P|494:216|456:189,2,65,0|0|0,0:0|0:0|0:0,0:0:0:0:
389,268,124274,1,0,0:0:0:0:
319,197,124457,6,0,P|338:133|405:125,1,130,0|0,0:0|0:0,0:0:0:0:
491,111,125008,1,0,0:0:0:0:
491,111,125100,1,0,0:0:0:0:
491,111,125191,6,0,P|484:75|451:43,1,65,0|0,0:0|0:0,0:0:0:0:
393,120,125558,2,0,P|400:156|433:188,1,65,0|0,0:0|0:0,0:0:0:0:
378,31,125925,6,0,P|311:31|248:84,1,130,0|0,0:0|0:0,0:0:0:0:
206,145,126457,1,0,0:0:0:0:
186,45,126635,2,0,P|126:61|89:1,1,130,0|0,0:0|0:0,0:0:0:0:
1,53,127194,6,0,L|19:124,1,65,0|0,0:0|0:0,0:0:0:0:
111,140,127559,2,0,L|93:211,1,65,0|0,0:0|0:0,0:0:0:0:
6,245,127917,1,0,0:0:0:0:
45,333,128096,5,0,0:0:0:0:
141,349,128275,1,0,0:0:0:0:
190,264,128454,2,0,B|254:277|254:277|283:352,1,130,0|0,0:0|0:0,0:0:0:0:
455,307,129201,5,0,0:0:0:0:
455,307,129385,1,0,0:0:0:0:
365,288,129569,2,0,P|351:253|386:165,1,130,0|0,0:0|0:0,0:0:0:0:
458,111,130121,1,0,0:0:0:0:
458,111,130307,6,0,P|472:142|463:185,1,65,0|0,0:0|0:0,0:0:0:0:
380,169,130668,2,0,P|360:196|318:210,1,65,0|0,0:0|0:0,0:0:0:0:
267,136,131029,2,0,P|247:108|205:94,2,65,0|0|0,0:0|0:0|0:0,0:0:0:0:
234,228,131572,1,0,0:0:0:0:
140,208,131752,6,0,B|130:153|130:153|159:112|129:58,1,130,0|0,0:0|0:0,0:0:0:0:
63,22,132304,1,0,0:0:0:0:
63,22,132488,2,0,P|34:46|34:87,1,65,0|0,0:0|0:0,0:0:0:0:
74,154,132856,6,0,L|135:173,2,67.925,0|0|0,0:0|0:0|0:0,0:0:0:0:
74,154,133386,1,0,0:0:0:0:
27,256,133569,1,0,0:0:0:0:
98,330,133751,1,0,0:0:0:0:
189,308,133933,1,0,0:0:0:0:
226,235,134118,1,0,0:0:0:0:
295,218,134303,1,0,0:0:0:0:
351,245,134488,1,0,0:0:0:0:
373,288,134684,5,0,0:0:0:0:
427,142,135047,1,0,0:0:0:0:
367,73,135229,1,0,0:0:0:0:
293,126,135411,6,0,P|261:143|222:152,1,65,0|0,0:0|0:0,0:0:0:0:
65,78,135956,1,0,0:0:0:0:
148,111,136138,2,0,P|128:141|99:169,1,65,0|0,0:0|0:0,0:0:0:0:
190,302,136690,5,0,0:0:0:0:
119,271,136874,1,0,0:0:0:0:
181,226,137058,1,0,0:0:0:0:
250,258,137242,2,0,L|321:278,1,65,0|0,0:0|0:0,0:0:0:0:
400,342,137610,5,0,0:0:0:0:
456,262,137794,1,0,0:0:0:0:
401,180,137978,2,0,P|375:160|377:111,1,65,0|0,0:0|0:0,0:0:0:0:
401,49,138346,5,0,0:0:0:0:
257,38,138530,2,0,P|282:57|289:89,1,65,0|0,0:0|0:0,0:0:0:0:
228,159,138898,1,0,0:0:0:0:
43,256,139464,5,0,0:0:0:0:
43,256,139552,1,0,0:0:0:0:
43,256,139640,2,0,L|-15:243,8,39,0|0|0|0|0|0|0|0|0,0:0|0:0|0:0|0:0|0:0|0:0|0:0|0:0|0:0,0:0:0:0:
101,311,140532,6,0,B|141:304|141:304|142:301|142:301|193:292,1,81.25,0|0,0:0|0:0,0:0:0:0:
251,311,140893,2,0,P|277:276|265:235,1,78,0|0,0:0|0:0,0:0:0:0:
209,198,141254,5,0,0:0:0:0:
180,125,141435,1,0,0:0:0:0:
287,88,141616,5,0,0:0:0:0:
315,16,141797,1,0,0:0:0:0:
364,77,141977,6,0,B|401:69|401:69|404:67|404:67|451:61,2,65,0|0|0,0:0|0:0|0:0,0:0:0:0:
287,88,142525,1,0,0:0:0:0:
378,154,142708,6,0,P|344:249|331:316,1,156,0|0,0:0|0:0,0:0:0:0:
237,219,143257,6,0,L|229:178,2,39.2131988098145,0|0|0,0:0|0:0|0:0,0:0:0:0:
252,294,143620,2,0,B|270:338|244:326|263:371,1,78,0|0,0:0|0:0,0:0:0:0:
174,284,143982,6,0,P|139:268|102:259,1,78,0|0,0:0|0:0,0:0:0:0:
320,257,144343,2,0,P|351:234|387:217,1,78,0|0,0:0|0:0,0:0:0:0:
181,199,144705,6,0,P|167:163|134:146,1,78,0|0,0:0|0:0,0:0:0:0:
293,177,145066,2,0,P|299:140|329:116,1,78,0|0,0:0|0:0,0:0:0:0:
202,27,145427,5,0,0:0:0:0:
227,112,145608,2,0,B|208:68|234:80|216:36,1,78,0|0,0:0|0:0,0:0:0:0:
118,12,145970,1,0,0:0:0:0:
118,12,146150,1,0,0:0:0:0:
41,48,146331,6,0,P|38:89|77:117,1,77.999997619629,0|0,0:0|0:0,0:0:0:0:
45,185,146701,2,0,P|79:207|123:187,1,77.999997619629,0|0,0:0|0:0,0:0:0:0:
196,276,147071,5,0,0:0:0:0:
259,232,147256,1,0,0:0:0:0:
314,340,147442,2,0,P|336:309|329:272,1,81.25,0|0,0:0|0:0,0:0:0:0:
259,232,147801,6,0,B|249:191|249:191|284:162,1,77.999997619629,0|0,0:0|0:0,0:0:0:0:
254,93,148166,2,0,B|284:64|284:64|326:80,1,78,0|0,0:0|0:0,0:0:0:0:
450,26,148532,5,0,0:0:0:0:
485,95,148715,1,0,0:0:0:0:
426,146,148898,2,0,B|414:186|414:186|440:215,1,78,0|0,0:0|0:0,0:0:0:0:
467,309,149264,6,0,B|429:297|429:297|427:299|427:299|393:288,1,78,0|0,0:0|0:0,0:0:0:0:
344,226,149630,2,0,P|309:227|279:259,1,78,0|0,0:0|0:0,0:0:0:0:
320,335,149996,6,0,B|282:347|282:347|280:345|280:345|246:356,1,78,0|0,0:0|0:0,0:0:0:0:
134,265,150361,2,0,B|172:277|172:277|174:275|174:275|208:286,1,78,0|0,0:0|0:0,0:0:0:0:
344,226,150727,5,0,0:0:0:0:
252,203,150907,1,0,0:0:0:0:
316,138,151088,2,0,P|350:122|385:136,1,78,0|0,0:0|0:0,0:0:0:0:
273,69,151449,2,0,P|223:68|201:93,1,78,0|0,0:0|0:0,0:0:0:0:
158,150,151811,2,0,B|162:180|162:180|158:179|158:179|167:223,1,78,0|0,0:0|0:0,0:0:0:0:
130,343,152181,6,0,P|74:289|1:304,2,155.999995239258,0|0|0,0:0|0:0|0:0,0:0:0:0:
200,376,153120,1,0,0:0:0:0:
257,322,153301,2,0,P|267:283|285:247,1,78,0|0,0:0|0:0,0:0:0:0:
181,137,153662,5,0,0:0:0:0:
211,211,153839,1,0,0:0:0:0:
262,111,154017,5,0,0:0:0:0:
292,35,154194,1,0,0:0:0:0:
345,99,154372,6,0,B|382:106|382:106|385:108|385:108|433:117,1,77.999997619629,0|0,0:0|0:0,0:0:0:0:
494,180,154727,2,0,B|456:188|456:188|453:190|453:190|406:198,1,77.999997619629,0|0,0:0|0:0,0:0:0:0:
497,77,155079,6,0,L|513:28,2,32.5,0|0|0,0:0|0:0|0:0,0:0:0:0:
494,180,155444,2,0,P|481:229|484:269,1,78,0|0,0:0|0:0,0:0:0:0:
427,318,155810,5,0,0:0:0:0:
324,248,155993,1,0,0:0:0:0:
421,316,156176,2,0,P|379:322|332:334,1,78,0|0,0:0|0:0,0:0:0:0:
230,380,156552,6,0,L|183:367,8,32.5,0|0|0|0|0|0|0|0|0,0:0|0:0|0:0|0:0|0:0|0:0|0:0|0:0|0:0,0:0:0:0:
281,321,157489,1,0,0:0:0:0:
241,253,157677,1,0,0:0:0:0:
164,269,157864,1,0,0:0:0:0:
153,349,158052,6,0,P|145:278|119:187,1,155.999995239258,0|0,0:0|0:0,0:0:0:0:
46,171,158597,1,0,0:0:0:0:
156,122,158779,2,0,P|195:147|197:174,1,78,0|0,0:0|0:0,0:0:0:0:
122,196,159142,1,0,0:0:0:0:
259,226,159324,6,0,B|296:219|296:219|299:217|299:217|347:208,1,78.428997619629,0|0,0:0|0:0,0:0:0:0:
483,175,159682,1,0,0:0:0:0:
402,152,159858,1,0,0:0:0:0:
490,172,160040,5,0,0:0:0:0:
461,94,160223,2,0,P|436:65|391:63,1,78,0|0,0:0|0:0,0:0:0:0:
329,13,160589,2,0,P|292:19|268:57,1,77.999997619629,0|0,0:0|0:0,0:0:0:0:
197,93,160973,6,0,P|216:168|226:245,1,155.999995239258,0|0,0:0|0:0,0:0:0:0:
237,323,161515,1,0,0:0:0:0:
131,362,161695,5,0,0:0:0:0:
53,327,161876,2,0,P|40:287|67:245,1,78,0|0,0:0|0:0,0:0:0:0:
28,181,162238,2,0,P|55:150|105:153,1,78,0|0,0:0|0:0,0:0:0:0:
211,181,162599,5,0,0:0:0:0:
123,219,162780,2,0,B|159:212|159:212|161:209|161:209|200:202,1,78,0|0,0:0|0:0,0:0:0:0:
255,259,163141,5,0,0:0:0:0:
329,285,163322,1,0,0:0:0:0:
400,260,163506,1,0,0:0:0:0:
444,196,163693,1,0,0:0:0:0:
383,138,163881,6,0,P|364:78|358:0,2,130,0|0|0,0:0|0:0|0:0,0:0:0:0:
444,196,164839,1,0,0:0:0:0:
497,257,165023,1,0,0:0:0:0:
434,309,165207,6,0,L|357:292,1,71.5,0|0,0:0|0:0,0:0:0:0:
325,380,165575,2,0,P|292:354|293:312,1,71.5,0|0,0:0|0:0,0:0:0:0:
232,266,165943,2,0,L|249:189,1,71.5000021820069,0|0,0:0|0:0,0:0:0:0:
217,71,166309,2,0,P|195:98|197:133,1,71.5000021820069,0|0,0:0|0:0,0:0:0:0:
282,117,166675,6,0,P|348:101|516:90,1,214.500006546021,0|0,0:0|0:0,0:0:0:0:
491,90,167590,1,0,0:0:0:0:
275,33,167956,5,0,0:0:0:0:
204,79,168139,2,0,B|136:52|136:52|77:97,1,143,0|0,0:0|0:0,0:0:0:0:
150,141,168687,2,0,L|161:226,1,71.5,0|0,0:0|0:0,0:0:0:0:
106,274,169053,1,0,0:0:0:0:
170,331,169236,1,0,0:0:0:0:
221,263,169419,2,0,B|255:252|255:252|278:280,1,71.5,0|0,0:0|0:0,0:0:0:0:
302,361,169785,6,0,P|316:289|343:197,1,146.25,0|0,0:0|0:0,0:0:0:0:
386,160,170351,1,0,0:0:0:0:
325,108,170539,2,0,P|317:64|301:24,2,71.6894771820069,0|0|0,0:0|0:0|0:0,0:0:0:0:
241,92,171099,1,0,0:0:0:0:
172,47,171282,6,0,L|22:75,1,143,0|0,0:0|0:0,0:0:0:0:
89,157,171831,1,0,0:0:0:0:
89,157,171923,1,0,0:0:0:0:
89,157,172014,2,0,P|124:136|159:145,1,71.5,0|0,0:0|0:0,0:0:0:0:
60,242,172380,2,0,B|33:217|33:217|-5:225,1,71.5,0|0,0:0|0:0,0:0:0:0:
32,327,172746,6,0,P|98:270|166:301,1,143.000004364014,0|0,0:0|0:0,0:0:0:0:
200,337,173298,1,0,0:0:0:0:
186,211,173482,2,0,P|268:239|275:314,1,143,0|0,0:0|0:0,0:0:0:0:
336,350,174034,6,0,L|405:329,1,71.5000021820069,0|0,0:0|0:0,0:0:0:0:
409,251,174396,2,0,L|478:230,1,71.5,0|0,0:0|0:0,0:0:0:0:
502,137,174753,5,0,0:0:0:0:
502,137,174843,1,0,0:0:0:0:
502,137,174932,2,0,P|463:107|431:115,1,71.5,0|0,0:0|0:0,0:0:0:0:
388,56,175289,2,0,P|342:74|334:106,1,71.5,0|0,0:0|0:0,0:0:0:0:
261,128,175658,6,0,P|192:109|120:103,1,143.000004364014,0|0,0:0|0:0,0:0:0:0:
121,103,176419,1,0,0:0:0:0:
43,88,176600,1,0,0:0:0:0:
7,160,176782,1,0,0:0:0:0:
67,215,176964,6,0,L|80:285,1,71.8932521820069,0|0,0:0|0:0,0:0:0:0:
185,360,177327,2,0,P|167:306|136:308,1,71.5,0|0,0:0|0:0,0:0:0:0:
152,227,177691,2,0,L|222:213,1,71.5,0|0,0:0|0:0,0:0:0:0:
288,261,178055,2,0,L|358:274,1,71.5,0|0,0:0|0:0,0:0:0:0:
434,236,178418,6,0,B|435:168|400:101|400:101|432:136|496:125,1,213.713506546021,0|0,0:0|0:0,0:0:0:0:
466,127,179322,1,0,0:0:0:0:
451,341,179684,5,0,0:0:0:0:
451,341,179865,2,0,P|394:342|364:268,1,143,0|0,0:0|0:0,0:0:0:0:
302,122,180587,6,0,P|299:74|288:32,1,71.5,0|0,0:0|0:0,0:0:0:0:
220,23,180949,1,0,0:0:0:0:
166,80,181130,1,0,0:0:0:0:
95,47,181316,1,0,0:0:0:0:
31,93,181502,6,0,P|23:173|13:238,1,143.000004364014,0|0,0:0|0:0,0:0:0:0:
42,303,182071,1,0,0:0:0:0:
115,264,182256,2,0,B|211:252|157:319|274:293,1,143,0|0,0:0|0:0,0:0:0:0:
378,275,182811,2,0,P|369:339|283:344,1,143.000004364014,0|0,0:0|0:0,0:0:0:0:
252,191,183549,5,0,0:0:0:0:
266,114,183733,1,0,0:0:0:0:
193,141,183917,1,0,0:0:0:0:
206,64,184101,1,0,0:0:0:0:
206,64,184469,5,0,0:0:0:0:
301,13,184650,1,0,0:0:0:0:
364,99,184832,2,0,L|342:178,1,71.5,0|0,0:0|0:0,0:0:0:0:
322,241,185196,5,0,0:0:0:0:
259,152,185378,2,0,P|225:162|209:193,1,71.5,0|0,0:0|0:0,0:0:0:0:
326,249,185741,1,0,0:0:0:0:
256,192,185832,12,0,186914,0:0:0:0:
174,256,187377,6,0,P|182:286|200:306,1,48.75,0|0,0:0|0:0,0:0:0:0:
248,233,187740,2,0,P|240:203|222:183,1,52,0|0,0:0|0:0,0:0:0:0:
100,232,188104,5,0,0:0:0:0:
31,186,188286,2,0,B|61:141|61:141|121:152,1,104,0|0,0:0|0:0,0:0:0:0:
110,150,189013,1,0,0:0:0:0:
175,50,189195,2,0,L|111:69,1,52,0|0,0:0|0:0,0:0:0:0:
232,110,189558,6,0,L|335:79,1,104,0|0,0:0|0:0,0:0:0:0:
380,145,190104,1,0,0:0:0:0:
465,123,190287,6,0,P|453:158|448:207,1,65,0|0,0:0|0:0,0:0:0:0:
375,230,190652,2,0,P|387:265|392:314,1,65,0|0,0:0|0:0,0:0:0:0:
340,355,191018,1,0,0:0:0:0:
200,323,191201,2,0,P|231:330|254:344,1,52,0|0,0:0|0:0,0:0:0:0:
281,251,191567,6,0,P|279:222|277:175,1,52.2842666666667,0|0,0:0|0:0,0:0:0:0:
206,111,191935,2,0,P|207:138|209:184,1,48.75,0|0,0:0|0:0,0:0:0:0:
204,239,192305,1,0,0:0:0:0:
121,224,192490,6,0,B|103:179|103:179|58:168|50:116,1,130,0|0,0:0|0:0,0:0:0:0:
71,45,193046,1,0,0:0:0:0:
129,101,193231,5,0,0:0:0:0:
162,0,193413,2,0,P|187:26|228:33,1,65,0|0,0:0|0:0,0:0:0:0:
337,68,193779,2,0,L|406:47,1,48.75,0|0,0:0|0:0,0:0:0:0:
436,150,194145,2,0,L|367:129,1,52,0|0,0:0|0:0,0:0:0:0:
257,115,194511,2,0,L|272:164,1,52,0|0,0:0|0:0,0:0:0:0:
347,220,194877,1,0,0:0:0:0:
324,303,195060,1,0,0:0:0:0:
324,303,195243,1,0,0:0:0:0:
240,279,195426,6,0,P|210:288|175:294,2,52,0|0|0,0:0|0:0|0:0,0:0:0:0:
253,355,195974,1,0,0:0:0:0:
179,374,196157,5,0,0:0:0:0:
121,325,196340,2,0,L|106:252,1,52,0|0,0:0|0:0,0:0:0:0:
27,240,196706,2,0,L|37:290,1,52,0|0,0:0|0:0,0:0:0:0:
94,197,197072,2,0,L|79:124,1,52,0|0,0:0|0:0,0:0:0:0:
68,0,197438,6,0,P|66:71|154:82,1,156,0|0,0:0|0:0,0:0:0:0:
204,47,198170,1,0,0:0:0:0:
210,131,198352,6,0,P|245:122|281:120,1,52,0|0,0:0|0:0,0:0:0:0:
346,45,198718,2,0,P|311:36|275:34,1,52,0|0,0:0|0:0,0:0:0:0:
357,141,199084,6,0,P|367:206|372:262,1,97.5,0|0,0:0|0:0,0:0:0:0:
411,336,199629,1,0,0:0:0:0:
411,336,199720,1,0,0:0:0:0:
411,336,199811,2,0,P|381:324|351:324,1,52,0|0,0:0|0:0,0:0:0:0:
206,301,200356,6,0,P|217:338|218:368,1,52,0|0,0:0|0:0,0:0:0:0:
289,291,200720,2,0,P|278:254|277:224,1,52,0|0,0:0|0:0,0:0:0:0:
231,176,201084,1,0,0:0:0:0:
160,212,201265,5,0,0:0:0:0:
144,138,201447,2,0,P|130:90|102:39,1,104,0|0,0:0|0:0,0:0:0:0:
37,11,201993,5,0,0:0:0:0:
17,81,202173,1,0,0:0:0:0:
59,149,202354,1,0,0:0:0:0:
145,154,202535,1,0,0:0:0:0:
214,103,202715,5,0,0:0:0:0:
314,107,202896,5,0,0:0:0:0:
364,201,203077,5,0,0:0:0:0:
312,293,203262,5,0,0:0:0:0:
