osu file format v14

[General]
AudioFilename: audio.mp3
AudioLeadIn: 0
PreviewTime: 50644
Countdown: 0
SampleSet: Soft
StackLeniency: 0.3
Mode: 0
LetterboxInBreaks: 0
WidescreenStoryboard: 1

[Editor]
Bookmarks: 12785,27843,42862,48216,81246
DistanceSpacing: 1.3
BeatDivisor: 6
GridSize: 32
TimelineZoom: 7.599995

[Metadata]
Title:Gallop (TV Size)
TitleUnicode:ギャロップ (TV Size)
Artist:pe'zmoku
ArtistUnicode:pe'zmoku
Creator:-Mikan
Version:synderes' Insane
Source:BLEACH
Tags:irohas MugiwaraSekai akitoshi corinn -laura- frostwich synderes ducky- anime japanese ed ending 16 jazz Pe'z pezmoku suzumoku
BeatmapID:2593830
BeatmapSetID:1225198

[Difficulty]
HPDrainRate:5
CircleSize:4
OverallDifficulty:7
ApproachRate:9.1
SliderMultiplier:3
SliderTickRate:1

[Events]
//Background and Video events
0,0,"ippxQBA8tZM_1.jpg",0,0
Video,50,"[AniTousen] TV ED16 - Gallop (pe'zmoku).mp4"
//Break Periods
//Storyboard Layer 0 (Background)
//Storyboard Layer 1 (Fail)
//Storyboard Layer 2 (Pass)
//Storyboard Layer 3 (Foreground)
//Storyboard Layer 4 (Overlay)
//Storyboard Sound Samples

[TimingPoints]
1540,468.75,4,2,1,40,1,0
3415,-100,4,2,1,50,0,0
3805,-66.6666666666667,4,2,1,50,0,0
4000,428.571428571429,4,2,1,50,1,0
4321,-100,4,2,1,50,0,0
4857,461.538461538462,4,2,1,50,1,0
5087,483.870967741935,4,2,1,50,1,0
5087,-66.6666666666667,4,2,1,50,0,0
5248,491.803278688525,4,2,1,60,1,0
5248,-83.3333333333333,4,2,1,60,0,0
6231,465.116279069767,4,2,1,60,1,0
6231,-83.3333333333333,4,2,1,60,0,0
7161,468.75,4,2,1,60,1,0
7161,-83.3333333333333,4,2,1,60,0,0
8625,-83.3333333333333,4,2,1,5,0,0
8684,-83.3333333333333,4,2,1,60,0,0
11379,437.956204379562,4,2,1,60,1,0
11379,-133.333333333333,4,2,1,60,0,0
11597,-100,4,2,1,60,0,0
11743,461.538461538462,4,2,1,50,1,0
12204,-100,4,2,1,50,0,0
12785,476.190476190476,4,2,1,50,1,0
12785,-100,4,2,1,50,0,0
13261,588.235294117647,4,2,1,50,1,0
13408,476.190476190476,4,2,1,50,1,0
14241,468.75,4,2,1,50,1,0
14692,517.241379310345,4,2,1,50,1,0
14950,425.531914893617,4,2,1,50,1,0
15162,480,4,2,1,50,1,0
15882,447.761194029851,4,2,1,50,1,0
16106,458.015267175573,4,2,1,50,1,0
16564,472.44094488189,4,2,1,50,1,0
19398,465.116279069767,4,2,1,50,1,0
20328,472.44094488189,4,2,1,50,1,0
23162,461.538461538462,4,2,1,50,1,0
24546,472.44094488189,4,2,1,50,1,0
25490,480,4,2,1,50,1,0
26450,472.44094488189,4,2,1,50,1,0
26922,461.538461538462,4,2,1,50,1,0
27845,472.44094488189,4,2,1,50,1,0
27845,-133.333333333333,4,2,1,50,0,0
31624,461.538461538462,4,2,1,50,1,0
31624,-133.333333333333,4,2,1,50,0,0
33470,483.870967741935,4,2,1,50,1,0
33470,-133.333333333333,4,2,1,50,0,0
33953,472.44094488189,4,2,1,50,1,0
34189,-133.333333333333,4,2,1,50,0,0
39142,465.116279069767,4,2,1,50,1,0
39142,-133.333333333333,4,2,1,50,0,0
42397,-100,4,2,1,50,0,0
42630,-75.000000001875,4,2,1,50,0,0
42862,472.44094488189,4,2,1,50,1,0
42862,-100,4,2,1,50,0,0
43806,-133.333333333333,4,2,1,50,0,0
44279,-100,4,2,1,50,0,0
45696,-133.333333333333,4,2,1,50,0,0
46641,-100,4,2,1,50,0,0
47586,-80,4,2,1,50,0,0
48295,-133.333333333333,4,2,1,50,0,0
48531,-80,4,2,1,50,0,0
49358,-80,4,2,1,5,0,0
49476,-74.0740740740741,4,2,1,60,0,0
50302,-74.0740740740741,4,2,1,5,0,0
50421,447.761194029851,4,2,1,50,1,0
51316,470.588235294118,4,2,2,70,1,0
51316,-83.3333333333333,4,2,2,70,0,1
51551,-83.3333333333333,4,2,1,70,0,1
58610,-83.3333333333333,4,2,2,70,0,1
58727,-83.3333333333333,4,2,1,70,0,1
65904,-133.333333333333,4,2,1,70,0,1
66374,-83.3333333333333,4,2,2,70,0,1
66610,-83.3333333333333,4,2,1,70,0,1
73433,-133.333333333333,4,2,1,70,0,1
73668,-83.3333333333333,4,2,2,70,0,1
73786,-83.3333333333333,4,2,1,70,0,1
78610,444.444444444444,4,2,1,70,1,1
78721,-83.3333333333333,4,2,1,70,0,1
79276,476.190476190476,4,2,1,70,1,0
79276,-83.3333333333333,4,2,1,70,0,1
79514,472.44094488189,4,2,1,70,1,0
79514,-83.3333333333333,4,2,1,70,0,1
79986,-76.9230769230769,4,2,1,70,0,1
80458,-133.333333333333,4,2,1,70,0,1
80931,-100,4,2,1,70,0,1
81167,-66.6666666666667,4,2,1,70,0,1
81403,-83.3333333333333,4,2,1,60,0,0
86127,465.116279069767,4,2,1,60,1,0
86127,-83.3333333333333,4,2,1,60,0,0
87058,447.761194029851,4,2,1,60,1,0
87058,-76.9230769230769,4,2,1,60,0,0
88401,-76.9230769230769,4,2,1,5,0,0

[Colours]
Combo1 : 0,128,64
Combo2 : 207,207,207
Combo3 : 132,187,255

[HitObjects]
482,362,1540,5,0,0:0:0:0:
411,322,1657,5,0,0:0:0:0:
370,241,1774,5,0,0:0:0:0:
397,131,1891,5,0,0:0:0:0:
438,197,2125,5,0,0:0:0:0:
295,254,2360,5,0,0:0:0:0:
153,193,2594,5,0,0:0:0:0:
95,49,2829,5,0,0:0:0:0:
17,11,3063,5,0,0:0:0:0:
2,96,3297,5,0,0:0:0:0:
95,49,3415,6,0,L|100:79,8,25,8|0|0|0|0|0|0|0|0,3:2|3:0|3:0|3:0|3:0|3:0|3:0|3:0|3:0,3:0:0:0:
170,13,3805,6,0,P|220:19|243:50,1,75.000002861023,0|0,3:0|0:0,0:0:0:0:
185,170,4000,2,0,P|135:164|112:133,1,75,0|0,3:0|0:0,0:0:0:0:
177,91,4214,1,8,0:0:0:0:
242,43,4321,6,0,P|260:86|246:119,1,75,8|8,0:0|0:0,0:0:0:0:
185,170,4571,2,0,P|242:130|324:151,1,150,8|8,0:3|0:0,0:0:0:0:
316,145,4857,6,0,P|317:176|291:214,2,50,8|8|8,0:0|0:0|0:0,0:0:0:0:
192,260,5087,6,0,B|237:281|270:254|270:254|254:249|244:239,1,112.5,8|8,0:0|0:0,0:0:0:0:
239,233,5248,6,0,B|192:189|146:213|146:213|112:258|48:236,1,179.999994506836,4|8,3:2|0:0,0:0:0:0:
78,163,5616,1,0,0:0:0:0:
78,163,5739,2,0,P|62:121|26:95,1,89.9999972534181,2|0,3:0|0:0,0:0:0:0:
190,292,5985,2,0,P|161:326|157:370,1,89.9999972534181,8|0,0:0|0:0,0:0:0:0:
343,384,6231,5,2,3:0:0:0:
403,341,6347,2,0,P|388:298|351:273,1,89.9999972534181,8|2,0:0|3:0,0:0:0:0:
450,233,6579,2,0,P|362:243|290:192,1,179.999994506836,8|0,0:0|0:0,0:0:0:0:
130,132,6928,2,0,P|155:95|197:81,1,89.9999972534181,8|0,0:0|0:0,0:0:0:0:
364,75,7161,6,0,P|371:119|380:163,1,89.9999972534181,2|0,3:0|0:0,0:0:0:0:
216,244,7395,1,8,0:0:0:0:
216,244,7629,6,0,P|207:199|198:143,1,89.9999972534181,2|0,3:0|0:0,0:0:0:0:
95,330,7864,2,0,B|159:305|159:305|215:345|264:310,1,179.999994506836,8|0,0:0|3:0,0:0:0:0:
363,101,8215,6,0,P|330:131|320:189,1,89.9999972534181,8|2,0:0|3:0,0:0:0:0:
512,232,8450,2,0,P|446:216|365:252,1,134.999995880127,8|0,0:0|0:0,0:0:0:0:
375,241,8684,2,0,P|360:282|381:337,1,89.9999972534181,0|8,0:0|0:0,0:0:0:0:
475,131,8918,5,0,0:0:0:0:
429,69,9036,2,0,P|343:72|296:0,1,179.999994506836,2|8,3:2|0:0,0:0:0:0:
120,96,9387,1,0,0:0:0:0:
164,31,9504,2,0,P|196:81|192:127,1,89.9999972534181,2|0,3:0|0:0,0:0:0:0:
27,208,9739,2,0,B|76:118|10:109|65:37,1,179.999994506836,8|2,0:0|3:0,0:0:0:0:
285,122,10090,6,0,P|257:174|215:194,1,89.9999972534181,8|2,0:0|3:0,0:0:0:0:
271,269,10325,2,0,P|235:226|104:217,1,179.999994506836,8|0,0:0|0:0,0:0:0:0:
2,293,10676,1,8,0:0:0:0:
185,371,10852,5,8,0:0:0:0:
181,368,10911,2,0,B|230:344|230:344|293:383|365:359,1,179.999994506836,4|0,3:2|3:0,0:0:0:0:
350,363,11223,2,0,P|370:330|370:288,1,59.9999981689454,8|8,0:0|3:0,0:0:0:0:
315,248,11379,6,0,L|279:255,2,37.5000014305115,8|8|8,0:0|0:0|0:0,0:0:0:0:
497,369,11597,6,0,P|485:321|447:284,1,100,8|2,0:0|3:2,0:0:0:0:
299,35,12319,6,0,B|312:103|425:150|495:51|419:-30|356:38,1,262.5,8|0,0:0|0:0,0:0:0:0:
372,27,12785,6,0,P|319:32|351:111,1,150,4|0,3:2|0:0,0:0:0:0:
334,115,13142,2,0,P|335:157|291:182,1,75,0|10,0:0|0:0,0:0:0:0:
353,246,13408,2,0,P|297:197|224:193,1,150
152,162,13765,5,2,3:2:0:0:
145,163,13884,2,0,B|140:201|140:201|151:245,1,75,8|0,0:0|0:0,0:0:0:0:
19,377,14241,2,0,P|75:328|148:324,1,150,10|2,0:0|0:0,0:0:0:0:
222,360,14592,5,0,0:0:0:0:
216,364,14692,1,0,3:0:0:0:
446,312,14950,1,0,0:0:0:0:
336,372,15162,1,10,0:0:0:0:
336,372,15282,2,0,P|313:304|325:224,1,150
200,245,15642,2,0,P|216:211|246:189,1,75,2|8,3:2|0:0,0:0:0:0:
325,142,15882,1,0,0:0:0:0:
329,146,16106,6,0,P|255:144|195:100,1,150,10|2,0:0|0:0,0:0:0:0:
61,162,16449,1,0,0:0:0:0:
69,167,16564,2,0,P|98:143|114:110,1,75,2|8,3:2|0:0,0:0:0:0:
9,17,16800,2,0,P|29:47|35:84,1,75,0|0,0:0|3:0,0:0:0:0:
123,255,17036,1,10,0:0:0:0:
123,255,17154,2,0,P|81:207|-5:208,1,150
0,205,17508,6,0,B|-8:245|-8:245|14:319,1,75,2|8,3:2|0:0,0:0:0:0:
133,356,17745,2,0,L|196:343,2,50,0|0|0,3:0|3:0|3:0,3:0:0:0:
66,320,17981,5,10,0:0:0:0:
325,374,18217,1,2,0:0:0:0:
66,320,18453,6,0,P|57:253|111:173,1,150,0|0,3:0|0:0,0:0:0:0:
96,183,18808,1,0,0:0:0:0:
173,219,18926,2,0,P|172:256|154:288,1,75,10|0,0:0|0:0,0:0:0:0:
19,159,19162,6,0,P|100:151|149:78,1,150,0|2,0:0|3:2,0:0:0:0:
30,12,19514,1,8,0:0:0:0:
30,12,19630,2,0,P|54:42|62:95,1,75,0|0,0:0|3:0,0:0:0:0:
224,153,19863,2,0,B|268:134|268:134|324:167|367:150,1,150,10|2,0:0|0:0,0:0:0:0:
454,16,20328,6,0,P|383:2|334:55,1,150,2|0,3:2|0:0,0:0:0:0:
462,196,20682,2,0,B|465:159|465:159|452:123,1,75,0|10,3:0|0:0,0:0:0:0:
365,150,20918,2,0,P|372:218|382:315,1,150
469,337,21272,5,2,3:2:0:0:
461,332,21390,2,0,B|379:326|406:378|321:374,1,150,8|0,0:0|3:0,0:0:0:0:
229,324,21745,1,10,0:0:0:0:
20,382,21981,6,0,P|58:368|85:330,1,75
151,357,22217,2,0,P|95:308|21:300,1,150,2|0,3:2|0:0,0:0:0:0:
73,220,22572,1,0,3:0:0:0:
73,220,22690,2,0,P|53:188|49:151,1,75,10|0,0:0|0:0,0:0:0:0:
186,8,22926,2,0,P|155:29|138:62,1,75,0|8,0:0|0:0,0:0:0:0:
54,76,23162,2,0,P|121:89|205:146,1,150,2|2,3:2|0:0,0:0:0:0:
190,131,23508,1,0,3:0:0:0:
190,131,23623,1,10,0:0:0:0:
413,5,23854,6,0,P|405:40|382:71,1,75
312,132,24085,1,2,3:2:0:0:
452,319,24315,6,0,P|447:282|427:250,1,75,0|0,0:0|3:0,0:0:0:0:
484,118,24546,1,10,0:0:0:0:
464,188,24664,2,0,P|414:223|320:230,1,150
281,172,25018,1,2,3:2:0:0:
275,164,25136,2,0,P|209:163|220:228,1,150,8|0,0:0|3:0,0:0:0:0:
53,367,25490,6,0,P|118:367|107:302,1,150,10|0,0:0|0:0,0:0:0:0:
103,304,25970,6,0,B|111:214|156:255|161:158,1,150,2|0,3:2|0:0,0:0:0:0:
55,103,26330,1,0,3:0:0:0:
50,106,26450,2,0,P|57:143|84:169,1,75,10|0,0:0|0:0,0:0:0:0:
25,221,26686,2,0,P|86:179|166:170,1,150,0|2,0:0|3:2,0:0:0:0:
223,44,27037,1,0,0:0:0:0:
292,75,27152,2,0,P|314:106|321:143,1,75,2|0,0:0|3:0,0:0:0:0:
267,264,27383,1,8,0:0:0:0:
405,156,27614,6,0,P|389:190|360:215,1,75,2|0,0:0|0:0,0:0:0:0:
403,383,27845,6,0,P|383:329|320:281,1,112.500004291535,4|0,3:2|0:0,0:0:0:0:
267,264,28199,1,0,1:0:0:0:
344,7,28435,5,0,0:0:0:0:
344,7,28553,2,0,L|362:100,1,56.2500021457673,8|0,0:1|3:0,0:0:0:0:
421,171,28789,6,0,L|442:60,1,112.500004291535,0|8,3:0|0:1,0:0:0:0:
449,56,29144,2,0,P|465:78|471:123,1,56.2500021457673,0|2,3:0|3:0,0:0:0:0:
335,219,29498,2,0,P|293:182|237:179,2,112.500004291535,2|8|8,0:3|3:1|0:1,0:0:0:0:
396,281,30089,1,0,3:0:0:0:
395,274,30207,2,0,P|411:251|415:223,1,56.2500021457673,2|8,3:0|0:1,0:0:0:0:
272,260,30443,5,2,0:3:0:0:
272,260,30561,2,0,L|296:404,1,112.500004291535,8|0,0:1|0:0,0:0:0:0:
447,337,30915,2,0,P|424:353|397:358,1,56.2500021457673,8|0,0:1|0:0,0:0:0:0:
193,297,31152,1,2,3:0:0:0:
193,297,31388,5,0,0:0:0:0:
206,289,31506,1,8,0:0:0:0:
129,331,31624,6,0,B|75:350|75:350|22:328,1,112.500004291535,2|0,3:0|0:0,0:0:0:0:
6,257,31970,1,8,0:1:0:0:
0,250,32085,2,0,P|7:194|19:101,1,112.500004291535,2|8,3:0|0:1,0:0:0:0:
263,2,32547,6,0,P|270:57|277:113,1,112.500004291535,0|8,3:0|0:1,0:0:0:0:
230,186,32893,1,0,3:0:0:0:
215,176,33008,1,2,3:2:0:0:
362,73,33239,6,0,P|388:77|423:95,1,56.2500021457673,2|0,0:3|1:0,0:0:0:0:
467,160,33470,2,0,P|499:102|481:-12,1,168.750006437302,2|0,3:0|3:0,0:0:0:0:
401,219,33953,6,0,P|409:260|436:285,1,75,2|0,3:0|1:0,0:0:0:0:
409,358,34189,2,0,P|450:320|505:314,1,112.500004291535,2|2,0:3|3:0,0:0:0:0:
512,322,34543,1,0,0:0:0:0:
512,322,34661,2,0,L|493:411,1,56.2500021457673,8|0,0:1|0:0,0:0:0:0:
303,246,34897,1,0,3:0:0:0:
303,246,35134,5,8,0:0:0:0:
329,321,35252,1,8,0:1:0:0:
251,306,35370,1,2,3:0:0:0:
378,118,35606,5,0,0:0:0:0:
369,122,35724,2,0,P|313:118|256:52,2,112.500004291535,8|0|0,3:2|0:0|3:0,0:0:0:0:
311,3,36315,6,0,P|328:25|337:52,1,56.2500021457673,0|0,3:0|0:0,0:0:0:0:
436,171,36551,2,0,P|432:198|419:223,1,56.2500021457673,8|0,0:1|0:0,0:0:0:0:
452,295,36787,2,0,P|405:264|350:257,1,112.500004291535,2|2,3:0|0:3,0:0:0:0:
341,263,37141,5,0,3:0:0:0:
276,309,37260,2,0,B|225:315|225:315|214:321|214:321|145:329,1,112.500004291535,8|8,3:1|0:1,0:0:0:0:
362,364,37614,6,0,L|438:377,1,56.2500021457673,0|2,3:0|3:0,0:0:0:0:
223,235,37850,2,0,P|202:177|208:122,1,112.500004291535,8|8,0:1|0:1,0:0:0:0:
133,86,38204,6,0,P|112:105|86:116,1,56.2500021457673,0|0,3:0|0:0,0:0:0:0:
280,155,38441,2,0,P|338:134|393:140,1,112.500004291535,8|2,0:1|3:0,0:0:0:0:
467,124,38795,1,8,0:1:0:0:
473,132,38913,2,0,B|474:161|474:161|463:206,1,56.2500021457673,2|0,0:3|3:0,0:0:0:0:
395,247,39142,6,0,L|419:379,1,112.500004291535,8|0,3:1|0:0,0:0:0:0:
328,332,39490,1,0,1:0:0:0:
335,339,39607,2,0,B|267:325|267:325|235:354,1,112.500004291535,2|0,3:0|1:0,0:0:0:0:
61,186,40072,6,0,L|187:164,1,112.500004291535,2|8,3:0|0:1,0:0:0:0:
223,104,40421,1,0,3:0:0:0:
176,179,40537,6,0,L|286:198,1,112.500004291535,0|0,3:0|0:0,0:0:0:0:
298,207,40886,1,0,3:0:0:0:
349,271,41002,6,0,B|362:310|328:350|328:350|279:325|273:277,1,168.750006437302,8|0,0:1|1:0,0:0:0:0:
432,156,41467,2,0,P|405:164|387:186,1,56.2500021457673,2|0,3:0|0:0,0:0:0:0:
486,338,41700,2,0,P|483:282|458:232,1,112.500004291535,8|2,0:1|3:0,0:0:0:0:
346,105,42048,1,0,0:0:0:0:
336,108,42165,2,8,P|316:127|311:154,1,56.2500021457673
224,209,42397,6,8,P|201:202|181:185,3,37.5
116,244,42630,2,8,P|104:222|102:196,3,50
0,234,42862,6,0,P|15:183|52:140,1,75,4|0,3:2|0:0,0:0:0:0:
6,62,43098,1,0,0:0:0:0:
0,73,43216,2,0,P|50:124|122:113,1,150,8|0,0:0|0:0,0:0:0:0:
213,42,43570,1,0,3:0:0:0:
383,208,43806,6,0,B|421:164|485:183|485:183|456:207|460:254,1,168.750006437302,10|8,0:0|0:0,0:0:0:0:
364,301,44279,2,0,P|295:271|221:267,1,150,2|0,0:0|3:0,0:0:0:0:
160,218,44633,2,0,P|139:249|137:286,1,75,0|2,3:0|3:2,0:0:0:0:
48,376,44987,5,0,0:0:0:0:
221,267,45224,1,2,0:0:0:0:
41,172,45460,2,0,L|61:264,1,75,0|0,3:0|0:0,0:0:0:0:
157,325,45696,6,0,B|212:285|275:306|261:341|323:373|380:322,1,225.000008583069,10|2,0:0|0:0,0:0:0:0:
496,239,46405,1,0,0:0:0:0:
274,220,46641,6,0,P|246:148|269:63,1,150,12|0,0:0|3:0,0:0:0:0:
259,78,47113,6,0,P|297:89|332:119,1,75,0|0,3:0|0:0,0:0:0:0:
377,0,47350,2,0,P|396:34|399:80,1,75,2|0,3:2|0:3,0:0:0:0:
182,340,47586,6,0,P|195:294|231:251,1,93.75,10|0,0:0|0:3,0:0:0:0:
80,191,47822,2,0,P|121:167|177:163,1,93.75,2|0,3:2|0:3,0:0:0:0:
378,206,48058,5,8,0:0:0:0:
387,203,48137,1,8,0:0:0:0:
396,200,48216,1,8,0:0:0:0:
405,197,48295,2,8,L|461:185,2,37.5000014305115
298,317,48531,6,0,B|221:337|200:252|200:252|227:261|253:243,1,187.5,4|0,3:2|0:0,0:0:0:0:
153,130,48885,2,0,P|222:93|219:171,1,187.5,4|0,3:2|0:0,0:0:0:0:
68,306,49239,2,0,P|34:337|31:382,1,93.75,2|0,3:2|0:0,0:0:0:0:
171,275,49476,6,0,P|76:264|4:178,1,202.500000772476,12|0,3:2|0:0,0:0:0:0:
210,97,49830,2,0,B|196:74|196:74|216:4|216:4|278:43|278:43|281:73,1,202.500000772476,12|0,3:2|0:0,0:0:0:0:
118,188,50184,5,12,3:2:0:0:
379,93,51316,6,0,B|352:42|401:8|401:8|459:27|452:90,1,179.999994506836,4|8,3:2|0:0,0:0:0:0:
460,179,51668,2,0,P|390:136|288:133,1,179.999994506836,0|2,0:0|0:3,0:0:0:0:
210,0,52021,2,0,P|180:31|179:107,1,89.9999972534181,8|8,0:0|0:0,0:0:0:0:
300,348,52257,5,2,3:0:0:0:
341,289,52374,2,0,P|329:247|263:208,1,89.9999972534181,8|2,0:0|3:0,0:0:0:0:
39,236,52610,2,0,P|121:222|208:135,1,179.999994506836,8|2,0:0|0:3,0:0:0:0:
435,71,52963,2,0,L|282:47,1,134.999995880127,8|0,0:0|0:0,0:0:0:0:
301,50,53198,2,0,P|310:98|317:144,1,89.9999972534181,2|0,3:0|0:0,0:0:0:0:
254,281,53433,5,8,0:0:0:0:
244,286,53551,2,0,P|212:305|195:357,1,89.9999972534181,0|2,0:0|3:0,0:0:0:0:
423,217,53786,5,2,0:3:0:0:
352,258,53904,2,0,P|263:251|189:195,1,179.999994506836,8|2,0:0|3:0,0:0:0:0:
46,6,54257,6,0,P|19:34|10:103,1,89.9999972534181,8|2,0:0|3:0,0:0:0:0:
90,124,54492,2,0,P|116:95|125:26,1,89.9999972534181,8|2,0:0|3:0,0:0:0:0:
344,145,54727,5,2,0:3:0:0:
280,186,54845,2,0,L|173:201,1,89.9999972534181,8|2,0:0|0:3,0:0:0:0:
501,174,55080,6,0,B|532:123|508:90|508:90|454:65|453:14,1,179.999994506836,2|8,3:0|0:0,0:0:0:0:
375,261,55433,2,0,P|441:295|440:221,1,179.999994506836,0|2,0:0|0:3,0:0:0:0:
453,23,55786,2,0,L|365:8,1,89.9999972534181,8|8,0:0|0:0,0:0:0:0:
231,135,56021,2,0,L|142:150,1,89.9999972534181,2|8,3:0|0:0,0:0:0:0:
71,333,56257,5,0,0:0:0:0:
18,270,56374,2,0,B|62:248|62:248|201:288,1,179.999994506836,8|2,0:0|0:3,0:0:0:0:
351,357,56727,2,0,B|383:375|383:375|459:354,1,89.9999972534181,8|2,0:0|0:3,0:0:0:0:
416,230,56963,6,0,B|463:216|485:176|485:176|475:225|511:279,1,179.999994506836,2|8,3:0|0:0,0:0:0:0:
313,292,57316,1,0,0:0:0:0:
305,295,57433,2,0,P|275:328|274:372,1,89.9999972534181,0|2,0:0|0:3,0:0:0:0:
403,144,57668,6,0,P|353:139|294:53,1,134.999995880127,8|0,0:0|0:0,0:0:0:0:
270,59,57904,1,2,3:0:0:0:
201,108,58021,1,8,0:0:0:0:
174,29,58139,2,0,P|136:26|92:-1,1,89.9999972534181,2|8,3:0|0:0,0:0:0:0:
250,205,58374,2,0,P|225:242|220:286,1,89.9999972534181,2|2,3:0|0:3,0:0:0:0:
0,353,58610,2,0,B|58:328|58:328|115:372|173:350,1,179.999994506836,12|2,0:0|3:0,0:0:0:0:
276,122,58963,6,0,P|312:149|332:189,1,89.9999972534181,0|8,0:0|0:0,0:0:0:0:
487,329,59198,2,0,P|448:331|318:268,1,179.999994506836,0|2,0:0|0:3,0:0:0:0:
239,45,59551,2,0,P|205:74|189:116,1,89.9999972534181,8|0,0:0|0:0,0:0:0:0:
0,204,59786,5,2,3:0:0:0:
58,262,59904,1,8,0:0:0:0:
116,204,60021,2,0,L|99:100,1,89.9999972534181,2|8,3:0|0:0,0:0:0:0:
242,280,60257,2,0,L|227:368,1,89.9999972534181,2|2,3:0|0:3,0:0:0:0:
456,226,60492,1,8,0:0:0:0:
456,226,60727,6,0,B|413:159|322:183|322:183|337:212,1,179.999994506836,2|8,3:0|0:0,0:0:0:0:
388,359,61080,2,0,P|436:353|466:314,1,89.9999972534181,0|2,0:0|3:0,0:0:0:0:
256,226,61316,2,0,P|226:187|178:180,1,89.9999972534181,2|8,0:3|0:0,0:0:0:0:
102,223,61551,6,0,L|128:374,1,134.999995880127,8|0,0:0|0:0,0:0:0:0:
124,355,61786,2,0,P|79:354|43:379,2,89.9999972534181,8|2|8,0:0|3:0|0:0,0:0:0:0:
204,296,62139,1,2,3:0:0:0:
82,20,62374,2,0,B|62:62|62:62|75:128,1,89.9999972534181,8|2,0:0|0:3,0:0:0:0:
8,181,62610,6,0,P|84:138|196:135,1,179.999994506836,2|8,3:0|0:0,0:0:0:0:
394,133,62963,6,0,P|356:128|317:95,1,89.9999972534181,0|2,0:0|3:0,0:0:0:0:
240,62,63198,2,0,L|206:257,1,179.999994506836,2|2,0:3|0:3,0:0:0:0:
407,292,63551,6,0,B|418:313|418:313|400:375|400:375|345:340|345:340|339:315,1,179.999994506836,0|2,0:0|3:0,0:0:0:0:
509,177,63904,5,8,0:0:0:0:
477,250,64021,2,0,P|411:254|362:210,1,134.999995880127,2|0,3:0|0:0,0:0:0:0:
362,210,64257,2,0,P|356:168|380:125,1,89.9999972534181,8|8,0:0|0:0,0:0:0:0:
149,33,64492,6,0,B|218:23|218:23|263:37|263:37|340:27,1,179.999994506836,2|8,3:0|0:0,0:0:0:0:
334,21,64845,1,8,0:0:0:0:
419,52,64963,6,0,B|538:75|538:75|490:26,1,179.999994506836,2|8,3:0|0:0,0:0:0:0:
261,141,65316,5,8,0:0:0:0:
190,102,65433,2,0,L|76:117,1,89.9999972534181,2|8,3:0|0:0,0:0:0:0:
178,16,65668,2,0,L|64:31,1,89.9999972534181,2|8,3:0|0:0,0:0:0:0:
312,236,65904,5,8,3:2:0:0:
309,245,65983,1,8,0:0:0:0:
306,254,66062,1,8,0:0:0:0:
303,263,66139,2,0,L|295:300,2,37.5000014305115,8|8|8,0:0|0:0|0:0,0:0:0:0:
354,380,66374,6,0,P|301:329|188:323,1,179.999994506836,4|8,3:2|0:0,0:0:0:0:
121,284,66727,2,0,B|111:328|111:328|135:396,1,89.9999972534181,0|2,0:0|3:0,0:0:0:0:
0,153,66963,1,2,0:3:0:0:
64,200,67080,2,0,P|152:185|218:119,1,179.999994506836,8|2,0:0|3:0,0:0:0:0:
377,224,67433,6,0,P|405:242|429:302,1,89.9999972534181,8|2,0:0|3:0,0:0:0:0:
462,383,67668,2,0,L|498:168,1,179.999994506836,8|2,0:0|0:3,0:0:0:0:
295,104,68021,6,0,P|343:110|421:36,1,134.999995880127,8|0,0:0|0:0,0:0:0:0:
411,62,68257,2,0,P|418:107|427:154,1,89.9999972534181,2|0,3:0|0:0,0:0:0:0:
223,282,68492,5,8,0:0:0:0:
215,289,68610,2,0,P|175:300|129:341,1,89.9999972534181,0|2,0:0|3:0,0:0:0:0:
255,61,68845,5,2,0:3:0:0:
213,132,68963,2,0,B|205:182|245:222|255:195|298:225|300:275,1,179.999994506836,8|2,0:0|3:0,0:0:0:0:
53,348,69316,6,0,P|57:303|79:264,1,89.9999972534181,8|2,0:0|3:0,0:0:0:0:
2,181,69551,2,0,P|47:220|169:231,1,179.999994506836,8|2,0:0|0:3,0:0:0:0:
333,340,69904,2,0,P|365:310|372:267,1,89.9999972534181,8|2,0:0|0:3,0:0:0:0:
491,174,70139,6,0,B|445:153|424:115|424:115|398:148|337:142,1,179.999994506836,2|8,3:0|0:0,0:0:0:0:
232,75,70492,2,0,P|283:9|356:48,1,179.999994506836,0|2,0:0|0:3,0:0:0:0:
496,255,70845,2,0,P|464:285|454:329,1,89.9999972534181,8|8,0:0|0:0,0:0:0:0:
277,231,71080,6,0,P|244:200|234:157,1,89.9999972534181,2|8,3:0|0:0,0:0:0:0:
420,205,71316,1,0,0:0:0:0:
370,265,71433,2,0,P|282:261|204:305,1,179.999994506836,8|2,0:0|0:3,0:0:0:0:
120,283,71786,2,0,B|116:326|116:326|135:372,1,89.9999972534181,8|2,0:0|0:3,0:0:0:0:
13,147,72021,6,0,P|71:99|83:173,1,179.999994506836,2|8,3:0|0:0,0:0:0:0:
272,352,72374,2,0,P|246:316|204:305,1,89.9999972534181
80,270,72610,1,2,0:3:0:0:
84,276,72727,2,0,P|167:281|251:218,1,179.999994506836,8|2,0:0|3:0,0:0:0:0:
329,114,73080,5,8,0:0:0:0:
266,65,73198,2,0,P|216:57|165:50,1,89.9999972534181,2|8,3:0|0:0,0:0:0:0:
403,184,73433,6,0,L|410:224,2,37.5000014305115,2|0|0,3:0|0:0|0:0,0:0:0:0:
510,55,73668,2,0,P|468:69|443:105,1,89.9999972534181,12|0,0:0|0:0,0:0:0:0:
329,114,73904,6,0,P|417:121|501:194,1,179.999994506836,2|8,3:0|0:0,0:0:0:0:
292,313,74257,2,0,B|275:274|275:274|282:219,1,89.9999972534181
457,319,74492,5,2,0:3:0:0:
386,359,74610,2,0,B|277:325|318:390|185:338,1,179.999994506836,8|2,0:0|3:0,0:0:0:0:
42,257,74963,1,8,0:0:0:0:
104,203,75080,2,0,B|145:188|145:188|205:217,1,89.9999972534181,2|8,3:0|0:0,0:0:0:0:
128,384,75316,6,0,P|123:339|110:273,1,89.9999972534181,2|2,3:0|0:3,0:0:0:0:
287,100,75551,2,0,P|296:189|322:321,1,179.999994506836,8|2,0:0|3:0,0:0:0:0:
330,358,75904,6,0,P|370:340|393:299,1,89.9999972534181,0|8,0:0|0:0,0:0:0:0:
193,186,76139,2,0,B|128:163|128:163|74:202|-7:176,1,179.999994506836,8|2,0:0|0:3,0:0:0:0:
212,42,76492,1,8,0:0:0:0:
221,49,76610,2,0,L|375:29,1,134.999995880127,8|0,0:0|0:0,0:0:0:0:
375,7,76845,5,8,0:0:0:0:
441,47,76963,2,0,P|466:76|469:135,1,89.9999972534181,2|8,3:0|0:0,0:0:0:0:
319,193,77198,2,0,B|295:237|342:276|342:276|391:261|395:210,1,179.999994506836,2|8,3:0|0:0,0:0:0:0:
36,60,77668,6,0,P|81:66|132:75,1,89.9999972534181,2|0,3:0|0:0,0:0:0:0:
185,133,77904,2,0,B|142:233|208:189|160:311,1,179.999994506836,8|2,0:0|3:0,0:0:0:0:
0,384,78257,6,0,P|30:351|74:342,1,89.9999972534181,2|8,0:3|0:0,0:0:0:0:
252,249,78492,2,0,P|295:259|325:292,1,89.9999972534181,8|2,0:0|3:0,0:0:0:0:
406,370,78721,5,8,0:0:0:0:
392,366,78832,2,0,L|296:378,1,89.9999972534181,2|8,3:0|0:0,0:0:0:0:
419,223,79054,2,0,L|508:234,1,89.9999972534181,2|2,3:0|0:3,0:0:0:0:
392,50,79276,2,0,P|359:77|344:122,1,89.9999972534181,8|8,0:0|0:0,0:0:0:0:
156,137,79514,6,0,P|225:145|315:247,1,179.999994506836,2|8,3:0|0:0,0:0:0:0:
162,23,79868,1,2,0:3:0:0:
154,15,79986,2,0,P|85:23|-5:125,1,194.999991073609,0|2,0:0|3:0,0:0:0:0:
174,324,80340,5,8,0:0:0:0:
188,251,80458,2,0,L|198:201,2,37.5000014305115,8|8|8,3:2|0:0|0:0,0:0:0:0:
75,347,80695,2,0,L|82:383,2,37.5000014305115,8|8|8,3:2|0:0|0:0,0:0:0:0:
274,245,80931,6,0,L|332:256,2,50,8|8|8,3:2|0:0|0:0,0:0:0:0:
372,360,81167,6,0,B|372:315|418:294|418:294|442:253|401:214,1,168.750006437302,8|0,0:0|0:0,0:0:0:0:
405,218,81403,6,0,B|411:154|500:144|500:144|475:173|488:218,1,179.999994506836,4|8,3:2|0:0,0:0:0:0:
512,273,81757,1,2,0:3:0:0:
512,273,81875,2,0,P|505:314|497:382,1,89.9999972534181,0|0,3:0|0:0,0:0:0:0:
315,144,82111,2,0,P|321:102|330:35,1,89.9999972534181,12|8,0:0|0:0,0:0:0:0:
95,76,82347,5,2,3:0:0:0:
167,104,82465,2,0,P|200:126|216:194,1,89.9999972534181,8|2,0:0|3:0,0:0:0:0:
57,348,82702,2,0,P|77:261|132:191,1,179.999994506836,8|2,0:0|0:3,0:0:0:0:
300,160,83056,2,0,P|295:204|267:238,1,89.9999972534181,8|0,0:0|0:0,0:0:0:0:
207,384,83292,6,0,L|190:296,1,89.9999972534181,2|0,3:0|0:0,0:0:0:0:
378,114,83528,2,0,L|395:202,1,89.9999972534181,8|0,0:0|0:0,0:0:0:0:
99,308,83765,6,0,P|103:260|141:220,1,89.9999972534181,2|0,3:0|0:0,0:0:0:0:
356,343,84001,2,0,P|290:344|183:289,1,179.999994506836,8|2,0:0|3:0,0:0:0:0:
45,145,84355,2,0,L|141:127,1,89.9999972534181,8|2,0:0|3:0,0:0:0:0:
250,2,84591,6,0,P|241:48|232:98,1,89.9999972534181,8|2,0:0|3:0,0:0:0:0:
434,257,84828,2,0,P|443:211|452:161,1,89.9999972534181,2|8,0:3|0:0,0:0:0:0:
216,240,85064,5,0,0:0:0:0:
283,288,85182,2,0,B|378:283|363:348|455:343,1,179.999994506836,2|8,3:0|0:0,0:0:0:0:
241,147,85536,1,8,0:0:0:0:
164,166,85654,2,0,P|118:174|57:183,1,89.9999972534181,2|2,3:0|0:3,0:0:0:0:
306,47,85891,2,0,P|350:54|394:61,1,89.9999972534181,8|0,0:0|0:0,0:0:0:0:
401,302,86127,5,2,3:0:0:0:
335,259,86243,2,0,P|319:218|325:174,1,89.9999972534181,8|2,0:0|3:0,0:0:0:0:
488,45,86475,2,0,B|470:114|470:114|482:141|482:141|464:244,1,179.999994506836,8|8,0:0|0:0,0:0:0:0:
242,290,86824,2,0,L|261:391,1,89.9999972534181,2|8,3:0|0:0,0:0:0:0:
59,252,87058,6,0,P|98:251|154:196,1,97.4999955368044,2|8,3:0|0:0,0:0:0:0:
245,113,87281,2,0,P|263:78|244:2,1,97.4999955368044,2|8,3:0|0:0,0:0:0:0:
353,199,87505,5,8,0:0:0:0:
436,174,87617,1,8,0:0:0:0:
485,245,87729,1,8,0:0:0:0:
432,313,87841,1,6,3:2:0:0:
