osu file format v14

[General]
AudioFilename: audio.mp3
AudioLeadIn: 0
PreviewTime: 50644
Countdown: 0
SampleSet: Soft
StackLeniency: 0.7
Mode: 0
LetterboxInBreaks: 0
WidescreenStoryboard: 0

[Editor]
Bookmarks: 12785,27843,42862
DistanceSpacing: 1.3
BeatDivisor: 4
GridSize: 32
TimelineZoom: 4.099998

[Metadata]
Title:Gallop (TV Size)
TitleUnicode:ギャロップ (TV Size)
Artist:pe'zmoku
ArtistUnicode:pe'zmoku
Creator:-Mikan
Version:Noble
Source:BLEACH
Tags:irohas MugiwaraSekai akitoshi corinn -laura- frostwich synderes ducky- anime japanese ed ending 16 jazz Pe'z pezmoku suzumoku
BeatmapID:2548153
BeatmapSetID:1225198

[Difficulty]
HPDrainRate:5
CircleSize:4.2
OverallDifficulty:8.5
ApproachRate:9.3
SliderMultiplier:2.8
SliderTickRate:1

[Events]
//Background and Video events
0,0,"ippxQBA8tZM_1.jpg",0,0
Video,50,"[AniTousen] TV ED16 - Gallop (pe'zmoku).mp4"
//Break Periods
//Storyboard Layer 0 (Background)
//Storyboard Layer 1 (Fail)
//Storyboard Layer 2 (Pass)
//Storyboard Layer 3 (Foreground)
//Storyboard Layer 4 (Overlay)
//Storyboard Sound Samples

[TimingPoints]
1540,468.75,4,2,1,40,1,0
1540,-133.333333333333,4,2,1,40,0,0
3415,-50,4,2,1,50,0,0
3805,-100,4,2,1,50,0,0
4000,428.571428571429,4,2,1,50,1,0
4857,461.538461538462,4,2,1,50,1,0
5087,483.870967741935,4,2,1,50,1,0
5248,491.803278688525,4,2,1,60,1,0
6231,465.116279069767,4,2,1,60,1,0
7161,468.75,4,2,1,60,1,0
10911,-76.9230769230769,4,2,1,60,0,0
11145,-125,4,2,1,60,0,0
11379,437.956204379562,4,2,1,60,1,0
11743,461.538461538462,4,2,1,50,1,0
11743,-250,4,2,1,50,0,0
12785,476.190476190476,4,2,1,50,1,0
12785,-125,4,2,1,50,0,0
13261,588.235294117647,4,2,1,50,1,0
13408,476.190476190476,4,2,1,50,1,0
13408,-125,4,2,1,50,0,0
14241,468.75,4,2,1,50,1,0
14241,-125,4,2,1,50,0,0
14692,517.241379310345,4,2,1,50,1,0
14692,-125,4,2,1,50,0,0
14950,425.531914893617,4,2,1,50,1,0
15162,480,4,2,1,50,1,0
15162,-125,4,2,1,50,0,0
15882,447.761194029851,4,2,1,50,1,0
16106,458.015267175573,4,2,1,50,1,0
16106,-125,4,2,1,50,0,0
16564,472.44094488189,4,2,1,50,1,0
16564,-125,4,2,1,50,0,0
19398,465.116279069767,4,2,1,50,1,0
19630,-125,4,2,1,50,0,0
20328,472.44094488189,4,2,1,50,1,0
20564,-125,4,2,1,50,0,0
23162,461.538461538462,4,2,1,50,1,0
23392,-125,4,2,1,50,0,0
24546,472.44094488189,4,2,1,50,1,0
24546,-125,4,2,1,50,0,0
25490,480,4,2,1,50,1,0
25970,-125,4,2,1,50,0,0
26450,472.44094488189,4,2,1,50,1,0
26922,461.538461538462,4,2,1,50,1,0
26922,-125,4,2,1,50,0,0
27845,472.44094488189,4,2,1,50,1,0
27845,-166.666666666667,4,2,1,50,0,0
29734,-100,4,2,1,50,0,0
30089,-166.666666666667,4,2,1,50,0,0
31624,461.538461538462,4,2,1,50,1,0
31624,-100,4,2,1,50,0,0
31978,-166.666666666667,4,2,1,50,0,0
33470,483.870967741935,4,2,1,50,1,0
33470,-100,4,2,1,50,0,0
33953,472.44094488189,4,2,1,50,1,0
33953,-166.666666666667,4,2,1,50,0,0
35370,-100,4,2,1,50,0,0
35842,-166.666666666667,4,2,1,50,0,0
37260,-100,4,2,1,50,0,0
37732,-166.666666666667,4,2,1,50,0,0
38441,-100,4,2,1,50,0,0
38795,-166.666666666667,4,2,1,50,0,0
39142,465.116279069767,4,2,1,50,1,0
39955,-166.666666666667,4,2,1,50,0,0
40653,-100,4,2,1,50,0,0
41467,-166.666666666667,4,2,1,50,0,0
42165,-100,4,2,1,50,0,0
42397,-83.3333333333333,4,2,1,50,0,0
42630,-71.4285714285714,4,2,1,50,0,0
42862,472.44094488189,4,2,1,50,1,0
42862,-142.857142857143,4,2,1,50,0,0
43334,-200,4,2,1,50,0,0
43806,-142.857142857143,4,2,1,50,0,0
48531,-83.3333333333333,4,2,1,50,0,0
49239,-200,4,2,1,50,0,0
49358,-200,4,2,1,5,0,0
49476,-58.8235294117647,4,2,1,60,0,0
50184,-166.666666666667,4,2,1,60,0,0
50302,-166.666666666667,4,2,1,5,0,0
50421,447.761194029851,4,2,1,50,1,0
51316,470.588235294118,4,2,2,70,1,0
51316,-100,4,2,2,70,0,1
51551,-100,4,2,1,70,0,1
56963,-76.9230769230769,4,2,1,70,0,1
57316,-100,4,2,1,70,0,1
58610,-100,4,2,2,70,0,1
58727,-100,4,2,1,70,0,1
64963,-76.9230769230769,4,2,1,70,0,1
66374,-100,4,2,2,70,0,1
66610,-100,4,2,1,70,0,1
72374,-83.3333333333333,4,2,1,70,0,1
72727,-100,4,2,1,70,0,1
73668,-100,4,2,2,70,0,1
73786,-100,4,2,1,70,0,1
78610,444.444444444444,4,2,1,70,1,1
79276,476.190476190476,4,2,1,70,1,1
79514,472.44094488189,4,2,1,70,1,1
79514,-83.3333333333333,4,2,1,70,0,1
80222,-125,4,2,1,70,0,1
80931,-100,4,2,1,70,0,1
81403,-100,4,2,1,60,0,0
86127,465.116279069767,4,2,1,60,1,0
87058,447.761194029851,4,2,1,60,1,0
87841,-200,4,2,1,60,0,0
88401,-200,4,2,1,5,0,0

[Colours]
Combo1 : 0,128,64
Combo2 : 207,207,207
Combo3 : 132,187,255

[HitObjects]
154,35,1540,6,0,P|159:10|164:-1,2,26.2500010013581
0,98,1774,5,0,0:0:0:0:
80,140,1891,2,0,P|76:100|64:59,1,52.5000020027161,0|2,0:0|0:0,0:0:0:0:
187,197,2125,2,0,P|191:157|203:116,1,52.5000020027161
58,283,2360,2,0,P|54:243|42:202,1,52.5000020027161
146,323,2594,6,0,B|207:317|189:363|269:355,1,105.000004005432
310,384,2946,2,0,P|324:358|316:327,1,52.5000020027161,2|0,0:0|0:0,0:0:0:0:
393,287,3180,2,0,P|377:261|346:253,1,52.5000020027161
308,171,3415,6,0,P|295:183|314:182,8,46.6666666666667,8|0|0|0|0|0|0|0|0,3:2|3:0|3:0|3:0|3:0|3:0|3:0|3:0|3:0,3:0:0:0:
442,111,3805,2,0,P|459:110|445:123,1,46.6666666666667,0|0,3:0|0:0,0:0:0:0:
340,14,4000,2,0,P|351:56|360:117,1,93.3333333333333,0|0,3:0|3:0,0:0:0:0:
358,105,4214,1,8,0:0:0:0:
512,207,4321,5,8,0:0:0:0:
443,249,4428,2,0,P|407:236|379:231,2,46.6666666666667,8|8|8,0:0|0:0|0:3,0:0:0:0:
467,325,4642,2,0,P|503:312|531:307,1,46.6666666666667,8|8,0:0|0:0,0:0:0:0:
372,365,4785,5,8,0:0:0:0:
349,332,4857,1,8,0:0:0:0:
312,312,4933,1,8,0:0:0:0:
269,311,5010,1,8,0:0:0:0:
236,332,5087,2,0,L|242:359,3,23.3333333333333,8|8|8|8,0:0|0:0|0:0|0:0,0:0:0:0:
156,245,5248,6,0,B|79:276|79:276|37:254|59:207,1,140,4|8,3:2|0:0,0:0:0:0:
239,114,5616,1,0,0:0:0:0:
168,78,5739,2,0,L|160:175,1,70,2|0,3:0|0:0,0:0:0:0:
244,275,5985,2,0,P|252:234|250:204,1,70,8|0,0:0|0:0,0:0:0:0:
78,31,6231,5,2,3:0:0:0:
65,37,6347,2,0,P|57:78|59:108,1,70,8|2,0:0|3:0,0:0:0:0:
164,164,6579,2,0,L|246:151,1,70,8|2,0:0|3:0,0:0:0:0:
251,163,6812,1,0,0:0:0:0:
88,256,6928,2,0,P|59:259|80:273,1,70,8|0,0:0|0:0,0:0:0:0:
130,352,7161,6,0,B|204:321|273:387,1,140,2|8,3:0|0:0,0:0:0:0:
422,265,7512,1,0,0:0:0:0:
338,359,7629,2,0,P|345:313|357:277,1,70,2|0,3:0|0:0,0:0:0:0:
220,152,7864,2,0,L|231:236,1,70,8|0,0:0|0:0,0:0:0:0:
449,81,8098,5,0,3:0:0:0:
437,89,8215,2,0,P|387:82|361:69,1,70,8|2,0:0|3:0,0:0:0:0:
229,221,8450,2,0,L|312:210,1,70,8|2,0:0|3:0,0:0:0:0:
434,311,8684,1,0,0:0:0:0:
362,358,8801,2,0,B|351:322|351:322|351:279,1,70,8|0,0:0|0:0,0:0:0:0:
211,337,9036,6,0,B|133:332|156:279|69:280,1,140,2|8,3:2|0:0,0:0:0:0:
27,220,9387,1,0,0:0:0:0:
13,230,9504,2,0,P|-2:269|2:307,1,70,2|0,3:0|0:0,0:0:0:0:
129,187,9739,2,0,L|116:112,1,70,8|0,0:0|0:0,0:0:0:0:
250,1,9973,1,2,3:0:0:0:
286,70,10090,2,0,P|230:72|209:62,1,70,8|2,0:0|3:0,0:0:0:0:
404,223,10325,5,8,0:0:0:0:
405,212,10442,2,0,P|437:188|510:202,1,105,2|0,3:0|0:0,0:0:0:0:
417,115,10676,2,0,L|429:32,1,70,8|8,0:0|0:0,0:0:0:0:
420,37,10852,1,8,0:0:0:0:
412,29,10911,6,0,B|337:30|364:77|266:69,1,136.499993751526,4|0,3:2|0:0,0:0:0:0:
219,41,11145,2,0,L|228:-7,2,37.3333333333333,0|8|8,3:0|0:0|3:0,0:0:0:0:
146,96,11379,5,8,0:0:0:0:
125,118,11451,1,8,0:0:0:0:
99,125,11524,1,8,0:0:0:0:
71,126,11597,1,8,0:0:0:0:
48,119,11670,1,8,0:0:0:0:
48,119,11743,6,0,P|31:171|37:209,1,84,2|0,3:2|0:0,0:0:0:0:
150,298,12319,2,0,P|154:261|159:239,1,56,8|0,0:0|0:0,0:0:0:0:
55,381,12785,6,0,P|107:339|214:370,1,168,4|0,3:2|0:0,0:0:0:0:
297,282,13261,1,10,0:0:0:0:
280,271,13408,2,0,P|276:239|270:215,1,56
463,58,13646,5,0,0:0:0:0:
502,121,13765,1,2,3:2:0:0:
451,177,13884,1,8,0:0:0:0:
435,166,14003,2,0,L|357:156,1,56,0|0,0:0|3:0,0:0:0:0:
229,81,14241,2,0,P|178:92|105:103,1,112,10|2,0:0|0:0,0:0:0:0:
119,101,14592,1,0,0:0:0:0:
326,0,14692,6,0,L|310:128,1,112,0|0,3:0|0:0,0:0:0:0:
379,158,15056,1,0,3:0:0:0:
315,215,15162,1,10,0:0:0:0:
306,198,15282,2,0,P|273:191|242:188,1,56
407,296,15522,2,0,L|481:285,2,56,0|2|8,0:0|3:2|0:0,0:0:0:0:
299,361,15882,5,0,0:0:0:0:
242,306,15993,1,0,3:0:0:0:
168,326,16106,2,0,P|168:359|164:383,1,56,10|0,0:0|0:0,0:0:0:0:
315,215,16335,2,0,P|316:250|321:275,1,56,2|0,0:0|0:0,0:0:0:0:
160,142,16564,5,2,3:2:0:0:
93,186,16682,1,8,0:0:0:0:
24,148,16800,2,0,P|11:94|5:77,1,56,0|0,0:0|3:0,0:0:0:0:
168,326,17036,2,0,P|179:235|188:189,1,112,10|0,0:0|0:0,0:0:0:0:
182,215,17390,1,0,0:0:0:0:
21,264,17508,5,2,3:2:0:0:
36,278,17626,2,0,P|81:267|104:263,1,56,8|0,0:0|0:0,0:0:0:0:
160,142,17863,1,0,3:0:0:0:
175,128,17981,2,0,P|220:139|243:143,1,56,10|0,0:0|0:0,0:0:0:0:
305,217,18217,2,0,P|347:210|377:209,1,56,2|0,0:0|0:0,0:0:0:0:
481,130,18453,6,0,P|515:73|481:21,1,112,0|0,3:0|0:0,0:0:0:0:
403,143,18808,1,0,0:0:0:0:
451,202,18926,2,0,P|438:285|432:344,1,112,10|0,0:0|0:0,0:0:0:0:
434,312,19280,1,0,0:0:0:0:
373,358,19398,1,2,3:2:0:0:
309,313,19514,1,8,0:0:0:0:
294,329,19630,2,0,P|261:335|232:340,1,56,0|0,0:0|3:0,0:0:0:0:
36,278,19863,2,0,P|110:268|163:255,1,112,10|2,0:0|0:0,0:0:0:0:
192,197,20211,1,0,0:0:0:0:
136,142,20328,5,2,3:2:0:0:
136,142,20564,2,0,L|147:47,1,56,0|0,0:0|3:0,0:0:0:0:
58,11,20800,1,10,0:0:0:0:
42,22,20918,2,0,P|32:57|36:93,1,56
192,197,21154,6,0,P|242:187|270:185,1,56,0|2,0:0|3:2,0:0:0:0:
366,242,21390,1,8,0:0:0:0:
355,258,21508,2,0,P|320:268|284:264,1,56,0|0,0:0|3:0,0:0:0:0:
344,113,21745,6,0,B|416:124|416:124|428:148|450:156,1,112,10|0,0:0|0:0,0:0:0:0:
512,35,22099,1,0,0:0:0:0:
495,33,22217,2,0,L|482:98,1,56,2|8,3:2|0:0,0:0:0:0:
355,258,22453,6,0,P|357:215|376:182,1,56,0|0,0:0|3:0,0:0:0:0:
505,370,22690,2,0,P|457:336|382:353,1,112,10|0,0:0|0:0,0:0:0:0:
406,338,23044,1,8,0:0:0:0:
341,384,23162,1,2,3:2:0:0:
264,364,23277,1,8,0:0:0:0:
229,294,23392,2,0,L|280:285,2,37.3333333333333,2|0|0,0:0|3:0|3:0,0:0:0:0:
162,346,23623,6,0,B|95:345|128:302|36:300,1,112,10|0,0:0|0:0,0:0:0:0:
7,250,23969,1,0,0:0:0:0:
51,186,24085,1,2,3:2:0:0:
51,186,24315,6,0,L|119:179,1,56,0|0,0:0|3:0,0:0:0:0:
209,106,24546,1,10,0:0:0:0:
198,88,24664,2,0,P|162:79|128:85,1,56
48,37,24900,6,0,L|60:112,1,56,0|2,0:0|3:2,0:0:0:0:
170,237,25136,1,8,0:0:0:0:
187,231,25254,2,0,P|191:187|183:161,1,56,0|0,0:0|3:0,0:0:0:0:
41,339,25490,6,0,P|147:345|201:356,1,140,10|0,0:0|0:0,0:0:0:0:
240,297,25850,1,0,0:0:0:0:
204,231,25970,1,2,3:2:0:0:
198,229,26090,1,0,0:0:0:0:
192,229,26210,1,0,0:0:0:0:
187,231,26330,1,0,3:0:0:0:
240,297,26450,6,0,B|328:290|286:242|392:237,1,140,10|0,0:0|0:0,0:0:0:0:
469,310,26804,1,8,0:0:0:0:
406,372,26922,2,0,P|398:334|385:298,1,56,2|0,3:2|0:0,0:0:0:0:
477,189,27152,1,2,0:0:0:0:
501,198,27268,1,0,3:0:0:0:
426,129,27383,6,0,L|348:147,1,56,8|0,0:0|3:0,0:0:0:0:
221,55,27614,1,2,0:0:0:0:
283,8,27729,1,0,0:0:0:0:
301,18,27845,6,0,L|293:112,1,83.9999974365235,4|0,3:2|0:0,0:0:0:0:
232,144,28199,1,0,1:0:0:0:
228,151,28317,2,0,P|187:148|160:138,1,41.9999987182618,2|0,0:3|0:0,0:0:0:0:
322,236,28553,2,0,P|363:239|390:249,1,41.9999987182618,8|0,0:1|3:0,0:0:0:0:
267,291,28789,5,0,3:0:0:0:
426,129,29026,1,8,0:1:0:0:
433,125,29144,1,0,3:0:0:0:
440,121,29262,2,0,L|425:49,1,41.9999987182618,2|8,3:0|0:1,0:0:0:0:
336,60,29498,2,0,L|351:-12,1,41.9999987182618,2|0,0:3|3:0,0:0:0:0:
512,202,29734,6,0,B|429:190|469:241|359:226,1,140,8|8,3:1|0:1,0:0:0:0:
313,267,30089,1,0,3:0:0:0:
305,276,30207,2,0,L|318:325,1,41.9999987182618,2|8,3:0|0:1,0:0:0:0:
226,382,30443,1,2,0:3:0:0:
228,373,30561,1,8,0:1:0:0:
230,364,30679,1,2,3:0:0:0:
447,358,30915,5,8,0:1:0:0:
264,209,31152,1,2,3:0:0:0:
225,192,31270,1,8,0:1:0:0:
191,217,31388,1,0,0:0:0:0:
151,203,31506,1,8,0:0:0:0:
116,227,31624,6,0,B|101:314|101:314|132:340|154:324,1,140,2|0,3:0|0:0,0:0:0:0:
51,182,31970,1,8,0:1:0:0:
40,173,32085,2,0,P|-5:184|-30:188,1,41.9999987182618,2|0,3:0|0:0,0:0:0:0:
123,77,32316,2,0,P|143:72|163:66,1,41.9999987182618,8|0,0:1|3:0,0:0:0:0:
56,33,32547,5,0,3:0:0:0:
225,192,32777,1,8,0:1:0:0:
233,189,32893,1,0,3:0:0:0:
241,187,33008,2,0,P|233:144|228:133,1,41.9999987182618,2|0,3:2|1:0,0:0:0:0:
116,227,33239,2,0,P|124:184|129:173,1,41.9999987182618,2|0,0:3|1:0,0:0:0:0:
226,291,33412,5,0,1:0:0:0:
226,291,33470,2,0,P|290:330|360:305,1,140,2|8,3:0|0:1,0:0:0:0:
420,348,33832,1,0,3:0:0:0:
428,346,33953,2,0,P|437:308|437:286,1,41.9999987182618,2|0,3:0|1:0,0:0:0:0:
348,169,34189,1,2,0:3:0:0:
340,172,34307,1,0,1:0:0:0:
333,176,34425,2,0,L|342:244,1,41.9999987182618,2|0,3:0|0:0,0:0:0:0:
467,116,34661,5,8,0:1:0:0:
372,26,34897,1,0,3:0:0:0:
336,60,35015,1,0,1:0:0:0:
290,48,35134,2,8,L|293:25,3,13.9999995727539,8|8|8|8,0:0|0:0|0:0|0:1,0:0:0:0:
205,135,35370,6,0,B|220:216|220:216|201:255|149:234,1,140,2|0,3:0|0:0,0:0:0:0:
300,170,35724,1,8,3:2:0:0:
306,164,35842,2,0,P|354:169|367:170,1,41.9999987182618,2|0,3:0|0:0,0:0:0:0:
193,44,36078,1,8,0:1:0:0:
185,47,36197,1,0,3:0:0:0:
177,50,36315,1,0,3:0:0:0:
266,0,36551,5,8,0:1:0:0:
172,166,36787,1,2,3:0:0:0:
131,188,36905,1,8,0:1:0:0:
84,188,37023,1,2,0:3:0:0:
42,167,37141,1,0,3:0:0:0:
25,120,37260,2,0,P|35:208|40:270,1,140,8|8,3:1|0:1,0:0:0:0:
102,313,37614,5,0,3:0:0:0:
114,309,37732,2,0,P|123:262|119:242,1,41.9999987182618,2|8,3:0|0:1,0:0:0:0:
254,186,37968,2,0,P|245:233|249:253,1,41.9999987182618,2|8,0:3|0:1,0:0:0:0:
351,354,38204,1,0,3:0:0:0:
351,354,38441,6,0,P|273:305|212:328,1,140,8|2,0:1|3:0,0:0:0:0:
414,259,38795,2,0,P|438:257|476:253,1,41.9999987182618,8|2,0:1|0:3,0:0:0:0:
315,82,39031,5,0,3:0:0:0:
304,89,39142,2,0,B|328:232|328:232|329:193|359:164,1,210,8|0,3:1|1:0,0:0:0:0:
174,123,39607,6,0,B|103:192|30:125|101:110|120:158,1,140,2|0,3:0|1:0,0:0:0:0:
198,215,39955,1,0,0:0:0:0:
202,222,40072,2,0,P|239:225|263:229,1,41.9999987182618,2|0,3:0|0:0,0:0:0:0:
321,318,40304,5,8,0:1:0:0:
319,326,40421,1,0,3:0:0:0:
317,334,40537,1,0,3:0:0:0:
316,342,40653,2,0,P|385:376|470:354,1,140,0|0,1:0|3:0,0:0:0:0:
480,198,41002,2,0,P|411:164|326:186,1,140,8|0,0:1|0:0,0:0:0:0:
290,125,41351,5,0,1:0:0:0:
287,121,41467,2,0,P|298:77|297:63,1,41.9999987182618,2|0,3:0|0:0,0:0:0:0:
402,260,41700,2,0,P|391:304|392:318,1,41.9999987182618,8|0,0:1|3:0,0:0:0:0:
316,342,41932,1,2,3:0:0:0:
68,22,42165,6,8,L|60:68,3,35
212,126,42397,6,8,L|204:73,3,41.9999987182618
80,194,42630,6,8,L|71:244,3,48.9999985046387
192,217,42862,6,0,B|280:210|249:264|343:251,1,146.999995513916,4|8,3:2|0:0,0:0:0:0:
391,300,43334,2,0,P|413:248|404:217,1,70,2|0,0:0|3:0,0:0:0:0:
331,169,43688,5,0,0:0:0:0:
320,168,43806,2,0,P|292:123|314:57,1,97.9999970092774,10|0,0:0|0:0,0:0:0:0:
457,49,44161,2,0,P|485:94|463:160,1,97.9999970092774,8|0,0:0|0:0,0:0:0:0:
395,123,44515,1,0,3:0:0:0:
392,113,44633,1,0,3:0:0:0:
389,103,44751,1,2,3:2:0:0:
512,317,44987,5,0,0:0:0:0:
445,362,45106,1,8,0:0:0:0:
429,346,45224,2,0,L|446:233,1,97.9999970092774,2|0,0:0|3:0,0:0:0:0:
370,223,45578,1,0,0:0:0:0:
364,232,45696,2,0,B|316:237|316:237|312:235|312:235|246:243,2,97.9999970092774,10|0|2,0:0|0:0|0:0,0:0:0:0:
479,136,46405,1,0,0:0:0:0:
2,184,46641,5,12,0:0:0:0:
103,80,46877,1,0,3:0:0:0:
111,89,46995,2,0,P|103:118|101:148,1,48.9999985046387,0|0,0:0|3:0,0:0:0:0:
186,268,47232,2,0,L|178:208,1,48.9999985046387,0|2,0:0|3:2,0:0:0:0:
253,161,47468,5,0,0:3:0:0:
331,169,47586,1,10,0:0:0:0:
392,121,47704,1,0,0:3:0:0:
391,43,47822,1,2,3:2:0:0:
377,47,47940,1,0,0:3:0:0:
469,100,48058,5,8,0:0:0:0:
478,98,48137,1,8,0:0:0:0:
487,96,48216,1,8,0:0:0:0:
496,94,48295,2,8,L|489:145,2,32.6666656697591
377,47,48531,6,0,B|269:31|269:31|255:65|199:75,1,167.999994873047,4|0,3:2|0:0,0:0:0:0:
43,185,48885,6,0,B|148:168|148:168|189:197|177:248,1,167.999994873047,4|0,3:2|0:0,0:0:0:0:
263,324,49239,6,0,L|253:381,1,35,2|0,3:2|0:0,0:0:0:0:
512,216,49476,6,0,B|485:253|381:301|312:191|412:130|448:189,1,238.00000453949,12|0,3:2|0:0,0:0:0:0:
225,68,49830,6,0,B|298:25|298:25|256:195,1,238.00000453949,12|0,3:2|0:0,0:0:0:0:
95,276,50184,6,0,P|59:279|30:285,1,41.9999987182618,12|0,3:2|0:0,0:0:0:0:
53,279,51316,6,0,B|135:291|101:342|206:348,1,140,4|8,3:2|0:0,0:0:0:0:
243,381,51668,2,0,P|248:323|232:281,1,70,0|2,0:0|3:0,0:0:0:0:
430,172,51904,1,2,0:3:0:0:
339,133,52021,2,0,L|357:231,1,70,8|8,0:0|0:0,0:0:0:0:
433,281,52257,5,2,3:0:0:0:
444,290,52374,2,0,P|496:279|534:279,1,70,8|2,0:0|3:0,0:0:0:0:
443,69,52610,2,0,P|495:80|533:80,1,70,8|2,0:0|3:0,0:0:0:0:
451,167,52845,1,2,0:3:0:0:
430,172,52963,1,8,0:0:0:0:
409,177,53080,1,2,0:3:0:0:
281,57,53198,6,0,B|241:52|193:42|193:42|179:76|138:87,1,140,2|8,3:0|0:0,0:0:0:0:
33,24,53551,2,0,P|74:20|105:13,1,70,0|2,0:0|3:0,0:0:0:0:
252,160,53786,1,2,0:3:0:0:
178,225,53904,2,0,P|168:173|177:131,1,70,8|8,0:0|0:0,0:0:0:0:
45,272,54139,5,2,3:0:0:0:
53,279,54257,2,0,L|45:374,1,70,8|2,0:0|3:0,0:0:0:0:
306,243,54492,2,0,L|314:338,1,70,8|2,0:0|3:0,0:0:0:0:
169,156,54727,1,2,0:3:0:0:
183,131,54845,1,8,0:0:0:0:
173,104,54963,1,2,0:3:0:0:
106,12,55080,6,0,P|193:54|259:18,1,140,2|8,3:0|0:0,0:0:0:0:
69,155,55433,2,0,L|-35:147,1,70,0|2,0:0|3:0,0:0:0:0:
222,293,55668,1,2,0:3:0:0:
155,370,55786,2,0,P|141:303|130:266,1,70,8|8,0:0|0:0,0:0:0:0:
252,159,56021,5,2,3:0:0:0:
331,200,56139,2,0,P|408:237|492:196,1,140,8|8,0:0|0:0,0:0:0:0:
352,336,56492,2,0,P|279:348|267:353,1,70,2|2,3:0|0:3,0:0:0:0:
493,136,56727,2,0,P|420:124|408:119,1,70,8|2,0:0|0:3,0:0:0:0:
229,42,56963,6,0,B|269:-2|269:-2|243:159,1,181.999991668702,2|8,3:0|0:0,0:0:0:0:
165,144,57316,2,0,P|101:177|11:126,1,140,0|2,0:0|0:3,0:0:0:0:
184,240,57668,2,0,P|233:249|255:257,1,70,8|0,0:0|0:0,0:0:0:0:
352,336,57904,5,2,3:0:0:0:
439,297,58021,1,8,0:0:0:0:
470,362,58139,5,2,3:0:0:0:
357,251,58257,1,8,0:0:0:0:
374,229,58374,1,2,3:0:0:0:
366,202,58492,1,2,0:3:0:0:
304,155,58610,6,0,L|229:170,1,70,12|0,0:0|3:0,0:0:0:0:
376,42,58845,6,0,B|460:82|460:82|481:58|534:51,1,140,2|8,3:0|0:0,0:0:0:0:
308,146,59198,2,0,L|154:180,1,140,0|2,0:0|0:3,0:0:0:0:
152,264,59551,2,0,P|189:267|224:251,1,70,8|0,0:0|0:0,0:0:0:0:
107,60,59786,5,2,3:0:0:0:
35,141,59904,1,8,0:0:0:0:
0,68,60021,5,2,3:0:0:0:
118,176,60139,1,8,0:0:0:0:
144,183,60257,1,2,3:0:0:0:
171,176,60374,1,2,0:3:0:0:
240,111,60492,6,0,P|232:70|228:34,1,70,8|2,0:0|0:3,0:0:0:0:
22,306,60727,6,0,B|103:310|76:260|158:264,1,140,2|8,3:0|0:0,0:0:0:0:
224,238,61080,2,0,P|237:302|226:332,1,70,0|2,0:0|3:0,0:0:0:0:
41,176,61316,1,2,0:3:0:0:
54,173,61433,2,0,L|62:97,1,70,8|8,0:0|0:0,0:0:0:0:
155,29,61668,5,2,3:0:0:0:
240,111,61786,1,8,0:0:0:0:
292,27,61904,5,2,3:0:0:0:
286,34,62021,1,8,0:0:0:0:
332,112,62139,6,0,P|333:144|337:187,1,70,2|2,3:0|0:3,0:0:0:0:
152,263,62374,2,0,P|151:228|146:187,1,70,8|2,0:0|0:3,0:0:0:0:
369,331,62610,6,0,B|449:312|449:312|487:340|458:383,1,140,2|8,3:0|0:0,0:0:0:0:
302,254,62963,1,0,0:0:0:0:
298,260,63080,2,0,L|222:254,1,70,2|2,3:0|0:3,0:0:0:0:
499,103,63316,1,8,0:0:0:0:
434,40,63433,2,0,L|417:197,1,140,2|8,0:3|0:0,0:0:0:0:
240,111,63786,5,2,3:0:0:0:
316,57,63904,1,8,0:0:0:0:
218,9,64021,5,2,3:0:0:0:
221,15,64139,1,2,0:3:0:0:
224,21,64257,2,0,P|162:31|126:34,1,70,8|8,0:0|0:0,0:0:0:0:
0,69,64492,6,0,B|75:74|34:136|149:137,1,140,2|8,3:0|0:0,0:0:0:0:
138,121,64845,1,8,0:0:0:0:
336,180,64963,2,0,B|288:162|246:189|246:189|224:246|158:243,1,181.999991668702,2|8,3:0|0:0,0:0:0:0:
160,225,65316,1,8,0:0:0:0:
23,373,65433,5,2,3:0:0:0:
121,340,65551,1,8,0:0:0:0:
57,289,65668,5,2,3:0:0:0:
222,354,65786,1,8,0:0:0:0:
205,209,65904,5,8,3:2:0:0:
196,212,65982,1,8,0:0:0:0:
187,215,66061,1,8,0:0:0:0:
178,218,66139,1,8,0:0:0:0:
169,221,66217,1,8,0:0:0:0:
160,225,66296,1,8,0:0:0:0:
151,227,66374,6,0,L|176:50,1,140,4|8,3:2|0:0,0:0:0:0:
111,26,66727,2,0,P|91:70|95:106,1,70,0|2,0:0|3:0,0:0:0:0:
305,186,66963,1,2,0:3:0:0:
312,193,67080,2,0,P|367:182|397:180,1,70,8|8,0:0|0:0,0:0:0:0:
487,32,67316,5,2,3:0:0:0:
510,110,67433,2,0,L|414:91,1,70,8|2,0:0|3:0,0:0:0:0:
324,13,67668,2,0,L|339:85,1,70,8|2,0:0|3:0,0:0:0:0:
459,233,67904,1,2,0:3:0:0:
467,213,68021,1,8,0:0:0:0:
468,191,68139,1,2,0:3:0:0:
347,274,68257,6,0,P|275:312|213:290,1,140,2|8,3:0|0:0,0:0:0:0:
144,267,68610,2,0,L|156:345,1,70,0|2,0:0|3:0,0:0:0:0:
47,122,68845,1,2,0:3:0:0:
0,188,68963,2,0,P|65:198|101:189,1,70,8|2,0:0|0:3,0:0:0:0:
219,127,69198,5,2,3:0:0:0:
196,113,69316,2,0,L|183:24,1,70,8|2,0:0|3:0,0:0:0:0:
370,250,69551,2,0,L|383:161,1,70,8|2,0:0|3:0,0:0:0:0:
224,294,69786,1,2,0:3:0:0:
280,345,69904,1,8,0:0:0:0:
269,358,70021,1,2,0:3:0:0:
191,384,70139,6,0,B|112:383|144:332|36:333,1,140,2|8,3:0|0:0,0:0:0:0:
0,261,70492,2,0,P|41:261|81:237,1,70,0|2,0:0|3:0,0:0:0:0:
219,127,70727,1,2,0:3:0:0:
133,73,70845,2,0,L|142:149,1,70,8|8,0:0|0:0,0:0:0:0:
275,231,71080,5,2,3:0:0:0:
330,165,71198,2,0,P|406:133|480:149,1,140,8|8,0:0|0:0,0:0:0:0:
334,65,71551,2,0,P|273:53|256:48,1,70,2|2,3:0|0:3,0:0:0:0:
512,220,71786,2,0,P|451:232|434:237,1,70,8|2,0:0|0:3,0:0:0:0:
279,339,72021,6,0,B|206:328|241:283|141:277,1,140,2|8,3:0|0:0,0:0:0:0:
0,357,72374,2,0,B|43:389|43:389|20:273,1,167.999994873047,0|2,0:0|0:3,0:0:0:0:
105,165,72727,2,0,P|106:201|86:243,1,70,8|8,0:0|0:0,0:0:0:0:
42,104,72963,5,2,3:0:0:0:
186,170,73080,1,8,0:0:0:0:
231,105,73198,5,2,3:0:0:0:
93,232,73316,1,8,0:0:0:0:
109,254,73433,1,2,3:0:0:0:
135,263,73551,1,8,0:0:0:0:
228,238,73668,6,0,P|283:231|313:229,1,70,12|0,0:0|0:0,0:0:0:0:
487,361,73904,6,0,P|404:376|359:330,1,140,2|8,3:0|0:0,0:0:0:0:
412,270,74257,2,0,L|385:125,1,140,0|2,0:0|0:3,0:0:0:0:
452,61,74610,2,0,P|474:115|473:141,1,70,8|8,0:0|0:0,0:0:0:0:
291,186,74845,5,2,3:0:0:0:
204,131,74963,1,8,0:0:0:0:
279,105,75080,5,2,3:0:0:0:
106,196,75198,1,8,0:0:0:0:
46,120,75316,5,2,3:0:0:0:
49,106,75433,1,2,0:3:0:0:
54,93,75551,2,0,P|117:108|137:109,1,70,8|8,0:0|0:0,0:0:0:0:
277,272,75786,6,0,B|208:271|218:327|134:318,1,140,2|8,3:0|0:0,0:0:0:0:
82,361,76139,2,0,P|66:293|82:266,1,70,8|2,0:0|3:0,0:0:0:0:
204,131,76374,1,2,0:3:0:0:
209,135,76492,2,0,L|201:224,1,70,8|8,0:0|0:0,0:0:0:0:
54,93,76727,5,2,3:0:0:0:
173,44,76845,1,8,0:0:0:0:
89,19,76963,5,2,3:0:0:0:
279,105,77080,1,8,0:0:0:0:
343,68,77198,6,0,P|350:17|360:-14,1,70,2|2,3:0|0:3,0:0:0:0:
121,229,77433,2,0,P|114:178|104:147,1,70,8|2,0:0|0:3,0:0:0:0:
335,330,77668,6,0,P|388:316|464:381,1,140,2|8,3:0|0:0,0:0:0:0:
448,372,78021,1,8,0:0:0:0:
334,238,78139,2,0,L|256:247,1,70,2|2,3:0|0:3,0:0:0:0:
444,136,78374,2,0,L|529:153,1,70,8|8,0:0|0:0,0:0:0:0:
356,0,78610,5,2,3:0:0:0:
315,67,78721,1,8,0:0:0:0:
243,102,78832,1,2,3:0:0:0:
164,105,78943,1,8,0:0:0:0:
95,66,79054,1,2,3:0:0:0:
100,54,79165,5,2,0:3:0:0:
12,104,79276,2,0,P|15:129|22:107,1,70,8|8,0:0|0:0,0:0:0:0:
84,223,79514,6,0,P|159:181|248:204,1,167.999994873047,2|8,3:0|0:0,0:0:0:0:
263,341,79868,2,0,P|188:383|99:360,1,167.999994873047,2|8,0:3|0:0,0:0:0:0:
291,263,80222,2,0,L|350:255,1,56,2|8,3:0|0:0,0:0:0:0:
506,172,80458,6,0,L|515:121,2,37.3333333333333,8|8|8,3:2|0:0|0:0,0:0:0:0:
430,226,80695,6,0,L|436:262,2,37.3333333333333,8|8|8,3:2|0:0|0:0,0:0:0:0:
502,357,80931,5,8,3:2:0:0:
491,366,81010,1,8,0:0:0:0:
477,370,81088,1,8,0:0:0:0:
463,373,81167,1,8,0:0:0:0:
449,370,81246,1,8,0:0:0:0:
438,364,81325,1,8,0:0:0:0:
380,311,81403,6,0,B|296:299|296:299|254:321|264:365,1,140,4|8,3:2|0:0,0:0:0:0:
84,223,81757,1,2,0:3:0:0:
146,170,81875,2,0,L|159:244,1,70,0|0,3:0|0:0,0:0:0:0:
315,67,82111,2,0,L|302:141,1,70,12|8,0:0|0:0,0:0:0:0:
359,191,82347,5,2,3:0:0:0:
368,201,82465,2,0,P|426:207|449:198,1,70,8|2,0:0|3:0,0:0:0:0:
228,69,82702,2,0,P|170:63|147:72,1,70,8|2,0:0|3:0,0:0:0:0:
399,26,82938,1,2,0:3:0:0:
320,0,83056,2,0,L|334:82,1,70,8|0,0:0|0:0,0:0:0:0:
207,201,83292,6,0,P|135:239|68:208,1,140,2|8,3:0|0:0,0:0:0:0:
76,198,83647,1,0,0:0:0:0:
193,331,83765,2,0,L|267:340,1,70,2|0,3:0|0:0,0:0:0:0:
83,384,84001,2,0,P|78:338|67:295,1,70,8|8,0:0|0:0,0:0:0:0:
204,122,84237,5,2,3:0:0:0:
213,131,84355,2,0,L|205:218,1,70,8|2,0:0|3:0,0:0:0:0:
26,80,84591,2,0,P|76:71|113:60,1,70,8|2,0:0|3:0,0:0:0:0:
295,6,84828,1,2,0:3:0:0:
284,14,84946,2,0,P|234:5|197:-6,1,70,8|0,0:0|0:0,0:0:0:0:
363,149,85182,6,0,B|439:143|412:92|496:88,1,140,2|8,3:0|0:0,0:0:0:0:
342,247,85536,1,8,0:0:0:0:
278,206,85654,2,0,P|270:152|256:111,1,70,2|2,3:0|0:3,0:0:0:0:
429,313,85891,2,0,P|437:259|451:218,1,70,8|0,0:0|0:0,0:0:0:0:
269,328,86127,5,2,3:0:0:0:
350,375,86243,1,8,0:0:0:0:
341,294,86359,5,2,3:0:0:0:
201,370,86475,1,8,0:0:0:0:
137,321,86592,6,0,P|126:262|117:236,1,70,2|8,3:0|0:0,0:0:0:0:
274,67,86824,2,0,L|264:147,1,70,2|8,3:0|0:0,0:0:0:0:
11,83,87058,5,2,3:0:0:0:
143,35,87169,1,8,0:0:0:0:
56,0,87281,5,2,3:0:0:0:
195,93,87393,1,8,0:0:0:0:
107,178,87505,5,8,0:0:0:0:
89,158,87617,1,8,0:0:0:0:
97,136,87729,1,8,0:0:0:0:
221,196,87841,6,0,L|199:382,1,175,6|0,3:2|0:0,0:0:0:0:
