osu file format v14

[General]
AudioFilename: audio.mp3
AudioLeadIn: 0
PreviewTime: 50644
Countdown: 0
SampleSet: Soft
StackLeniency: 0.5
Mode: 0
LetterboxInBreaks: 0
WidescreenStoryboard: 1

[Editor]
Bookmarks: 12785,27843,42862
DistanceSpacing: 1.3
BeatDivisor: 4
GridSize: 8
TimelineZoom: 2.799999

[Metadata]
Title:Gallop (TV Size)
TitleUnicode:ギャロップ (TV Size)
Artist:pe'zmoku
ArtistUnicode:pe'zmoku
Creator:-Mikan
Version:Irohas' Expert
Source:BLEACH
Tags:irohas MugiwaraSekai akitoshi corinn -laura- frostwich synderes ducky- anime japanese ed ending 16 jazz Pe'z pezmoku suzumoku
BeatmapID:2603431
BeatmapSetID:1225198

[Difficulty]
HPDrainRate:5
CircleSize:4.5
OverallDifficulty:8
ApproachRate:9.2
SliderMultiplier:2.8
SliderTickRate:1

[Events]
//Background and Video events
0,0,"ippxQBA8tZM_1.jpg",0,0
Video,50,"[AniTousen] TV ED16 - Gallop (pe'zmoku).mp4"
//Break Periods
//Storyboard Layer 0 (Background)
//Storyboard Layer 1 (Fail)
//Storyboard Layer 2 (Pass)
//Storyboard Layer 3 (Foreground)
//Storyboard Layer 4 (Overlay)
//Storyboard Sound Samples

[TimingPoints]
1540,468.75,4,2,1,40,1,0
1540,-133.333333333333,4,2,1,40,0,0
3415,-50,4,2,1,50,0,0
3805,-100,4,2,1,50,0,0
4000,428.571428571429,4,2,1,50,1,0
4000,-90.9090909090909,4,2,1,50,0,0
4571,-90.9090909090909,4,2,1,50,0,0
4857,461.538461538462,4,2,1,50,1,0
5087,483.870967741935,4,2,1,50,1,0
5248,491.803278688525,4,2,1,60,1,0
5248,-90.9090909090909,4,2,1,60,0,0
6231,465.116279069767,4,2,1,60,1,0
6231,-90.9090909090909,4,2,1,60,0,0
7161,468.75,4,2,1,60,1,0
7161,-90.9090909090909,4,2,1,60,0,0
10911,-90.9090909090909,4,2,1,60,0,0
11145,-83.3333333333333,4,2,1,60,0,0
11379,437.956204379562,4,2,1,60,1,0
11379,-83.3333333333333,4,2,1,60,0,0
11743,461.538461538462,4,2,1,50,1,0
11743,-250,4,2,1,50,0,0
12319,-142.857142857143,4,2,1,50,0,0
12785,476.190476190476,4,2,1,50,1,0
12785,-111.111111111111,4,2,1,50,0,0
13261,588.235294117647,4,2,1,50,1,0
13261,-111.111111111111,4,2,1,50,0,0
13408,476.190476190476,4,2,1,50,1,0
13408,-111.111111111111,4,2,1,50,0,0
14241,468.75,4,2,1,50,1,0
14241,-111.111111111111,4,2,1,50,0,0
14692,517.241379310345,4,2,1,50,1,0
14692,-100,4,2,1,50,0,0
14950,425.531914893617,4,2,1,50,1,0
14950,-117.647058823529,4,2,1,50,0,0
15162,480,4,2,1,50,1,0
15162,-111.111111111111,4,2,1,50,0,0
15882,447.761194029851,4,2,1,50,1,0
16106,458.015267175573,4,2,1,50,1,0
16106,-100,4,2,1,50,0,0
16564,472.44094488189,4,2,1,50,1,0
16564,-100,4,2,1,50,0,0
19398,465.116279069767,4,2,1,50,1,0
19630,-100,4,2,1,50,0,0
20328,472.44094488189,4,2,1,50,1,0
20564,-100,4,2,1,50,0,0
23162,461.538461538462,4,2,1,50,1,0
23392,-100,4,2,1,50,0,0
24546,472.44094488189,4,2,1,50,1,0
24546,-100,4,2,1,50,0,0
25490,480,4,2,1,50,1,0
25970,-100,4,2,1,50,0,0
26450,472.44094488189,4,2,1,50,1,0
26804,-99.009900990099,4,2,1,50,0,0
26922,461.538461538462,4,2,1,50,1,0
26922,-100,4,2,1,50,0,0
27845,472.44094488189,4,2,1,50,1,0
27845,-117.647058823529,4,2,1,50,0,0
29734,-117.647058823529,4,2,1,50,0,0
30089,-117.647058823529,4,2,1,50,0,0
31624,461.538461538462,4,2,1,50,1,0
31624,-117.647058823529,4,2,1,50,0,0
31978,-117.647058823529,4,2,1,50,0,0
33470,483.870967741935,4,2,1,50,1,0
33470,-117.647058823529,4,2,1,50,0,0
33953,472.44094488189,4,2,1,50,1,0
33953,-117.647058823529,4,2,1,50,0,0
35370,-117.647058823529,4,2,1,50,0,0
35842,-117.647058823529,4,2,1,50,0,0
37260,-117.647058823529,4,2,1,50,0,0
37732,-117.647058823529,4,2,1,50,0,0
38795,-111.111111111111,4,2,1,50,0,0
39142,465.116279069767,4,2,1,50,1,0
39142,-117.647058823529,4,2,1,50,0,0
39955,-111.111111111111,4,2,1,50,0,0
40653,-111.111111111111,4,2,1,50,0,0
41467,-117.647058823529,4,2,1,50,0,0
42165,-100,4,2,1,50,0,0
42397,-100,4,2,1,50,0,0
42630,-100,4,2,1,50,0,0
42862,472.44094488189,4,2,1,50,1,0
42862,-142.857142857143,4,2,1,50,0,0
43334,-142.857142857143,4,2,1,50,0,0
43806,-142.857142857143,4,2,1,50,0,0
46995,-111.111111111111,4,2,1,50,0,0
47586,-90.909090909091,4,2,1,50,0,0
47822,-76.9230769230769,4,2,1,50,0,0
48295,-90.9090909090909,4,2,1,50,0,0
48531,-90.9090909090909,4,2,1,50,0,0
49358,-83.3333333333333,4,2,1,5,0,0
49476,-44.2477876106195,4,2,1,60,0,0
50184,-100,4,2,1,60,0,0
50302,-166.666666666667,4,2,1,5,0,0
50421,447.761194029851,4,2,1,50,1,0
51316,470.588235294118,4,2,2,70,1,0
51316,-86.9565217391304,4,2,2,70,0,1
51551,-86.9565217391304,4,2,1,70,0,1
56963,-86.9565217391303,4,2,1,70,0,1
58610,-86.9565217391303,4,2,2,70,0,1
58727,-86.9565217391303,4,2,1,70,0,1
62786,-86.9565217391303,4,2,1,5,0,1
62845,-86.9565217391303,4,2,1,70,0,1
64492,-74.0740740740741,4,2,1,70,0,1
64963,-57.1428571428571,4,2,1,70,0,1
65433,-51.2820512820513,4,2,1,70,0,1
65904,-66.6666666666667,4,2,1,70,0,1
66374,-86.9565217391303,4,2,2,70,0,1
66610,-86.9565217391303,4,2,1,70,0,1
73668,-86.9565217391303,4,2,2,70,0,1
73786,-86.9565217391303,4,2,1,70,0,1
78610,444.444444444444,4,2,1,70,1,1
78610,-86.9565217391303,4,2,1,70,0,1
79276,476.190476190476,4,2,1,70,1,1
79276,-86.9565217391303,4,2,1,70,0,1
79514,472.44094488189,4,2,1,70,1,1
79514,-83.3333333333333,4,2,1,70,0,1
80222,-83.3333333333333,4,2,1,70,0,1
80458,-100,4,2,1,70,0,1
80931,-100,4,2,1,70,0,1
81403,-90.9090909090909,4,2,1,60,0,0
86127,465.116279069767,4,2,1,60,1,0
86127,-90.9090909090909,4,2,1,60,0,0
87058,447.761194029851,4,2,1,60,1,0
87841,-200,4,2,1,60,0,0
88401,-200,4,2,1,5,0,0

[Colours]
Combo1 : 0,128,64
Combo2 : 207,207,207
Combo3 : 132,187,255

[HitObjects]
329,323,1540,5,0,0:0:0:0:
331,307,1657,1,0,0:0:0:0:
333,291,1774,1,0,0:0:0:0:
336,276,1891,1,0,0:0:0:0:
284,195,2125,5,0,0:0:0:0:
192,169,2360,1,0,0:0:0:0:
98,183,2594,1,0,0:0:0:0:
23,242,2829,1,0,0:0:0:0:
0,333,3063,1,0,0:0:0:0:
236,36,3297,1,0,0:0:0:0:
465,187,3415,2,0,L|515:179,8,46.6666666666667,8|0|0|0|0|0|0|0|0,3:2|3:0|3:0|3:0|3:0|3:0|3:0|3:0|3:0,3:0:0:0:
391,140,3805,5,0,3:0:0:0:
280,272,4000,2,0,P|274:243|267:208,2,51.3333348999024,0|0|0,3:0|0:0|3:0,0:0:0:0:
340,353,4214,1,8,0:0:0:0:
340,353,4321,1,8,0:0:0:0:
360,384,4428,2,0,P|365:356|370:329,1,51.3333348999024,8|8,0:0|0:0,0:0:0:0:
252,374,4571,6,0,P|188:339|111:356,1,154.000004699707,8|8,0:3|0:0,0:0:0:0:
5,273,4857,1,8,0:0:0:0:
23,270,4933,1,8,0:0:0:0:
43,266,5010,1,8,0:0:0:0:
58,263,5087,1,8,0:0:0:0:
179,124,5248,6,0,P|170:201|160:281,1,154.000004699707,4|8,3:2|0:0,0:0:0:0:
253,337,5616,1,0,0:0:0:0:
253,337,5739,2,0,P|254:298|237:254,1,77.0000023498536,2|0,3:0|0:0,0:0:0:0:
164,384,5985,2,0,P|126:371|83:375,1,77.0000023498536,8|0,0:0|0:0,0:0:0:0:
241,262,6231,5,2,3:0:0:0:
327,304,6347,2,0,L|413:292,1,77.0000023498536,8|2,0:0|3:0,0:0:0:0:
512,215,6579,2,0,L|435:204,1,77.0000023498536,8|2,0:0|3:0,0:0:0:0:
371,127,6812,2,0,P|379:89|391:40,1,77.0000023498536,0|8,0:0|0:0,0:0:0:0:
298,174,7044,5,0,0:0:0:0:
298,174,7161,2,0,P|234:139|157:156,1,154.000004699707,2|8,3:0|0:0,0:0:0:0:
42,90,7512,1,0,0:0:0:0:
42,90,7629,2,0,P|78:83|127:73,1,77.0000023498536,2|0,3:0|0:0,0:0:0:0:
62,238,7864,2,0,P|52:200|66:159,1,77.0000023498536,8|0,0:0|0:0,0:0:0:0:
150,283,8098,1,0,3:0:0:0:
76,341,8215,6,0,L|-7:330,1,77.0000023498536,8|2,0:0|3:0,0:0:0:0:
225,235,8450,2,0,L|308:246,1,77.0000023498536,8|2,0:0|3:0,0:0:0:0:
122,122,8684,2,0,P|132:165|137:207,1,77.0000023498536,0|8,0:0|0:0,0:0:0:0:
230,321,8918,5,0,0:0:0:0:
230,321,9036,2,0,B|301:330|307:276|387:297,1,154.000004699707,2|8,3:2|0:0,0:0:0:0:
452,348,9387,1,0,0:0:0:0:
452,348,9504,2,0,P|467:309|459:268,1,77.0000023498536,2|0,3:0|0:0,0:0:0:0:
350,181,9739,2,0,P|356:224|362:266,1,77.0000023498536,8|0,0:0|0:0,0:0:0:0:
304,374,9973,1,2,3:0:0:0:
230,321,10090,6,0,B|184:303|184:303|138:346|83:328,1,154.000004699707,8|8,0:0|0:0,0:0:0:0:
4,257,10442,1,2,3:0:0:0:
4,257,10559,1,0,0:0:0:0:
4,257,10676,2,0,P|51:249|94:242,1,77.0000023498536,8|8,0:0|0:0,0:0:0:0:
169,172,10911,6,0,P|100:140|24:157,1,154.000004699707,4|0,3:2|3:0,0:0:0:0:
21,145,11223,2,0,P|15:116|8:81,1,55.9999982910157,8|8,0:0|3:0,0:0:0:0:
86,244,11379,2,0,P|80:271|74:298,1,55.9999982910157,8|8,0:0|0:0,0:0:0:0:
141,374,11524,1,8,0:0:0:0:
157,371,11597,1,8,0:0:0:0:
173,369,11670,1,8,0:0:0:0:
185,367,11743,6,0,L|226:374,1,28,2|0,3:2|0:0,0:0:0:0:
450,363,12319,6,0,L|387:376,1,48.9999985046387,8|0,0:0|0:0,0:0:0:0:
385,382,12785,6,0,P|396:312|411:247,1,125.999996154785,4|0,3:2|0:0,0:0:0:0:
325,168,13142,1,0,0:0:0:0:
325,168,13261,2,0,L|336:235,1,62.9999980773926,10|0,0:0|0:0,0:0:0:0:
283,304,13527,1,0,0:0:0:0:
279,308,13646,2,0,P|219:322|160:287,1,125.999996154785,0|8,0:0|0:0,0:0:0:0:
92,245,14003,2,0,P|60:251|23:258,1,62.9999980773926,0|0,0:0|3:0,0:0:0:0:
173,185,14241,2,0,L|244:199,1,62.9999980773926,10|0,0:0|0:0,0:0:0:0:
77,93,14475,2,0,P|83:123|90:154,1,62.9999980773926,2|0,0:0|0:0,0:0:0:0:
77,93,14692,5,0,3:0:0:0:
254,319,14950,2,0,P|320:309|379:300,1,119.000002269745,0|10,0:0|0:0,0:0:0:0:
470,280,15282,2,0,P|481:318|476:351,1,62.9999980773926
410,206,15522,2,0,P|421:134|440:66,1,125.999996154785,0|8,0:0|0:0,0:0:0:0:
384,9,15882,2,0,P|422:-4|458:2,1,70,0|0,0:0|3:0,0:0:0:0:
325,79,16106,2,0,L|248:67,1,70,10|0,0:0|0:0,0:0:0:0:
129,11,16335,2,0,L|201:0,1,70,2|0,0:0|0:0,0:0:0:0:
39,81,16564,5,2,3:2:0:0:
1,150,16682,2,0,P|60:115|133:120,1,140,8|0,0:0|3:0,0:0:0:0:
211,158,17036,2,0,P|215:117|225:79,1,70,10|0,0:0|0:0,0:0:0:0:
142,210,17272,1,0,0:0:0:0:
142,210,17390,2,0,L|155:292,1,70,0|2,0:0|3:2,0:0:0:0:
220,342,17626,1,8,0:0:0:0:
150,384,17745,2,0,B|84:394|74:341|6:360,2,140,0|10|2,0:0|0:0|0:0,0:0:0:0:
260,277,18335,5,0,0:0:0:0:
260,277,18453,2,0,P|257:241|242:199,1,70,0|0,3:0|0:0,0:0:0:0:
376,384,18689,2,0,P|380:349|394:306,1,70
443,250,18926,2,0,L|533:235,1,70,10|0,0:0|0:0,0:0:0:0:
271,375,19162,2,0,B|234:362|234:362|188:399|137:384,1,140,0|2,0:0|3:2,0:0:0:0:
23,249,19514,1,8,0:0:0:0:
0,334,19630,2,0,P|41:326|78:319,1,70,0|0,0:0|3:0,0:0:0:0:
159,256,19863,2,0,P|174:287|172:334,1,70,10|0,0:0|0:0,0:0:0:0:
86,211,20095,2,0,L|98:134,1,70,2|0,0:0|0:0,0:0:0:0:
31,67,20328,5,2,3:2:0:0:
219,178,20564,2,0,P|283:193|348:150,1,140,0|10,0:0|0:0,0:0:0:0:
418,224,20918,2,0,L|404:307,1,70
458,384,21154,2,0,B|392:394|382:341|314:360,1,140,0|8,0:0|0:0,0:0:0:0:
264,290,21509,2,0,P|299:276|343:280,1,70,0|0,0:0|3:0,0:0:0:0:
425,217,21745,2,0,P|388:210|345:203,1,70,10|0,0:0|0:0,0:0:0:0:
197,357,21981,2,0,P|234:364|277:371,1,70
130,267,22217,6,0,P|33:282|7:312,2,140,2|0|10,3:2|0:0|0:0,0:0:0:0:
216,140,22926,1,0,0:0:0:0:
216,140,23044,2,0,P|210:99|199:54,1,70,8|2,0:0|3:2,0:0:0:0:
300,183,23277,2,0,B|366:193|376:140|444:159,1,140,8|0,0:0|0:0,0:0:0:0:
505,106,23623,2,0,P|508:73|496:39,1,70,10|0,0:0|0:0,0:0:0:0:
434,156,23854,2,0,P|439:190|443:225,1,70
512,335,24085,6,0,P|454:308|380:323,1,140,2|0,3:2|0:0,0:0:0:0:
305,355,24431,1,0,3:0:0:0:
243,286,24546,1,10,0:0:0:0:
243,286,24664,2,0,P|246:250|256:218,1,70
305,355,24900,6,0,B|229:345|246:394|153:383,1,140,0|8,0:0|0:0,0:0:0:0:
82,304,25254,2,0,L|155:290,1,70,0|0,0:0|3:0,0:0:0:0:
19,379,25490,5,10,0:0:0:0:
168,204,25730,1,0,0:0:0:0:
168,204,25850,1,0,0:0:0:0:
168,204,25970,2,0,P|161:163|148:121,1,70,2|0,3:2|0:0,0:0:0:0:
254,14,26210,2,0,L|241:91,1,70,0|0,0:0|3:0,0:0:0:0:
317,165,26450,2,0,P|372:175|435:120,1,140,10|0,0:0|0:0,0:0:0:0:
231,264,26804,2,0,P|168:236|97:251,1,140,8|0,0:0|0:0,0:0:0:0:
0,197,27152,6,0,L|77:182,1,70,2|0,0:0|3:0,0:0:0:0:
124,337,27383,2,0,L|46:351,1,70,8|0,0:0|3:0,0:0:0:0:
231,264,27614,2,0,L|299:276,1,70,2|0,0:0|0:0,0:0:0:0:
379,341,27845,6,0,P|402:287|382:225,1,119.000002269745,4|0,3:2|0:0,0:0:0:0:
319,186,28199,1,0,1:0:0:0:
319,186,28317,2,0,P|287:195|250:197,1,59.5000011348725,2|0,0:3|0:0,0:0:0:0:
391,136,28553,2,0,L|456:147,1,59.5000011348725,8|0,0:1|3:0,0:0:0:0:
314,40,28789,6,0,L|326:110,1,59.5000011348725,0|0,3:0|0:0,0:0:0:0:
234,198,29026,2,0,L|244:139,1,59.5000011348725,8|0,0:1|3:0,0:0:0:0:
148,47,29262,2,0,L|160:117,1,59.5000011348725,2|8,3:0|0:1,0:0:0:0:
70,183,29498,2,0,P|72:152|85:124,1,59.5000011348725,2|0,0:3|3:0,0:0:0:0:
132,258,29734,6,0,P|72:286|20:269,1,119.000002269745,8|8,3:1|0:1,0:0:0:0:
276,377,30207,2,0,L|341:366,1,59.5000011348725,2|8,3:0|0:1,0:0:0:0:
501,239,30443,1,2,0:3:0:0:
433,177,30561,2,0,P|423:235|413:294,1,119.000002269745,8|0,0:1|0:0,0:0:0:0:
483,383,30915,2,0,P|491:346|487:321,1,59.5000011348725,8|0,0:1|0:0,0:0:0:0:
413,294,31152,6,0,L|354:305,1,59.5000011348725,2|8,3:0|0:1,0:0:0:0:
276,377,31388,2,0,P|216:353|156:364,1,119.000002269745,0|2,0:0|3:0,0:0:0:0:
0,253,31854,2,0,L|61:241,1,59.5000011348725,0|8,0:0|0:1,0:0:0:0:
141,165,32085,2,0,P|134:223|124:293,1,119.000002269745,2|8,3:0|0:1,0:0:0:0:
163,360,32431,1,0,3:0:0:0:
163,360,32547,2,0,P|190:355|235:348,1,59.5000011348725,0|0,3:0|0:0,0:0:0:0:
278,298,32777,2,0,P|305:302|350:310,1,59.5000011348725,8|0,0:1|3:0,0:0:0:0:
430,374,33008,2,0,P|399:378|361:387,1,59.5000011348725,2|0,3:2|1:0,0:0:0:0:
474,262,33239,2,0,P|491:293|491:320,1,59.5000011348725,2|0,0:3|1:0,0:0:0:0:
389,253,33470,6,0,P|399:196|411:126,1,119.000002269745,2|8,3:0|0:1,0:0:0:0:
230,64,33953,1,2,3:0:0:0:
262,0,34071,2,0,P|272:57|284:127,1,119.000002269745,0|0,1:0|1:0,0:0:0:0:
218,187,34425,2,0,P|164:164|101:177,1,119.000002269745,2|8,3:0|0:1,0:0:0:0:
23,149,34779,1,0,0:0:0:0:
23,149,34897,2,0,L|33:210,1,59.5000011348725,0|0,3:0|1:0,0:0:0:0:
84,347,35134,2,8,L|88:327,3,19.8333337116242,8|8|8|8,0:0|0:0|0:0|0:1,0:0:0:0:
16,299,35370,6,0,P|68:290|143:278,1,119.000002269745,2|0,3:0|0:0,0:0:0:0:
214,240,35724,1,8,3:2:0:0:
220,247,35842,2,0,L|210:315,1,59.5000011348725,2|0,3:0|0:0,0:0:0:0:
270,373,36078,2,0,P|300:365|332:366,1,59.5000011348725,8|0,0:1|3:0,0:0:0:0:
468,274,36315,2,0,P|419:298|352:277,1,119.000002269745,0|8,3:0|0:1,0:0:0:0:
300,222,36669,1,0,0:0:0:0:
300,222,36787,2,0,L|312:151,1,59.5000011348725,2|8,3:0|0:1,0:0:0:0:
214,81,37023,2,0,L|226:152,1,59.5000011348725,2|0,0:3|3:0,0:0:0:0:
323,54,37260,5,8,3:1:0:0:
139,194,37496,2,0,P|81:209|28:175,1,119.000002269745,8|2,0:1|3:0,0:0:0:0:
200,252,37850,2,0,P|252:244|320:234,1,119.000002269745,8|8,0:1|0:1,0:0:0:0:
411,182,38204,2,0,P|405:217|401:240,1,59.5000011348725,0|0,3:0|0:0,0:0:0:0:
501,316,38441,2,0,P|506:286|511:257,1,59.5000011348725,8|0,0:1|0:0,0:0:0:0:
397,321,38677,5,2,3:0:0:0:
325,357,38795,2,0,P|234:364|211:386,1,125.999996154785,8|0,0:1|3:0,0:0:0:0:
211,384,39142,5,8,3:1:0:0:
42,241,39374,1,0,0:0:0:0:
38,244,39490,1,0,1:0:0:0:
0,339,39607,2,0,P|60:328|133:315,1,119.000002269745,2|0,3:0|1:0,0:0:0:0:
199,288,39955,1,0,0:0:0:0:
194,286,40072,2,0,B|188:261|175:252|175:252|195:150,1,125.999996154785,2|8,3:0|0:1,0:0:0:0:
130,102,40421,1,0,3:0:0:0:
126,98,40537,2,0,L|58:112,1,62.9999980773926,0|0,3:0|1:0,0:0:0:0:
240,15,40769,2,0,L|172:1,1,62.9999980773926,0|0,0:0|3:0,0:0:0:0:
310,86,41002,6,0,B|380:84|363:52|441:55,2,125.999996154785,8|0|2,0:1|0:0|3:0,0:0:0:0:
244,147,41583,1,0,0:0:0:0:
249,153,41700,2,0,P|253:184|258:214,1,59.5000011348725,8|0,0:1|3:0,0:0:0:0:
331,298,41932,2,0,P|340:271|333:240,1,59.5000011348725,2|0,3:0|0:0,0:0:0:0:
257,211,42165,6,8,L|216:204,3,35
165,155,42397,2,8,L|128:162,3,35
69,212,42630,2,8,L|30:206,3,35
0,138,42862,6,0,P|9:195|24:289,1,146.999995513916,4|8,3:2|0:0,0:0:0:0:
87,360,43334,2,0,P|49:387|-5:383,1,97.9999970092775,2|0,0:0|3:0,0:0:0:0:
223,283,43806,2,0,P|338:297|360:315,1,146.999995513916,10|8,0:0|0:0,0:0:0:0:
438,283,44279,2,0,P|444:252|433:277,1,97.9999970092775,2|0,0:0|3:0,0:0:0:0:
311,16,44751,6,0,B|294:8|294:8|230:43|266:126,1,146.999995513916,2|8,3:2|0:0,0:0:0:0:
198,182,45224,2,0,L|142:173,1,48.9999985046387,2|0,0:0|0:0,0:0:0:0:
93,167,45460,2,0,L|149:158,1,48.9999985046387,0|0,3:0|0:0,0:0:0:0:
16,99,45696,5,10,0:0:0:0:
243,274,45932,1,0,0:0:0:0:
243,274,46050,1,0,0:0:0:0:
243,274,46169,2,0,P|284:253|344:260,1,97.9999970092775,2|0,0:0|0:0,0:0:0:0:
437,317,46641,5,12,0:0:0:0:
247,143,46877,1,0,3:0:0:0:
181,184,46995,2,0,L|112:174,1,62.9999980773926,0|0,0:0|3:0,0:0:0:0:
50,229,47232,2,0,P|39:166|29:99,1,125.999996154785,0|0,0:0|0:3,0:0:0:0:
140,307,47586,2,0,P|66:351|-3:333,1,154.000004699707,10|2,0:0|3:2,0:0:0:0:
235,245,48058,2,0,L|294:255,5,60.6666638895672,8|8|8|8|8|8,0:0|0:0|0:0|0:0|0:0|0:0,0:0:0:0:
363,336,48531,6,0,L|356:375,1,38.5000011749268,4|0,3:2|0:0,0:0:0:0:
227,207,48885,6,0,L|235:250,1,38.5000011749268,4|0,3:2|0:0,0:0:0:0:
386,61,49239,6,0,L|377:105,1,38.5000011749268,2|0,3:2|0:0,0:0:0:0:
497,254,49476,6,0,B|384:327|277:281|289:167|383:158|409:195,1,316.400000965576,12|0,3:2|0:0,0:0:0:0:
0,363,49830,6,0,B|52:252|162:220|220:313|165:378|105:365,1,316.400000965576,12|0,3:2|0:0,0:0:0:0:
225,178,50184,6,0,P|224:205|233:180,1,70,12|0,3:2|0:0,0:0:0:0:
38,306,51316,6,0,B|118:315|110:255|198:273,1,161.000003070831,4|8,3:2|0:0,0:0:0:0:
265,223,51668,1,0,0:0:0:0:
265,223,51786,2,0,P|282:262|276:301,1,80.5000015354157,2|2,3:0|0:3,0:0:0:0:
182,179,52021,2,0,P|190:128|197:88,1,80.5000015354157,8|8,0:0|0:0,0:0:0:0:
61,266,52257,5,2,3:0:0:0:
0,190,52374,2,0,P|48:182|84:175,1,80.5000015354157,8|2,0:0|3:0,0:0:0:0:
108,345,52610,2,0,P|60:353|24:360,1,80.5000015354157,8|2,0:0|3:0,0:0:0:0:
194,263,52845,1,2,0:3:0:0:
194,263,52963,2,0,L|286:278,1,80.5000015354157,8|2,0:0|0:3,0:0:0:0:
398,205,53198,6,0,P|304:162|250:179,1,161.000003070831,2|8,3:0|0:0,0:0:0:0:
149,108,53551,1,0,0:0:0:0:
149,108,53668,2,0,P|194:98|235:89,1,80.5000015354157,2|2,3:0|0:3,0:0:0:0:
333,5,53904,2,0,L|324:87,1,80.5000015354157,8|8,0:0|0:0,0:0:0:0:
398,205,54139,5,2,3:0:0:0:
464,156,54257,2,0,P|466:110|447:72,1,80.5000015354157,8|2,0:0|3:0,0:0:0:0:
398,300,54492,2,0,P|446:316|487:301,1,80.5000015354157,8|2,0:0|3:0,0:0:0:0:
312,223,54727,1,2,0:3:0:0:
312,223,54845,2,0,L|217:238,1,80.5000015354157,8|2,0:0|0:3,0:0:0:0:
118,311,55080,6,0,P|97:263|142:162,1,161.000003070831,2|8,3:0|0:0,0:0:0:0:
83,101,55433,1,0,0:0:0:0:
83,101,55551,2,0,P|31:114|-3:114,1,80.5000015354157,2|2,3:0|0:3,0:0:0:0:
156,2,55786,2,0,P|173:44|168:86,1,80.5000015354157,8|8,0:0|0:0,0:0:0:0:
24,220,56021,2,0,P|9:177|16:135,1,80.5000015354157,2|8,3:0|0:0,0:0:0:0:
134,167,56257,2,0,B|204:140|213:202|302:174,1,161.000003070831,0|2,0:0|3:0,0:0:0:0:
435,75,56610,1,2,0:3:0:0:
348,45,56727,2,0,L|359:125,1,80.5000015354157,8|2,0:0|0:3,0:0:0:0:
463,222,56963,6,0,P|474:183|446:132,1,80.5000015354157,2|0,3:0|0:0,0:0:0:0:
292,270,57198,1,8,0:0:0:0:
379,315,57316,2,0,L|390:235,1,80.5000015354157
476,316,57551,1,2,0:3:0:0:
283,264,57668,2,0,B|225:273|225:273|203:303|203:303|129:316,1,161.000003070831,8|2,0:0|3:0,0:0:0:0:
31,249,58021,6,0,B|66:228|66:228|112:238,1,80.5000015354157,8|2,0:0|3:0,0:0:0:0:
245,89,58257,2,0,B|257:127|257:127|240:170,1,80.5000015354157,8|2,0:0|3:0,0:0:0:0:
354,353,58492,1,2,0:3:0:0:
351,359,58610,2,0,B|310:366|310:366|270:344,1,80.5000015354157,12|0,0:0|3:0,0:0:0:0:
213,270,58845,6,0,P|273:261|386:245,1,161.000003070831,2|8,3:0|0:0,0:0:0:0:
438,183,59198,1,0,0:0:0:0:
438,183,59316,2,0,P|395:169|359:177,1,80.5000015354157,0|2,0:0|0:3,0:0:0:0:
295,112,59551,2,0,P|303:66|315:19,1,80.5000015354157,8|0,0:0|0:0,0:0:0:0:
210,186,59786,1,2,3:0:0:0:
136,118,59904,6,0,L|50:102,1,80.5000015354157,8|2,0:0|3:0,0:0:0:0:
293,243,60139,2,0,L|379:227,1,80.5000015354157,8|2,0:0|3:0,0:0:0:0:
141,321,60374,1,2,0:3:0:0:
222,380,60492,2,0,P|228:330|236:287,1,80.5000015354157,8|2,0:0|0:3,0:0:0:0:
210,186,60727,6,0,P|117:214|51:216,1,161.000003070831,2|8,3:0|0:0,0:0:0:0:
233,300,61080,2,0,P|266:314|315:304,1,80.5000015354157,0|2,0:0|3:0,0:0:0:0:
449,141,61316,2,0,P|409:133|372:148,1,80.5000015354157,2|8,0:3|0:0,0:0:0:0:
308,225,61551,6,0,B|377:235|377:235|394:255|394:255|470:265,1,161.000003070831,8|8,0:0|0:0,0:0:0:0:
384,374,61904,2,0,B|365:338|365:338|380:292,1,80.5000015354157,2|8,3:0|0:0,0:0:0:0:
501,182,62139,2,0,B|516:217|516:217|506:265,1,80.5000015354157,2|2,3:0|0:3,0:0:0:0:
308,214,62374,2,0,P|347:206|389:198,1,80.5000015354157,8|2,0:0|0:3,0:0:0:0:
255,366,62610,6,0,P|211:328|153:335,1,120.750002303124,2|0,3:0|0:0,0:0:0:0:
141,332,62845,2,0,B|134:320|134:320|145:254,1,80.5000015354157,8|0,0:0|0:0,0:0:0:0:
52,117,63080,1,2,3:0:0:0:
16,208,63198,2,0,L|96:193,1,80.5000015354157,2|8,0:3|0:0,0:0:0:0:
222,73,63433,5,2,0:3:0:0:
222,73,63551,2,0,P|116:30|76:47,1,161.000003070831,0|2,0:0|3:0,0:0:0:0:
259,155,63904,1,8,0:0:0:0:
329,88,64021,2,0,P|321:37|316:4,1,80.5000015354157,2|2,3:0|0:3,0:0:0:0:
446,144,64257,2,0,L|430:222,1,80.5000015354157,8|8,0:0|0:0,0:0:0:0:
396,333,64492,6,0,B|309:301|299:384|202:347,1,189.000000720978,2|8,3:0|0:0,0:0:0:0:
47,190,64845,1,8,0:0:0:0:
56,183,64963,2,0,B|143:160|143:160|107:315,1,245.000002336502,2|8,3:0|0:0,0:0:0:0:
251,200,65316,1,8,0:0:0:0:
241,194,65433,5,2,3:0:0:0:
213,60,65551,1,8,0:0:0:0:
340,31,65668,1,2,3:0:0:0:
374,163,65786,1,8,0:0:0:0:
288,135,65904,6,0,B|300:115|300:115|294:94|294:94|318:115,5,70.0000026702882,8|8|8|8|8|8,3:2|0:0|0:0|0:0|0:0|0:0,0:0:0:0:
225,207,66374,6,0,P|144:224|76:175,1,161.000003070831,4|8,3:2|0:0,0:0:0:0:
21,120,66727,1,0,0:0:0:0:
21,120,66845,2,0,P|65:114|106:104,1,80.5000015354157,2|2,3:0|0:3,0:0:0:0:
128,260,67080,2,0,P|83:265|39:274,1,80.5000015354157,8|8,0:0|0:0,0:0:0:0:
219,205,67316,5,2,3:0:0:0:
289,285,67433,2,0,P|304:242|297:200,1,80.5000015354157,8|2,0:0|3:0,0:0:0:0:
146,90,67668,2,0,P|129:132|134:174,1,80.5000015354157,8|2,0:0|3:0,0:0:0:0:
311,117,67904,1,2,0:3:0:0:
311,117,68021,2,0,P|266:111|221:105,1,80.5000015354157,8|2,0:0|0:3,0:0:0:0:
360,198,68257,6,0,B|440:207|432:147|520:165,1,161.000003070831,2|8,3:0|0:0,0:0:0:0:
347,293,68610,1,0,0:0:0:0:
347,293,68727,2,0,P|304:280|263:284,1,80.5000015354157,2|2,3:0|0:3,0:0:0:0:
182,149,68963,2,0,L|196:232,1,80.5000015354157,8|2,0:0|0:3,0:0:0:0:
63,384,69198,5,2,3:0:0:0:
0,317,69316,2,0,P|36:300|80:300,1,80.5000015354157,8|2,0:0|3:0,0:0:0:0:
195,228,69551,2,0,L|108:214,1,80.5000015354157,8|2,0:0|3:0,0:0:0:0:
175,384,69786,1,2,0:3:0:0:
175,384,69904,2,0,P|187:343|175:304,1,80.5000015354157,8|2,0:0|0:3,0:0:0:0:
268,237,70139,6,0,L|426:209,1,161.000003070831,2|8,3:0|0:0,0:0:0:0:
491,154,70492,1,0,0:0:0:0:
491,154,70610,2,0,P|508:186|508:233,1,80.5000015354157,2|2,3:0|0:3,0:0:0:0:
395,134,70845,2,0,P|405:80|412:41,1,80.5000015354157,8|8,0:0|0:0,0:0:0:0:
491,154,71080,5,2,3:0:0:0:
408,219,71198,1,8,0:0:0:0:
336,274,71316,1,0,0:0:0:0:
408,335,71433,2,0,P|448:349|495:341,1,80.5000015354157,8|2,0:0|3:0,0:0:0:0:
240,245,71668,1,2,0:3:0:0:
240,245,71786,2,0,L|148:261,1,80.5000015354157,8|2,0:0|0:3,0:0:0:0:
37,320,72021,6,0,P|116:355|197:332,1,161.000003070831,2|8,3:0|0:0,0:0:0:0:
195,158,72374,2,0,P|116:129|39:153,1,161.000003070831,0|2,0:0|0:3,0:0:0:0:
240,245,72727,2,0,L|324:233,1,80.5000015354157,8|8,0:0|0:0,0:0:0:0:
429,197,72963,1,2,3:0:0:0:
429,197,73080,2,0,L|415:283,1,80.5000015354157,8|2,0:0|3:0,0:0:0:0:
354,149,73316,2,0,P|347:108|363:67,1,80.5000015354157,8|2,0:0|3:0,0:0:0:0:
438,22,73551,1,8,0:0:0:0:
438,22,73668,2,0,P|486:33|528:33,1,80.5000015354157,12|0,0:0|0:0,0:0:0:0:
264,141,73904,6,0,B|195:114|185:176|97:150,1,161.000003070831,2|8,3:0|0:0,0:0:0:0:
33,206,74257,1,0,0:0:0:0:
33,206,74374,2,0,P|19:163|29:118,1,80.5000015354157,0|2,0:0|0:3,0:0:0:0:
131,277,74610,2,0,P|9:318|-17:306,1,161.000003070831,8|2,0:0|3:0,0:0:0:0:
163,192,74963,6,0,L|250:180,1,80.5000015354157,8|2,0:0|3:0,0:0:0:0:
314,322,75198,2,0,L|401:310,1,80.5000015354157,8|2,0:0|3:0,0:0:0:0:
479,247,75433,1,2,0:3:0:0:
479,247,75551,2,0,P|433:231|396:233,1,80.5000015354157,8|8,0:0|0:0,0:0:0:0:
344,159,75786,6,0,P|358:71|372:-19,1,161.000003070831,2|8,3:0|0:0,0:0:0:0:
443,137,76139,2,0,P|493:127|531:130,1,80.5000015354157,8|2,0:0|3:0,0:0:0:0:
269,44,76374,2,0,P|219:54|181:51,1,80.5000015354157,2|8,0:3|0:0,0:0:0:0:
0,202,76610,2,0,B|59:175|59:175|97:217|155:196,1,161.000003070831,8|8,0:0|0:0,0:0:0:0:
229,158,76963,2,0,P|243:195|238:234,1,80.5000015354157,2|8,3:0|0:0,0:0:0:0:
138,101,77198,2,0,P|143:57|160:19,1,80.5000015354157,2|2,3:0|0:3,0:0:0:0:
56,160,77433,2,0,P|11:174|-33:172,1,80.5000015354157,8|2,0:0|0:3,0:0:0:0:
238,234,77668,6,0,B|318:243|310:183|398:201,2,161.000003070831,2|8|2,3:0|0:0|3:0,0:0:0:0:
146,198,78257,2,0,L|157:286,1,80.5000015354157,2|8,0:3|0:0,0:0:0:0:
49,363,78492,1,8,0:0:0:0:
44,363,78610,2,0,P|25:274|69:214,1,161.000003070831,2|2,3:0|3:0,0:0:0:0:
145,341,78943,1,8,0:0:0:0:
145,341,79054,2,0,P|187:323|230:327,1,80.5000015354157,2|2,3:0|0:3,0:0:0:0:
358,241,79276,2,0,P|313:226|266:232,1,80.5000015354157,8|8,0:0|0:0,0:0:0:0:
167,173,79514,5,2,3:0:0:0:
353,347,79750,1,8,0:0:0:0:
358,351,79868,2,0,B|426:331|426:331|471:374|523:357,1,167.999994873047,2|8,0:3|0:0,0:0:0:0:
356,156,80222,2,0,L|343:243,1,83.9999974365235,2|8,3:0|0:0,0:0:0:0:
241,314,80458,2,0,L|193:307,5,46.6666666666667,8|8|8|8|8|8,3:2|0:0|0:0|3:2|0:0|0:0,0:0:0:0:
124,254,80931,2,0,L|76:261,5,46.6666666666667,8|8|8|8|8|8,3:2|0:0|0:0|0:0|0:0|0:0,0:0:0:0:
0,318,81403,5,4,3:2:0:0:
207,147,81639,1,8,0:0:0:0:
361,256,81875,2,0,P|423:272|517:272,1,154.000004699707,0|12,3:0|0:0,0:0:0:0:
424,351,82229,1,8,0:0:0:0:
424,351,82347,2,0,P|381:365|350:360,1,77.0000023498536,2|8,3:0|0:0,0:0:0:0:
202,251,82584,1,2,3:0:0:0:
239,314,82702,6,0,L|266:162,2,154.000004699707,8|2|0,0:0|0:3|0:0,0:0:0:0:
160,374,83292,1,2,3:0:0:0:
73,125,83528,1,8,0:0:0:0:
311,247,83765,6,0,B|384:255|383:196|471:214,1,154.000004699707,2|8,3:0|0:0,0:0:0:0:
512,145,84119,1,8,0:0:0:0:
512,145,84237,2,0,P|467:130|425:138,1,77.0000023498536,2|8,3:0|0:0,0:0:0:0:
298,0,84473,1,2,3:0:0:0:
253,75,84592,2,0,P|313:83|392:35,2,154.000004699707,8|2|0,0:0|0:3|0:0,0:0:0:0:
199,19,85182,5,2,3:0:0:0:
0,158,85418,1,8,0:0:0:0:
223,354,85654,2,0,P|233:274|252:190,1,154.000004699707,2|8,3:0|0:0,0:0:0:0:
156,116,86009,1,0,0:0:0:0:
156,116,86127,2,0,L|169:192,1,77.0000023498536,2|8,3:0|0:0,0:0:0:0:
230,69,86359,1,2,3:0:0:0:
147,17,86475,6,0,P|33:59|-8:56,1,154.000004699707,8|8,0:0|0:0,0:0:0:0:
230,69,86824,2,0,P|276:62|319:55,1,77.0000023498536,2|8,3:0|0:0,0:0:0:0:
383,15,87057,5,2,3:0:0:0:
383,27,87169,1,8,0:0:0:0:
391,41,87281,1,2,3:0:0:0:
389,55,87393,1,8,0:0:0:0:
415,127,87505,5,8,0:0:0:0:
404,203,87617,1,8,0:0:0:0:
391,278,87729,1,8,0:0:0:0:
377,353,87841,1,6,3:2:0:0:
