osu file format v14

[General]
AudioFilename: audio.mp3
AudioLeadIn: 0
PreviewTime: 50644
Countdown: 0
SampleSet: Soft
StackLeniency: 0.7
Mode: 0
LetterboxInBreaks: 0
WidescreenStoryboard: 1

[Editor]
Bookmarks: 12785,27843,42862
DistanceSpacing: 1.3
BeatDivisor: 6
GridSize: 32
TimelineZoom: 2.2

[Metadata]
Title:Gallop (TV Size)
TitleUnicode:ギャロップ (TV Size)
Artist:pe'zmoku
ArtistUnicode:pe'zmoku
Creator:-Mikan
Version:Ducky-'s Hard
Source:BLEACH
Tags:irohas MugiwaraSekai akitoshi corinn -laura- frostwich synderes ducky- anime japanese ed ending 16 jazz Pe'z pezmoku suzumoku
BeatmapID:2549398
BeatmapSetID:1225198

[Difficulty]
HPDrainRate:5
CircleSize:3.5
OverallDifficulty:6
ApproachRate:8
SliderMultiplier:1.5
SliderTickRate:1

[Events]
//Background and Video events
0,0,"ippxQBA8tZM_1.jpg",0,0
Video,50,"[AniTousen] TV ED16 - Gallop (pe'zmoku).mp4"
//Break Periods
//Storyboard Layer 0 (Background)
//Storyboard Layer 1 (Fail)
//Storyboard Layer 2 (Pass)
//Storyboard Layer 3 (Foreground)
//Storyboard Layer 4 (Overlay)
//Storyboard Sound Samples

[TimingPoints]
1540,468.75,4,2,1,40,1,0
1540,-111.111111111111,4,2,1,40,0,0
3415,-111.111111111111,4,2,1,50,0,0
4000,428.571428571429,4,2,1,50,1,0
4857,461.538461538462,4,2,1,50,1,0
5087,483.870967741935,4,2,1,50,1,0
5248,491.803278688525,4,2,1,60,1,0
6231,465.116279069767,4,2,1,60,1,0
7161,468.75,4,2,1,60,1,0
11379,437.956204379562,4,2,1,60,1,0
11743,461.538461538462,4,2,1,50,1,0
12785,476.190476190476,4,2,1,50,1,0
13261,588.235294117647,4,2,1,50,1,0
13408,476.190476190476,4,2,1,50,1,0
14241,468.75,4,2,1,50,1,0
14475,-92.5925925925926,4,2,1,50,0,0
14692,517.241379310345,4,2,1,50,1,0
14950,425.531914893617,4,2,1,50,1,0
15162,480,4,2,1,50,1,0
15882,447.761194029851,4,2,1,50,1,0
16106,458.015267175573,4,2,1,50,1,0
16564,472.44094488189,4,2,1,50,1,0
19398,465.116279069767,4,2,1,50,1,0
20328,472.44094488189,4,2,1,50,1,0
23044,-98.0392156862745,4,2,1,50,0,0
23162,461.538461538462,4,2,1,50,1,0
24546,472.44094488189,4,2,1,50,1,0
25490,480,4,2,1,50,1,0
26450,472.44094488189,4,2,1,50,1,0
26922,461.538461538462,4,2,1,50,1,0
27845,472.44094488189,4,2,1,50,1,0
27845,-125,4,2,1,50,0,0
31624,461.538461538462,4,2,1,50,1,0
31624,-125,4,2,1,50,0,0
33470,483.870967741935,4,2,1,50,1,0
33470,-125,4,2,1,50,0,0
33953,472.44094488189,4,2,1,50,1,0
33953,-125,4,2,1,50,0,0
39142,465.116279069767,4,2,1,50,1,0
39142,-125,4,2,1,50,0,0
42862,472.44094488189,4,2,1,50,1,0
49358,-100,4,2,1,5,0,0
49476,-100,4,2,1,60,0,0
50302,-100,4,2,1,5,0,0
50421,447.761194029851,4,2,1,50,1,0
51316,470.588235294118,4,2,2,70,1,1
51316,-90.9090909090909,4,2,2,70,0,1
51551,-90.9090909090909,4,2,1,70,0,1
58610,-90.9090909090909,4,2,2,70,0,1
58727,-90.9090909090909,4,2,1,70,0,1
66374,-90.9090909090909,4,2,2,70,0,1
66610,-90.9090909090909,4,2,1,70,0,1
73668,-90.9090909090909,4,2,2,70,0,1
73786,-90.9090909090909,4,2,1,70,0,1
78610,444.444444444444,4,2,1,70,1,1
79276,476.190476190476,4,2,1,70,1,1
79514,472.44094488189,4,2,1,70,1,1
81403,-100,4,2,1,60,0,0
86127,465.116279069767,4,2,1,60,1,0
87058,447.761194029851,4,2,1,60,1,0
88401,-100,4,2,1,5,0,0

[Colours]
Combo1 : 0,128,64
Combo2 : 207,207,207
Combo3 : 132,187,255

[HitObjects]
28,307,1540,6,0,L|38:339,2,33.7499989700318
44,262,1891,2,0,P|83:249|119:243,1,67.4999979400635
166,168,2360,2,0,P|206:176|240:189,1,67.4999979400635
323,162,2829,2,0,P|353:189|376:217,1,67.4999979400635
464,218,3297,1,0,0:0:0:0:
464,218,3415,2,0,B|436:257|436:257|454:329,1,101.249996910095,8|0,3:2|0:0,3:0:0:0:
334,298,4000,6,0,P|295:305|247:322,1,75,0|8,3:0|0:0,0:0:0:0:
221,348,4321,1,8,0:0:0:0:
221,348,4428,2,0,P|161:331|125:325,1,75,8|8,0:0|0:0,0:0:0:0:
46,364,4785,1,8,0:0:0:0:
17,221,5010,1,8,0:0:0:0:
17,221,5248,6,0,L|47:108,1,112.5,4|0,3:2|0:0,0:0:0:0:
28,62,5739,2,0,P|74:33|117:38,1,75,2|8,3:0|0:0,0:0:0:0:
168,113,6231,1,2,3:0:0:0:
266,67,6463,1,2,3:0:0:0:
266,67,6579,2,0,P|287:108|281:144,1,75,8|0,0:0|0:0,0:0:0:0:
235,230,7044,1,0,0:0:0:0:
235,230,7161,6,0,B|262:267|262:267|346:249,1,112.5,2|0,3:0|0:0,0:0:0:0:
358,210,7629,2,0,P|396:213|447:235,1,75,2|8,3:0|0:0,0:0:0:0:
496,143,8098,1,0,3:0:0:0:
413,86,8332,1,2,3:0:0:0:
413,86,8450,2,0,P|421:21|422:4,1,75,8|0,0:0|0:0,0:0:0:0:
318,30,8918,6,0,B|255:21|292:81|194:73,1,112.5,0|8,0:0|0:0,0:0:0:0:
122,34,9504,2,0,P|108:64|109:111,1,75,2|8,3:0|0:0,0:0:0:0:
180,188,9973,1,2,3:0:0:0:
180,188,10090,2,0,P|201:192|220:196,2,37.5,8|2|8,0:0|3:0|0:0,0:0:0:0:
94,247,10559,1,0,0:0:0:0:
94,247,10676,1,8,0:0:0:0:
146,338,10911,5,4,3:2:0:0:
241,294,11145,1,0,3:0:0:0:
241,294,11262,1,0,0:0:0:0:
387,360,11488,1,0,0:0:0:0:
453,279,11743,5,2,3:2:0:0:
453,279,12089,2,0,P|439:203|432:173,2,75,0|8|0,0:0|0:0|0:0,0:0:0:0:
357,238,12785,5,4,3:2:0:0:
288,158,13023,1,0,0:0:0:0:
321,79,13261,1,10,0:0:0:0:
321,79,13408,1,0,0:0:0:0:
233,21,13646,2,0,P|172:43|144:92,1,112.5
159,187,14241,1,10,0:0:0:0:
54,174,14475,2,0,P|46:229|40:275,1,75,2|0,0:0|3:0,0:0:0:0:
69,365,14950,5,0,0:0:0:0:
142,308,15162,1,10,0:0:0:0:
142,308,15282,2,0,L|276:331,1,112.5,0|2,0:0|3:2,0:0:0:0:
357,360,15882,1,0,0:0:0:0:
421,277,16105,1,10,0:0:0:0:
349,199,16335,1,2,0:0:0:0:
429,136,16564,6,0,L|444:84,1,37.5,2|8,3:2|0:0,0:0:0:0:
423,50,16800,1,0,0:0:0:0:
329,1,17036,1,10,0:0:0:0:
329,1,17154,2,0,P|280:18|220:36,1,112.5,0|2,0:0|3:2,0:0:0:0:
188,135,17745,1,0,0:0:0:0:
119,55,17981,6,0,P|83:41|47:35,1,75,10|2,0:0|0:0,0:0:0:0:
0,127,18453,2,0,P|36:133|80:155,1,75,0|0,3:0|0:0,0:0:0:0:
142,225,18926,1,10,0:0:0:0:
62,293,19162,1,0,0:0:0:0:
153,347,19398,2,0,L|148:387,2,37.5,2|8|0,3:2|0:0|0:0,0:0:0:0:
224,268,19863,2,0,P|271:252|314:247,1,75,10|2,0:0|0:0,0:0:0:0:
381,306,20328,1,2,3:2:0:0:
469,250,20564,5,0,0:0:0:0:
507,152,20800,1,10,0:0:0:0:
507,152,20918,1,0,0:0:0:0:
424,87,21154,2,0,P|339:95|304:108,1,112.5
253,190,21745,2,0,P|195:171|162:162,1,75,10|0,0:0|0:0,0:0:0:0:
155,65,22217,5,2,3:2:0:0:
70,127,22453,1,0,0:0:0:0:
117,220,22690,1,10,0:0:0:0:
77,317,22926,1,0,0:0:0:0:
77,317,23044,2,0,P|135:335|203:347,1,112.5,8|2,0:0|0:0,0:0:0:0:
269,285,23623,2,0,P|324:268|367:265,1,75,10|0,0:0|0:0,0:0:0:0:
436,311,24085,1,2,3:2:0:0:
490,221,24315,1,0,0:0:0:0:
420,145,24546,5,10,0:0:0:0:
420,145,24664,1,0,0:0:0:0:
462,48,24900,1,0,0:0:0:0:
462,48,25018,2,0,P|407:36|368:32,1,75,2|0,3:2|0:0,0:0:0:0:
325,115,25490,2,0,P|271:132|235:148,1,75,10|0,0:0|0:0,0:0:0:0:
200,229,25970,5,2,3:2:0:0:
96,214,26210,1,0,0:0:0:0:
41,122,26450,1,10,0:0:0:0:
89,29,26686,1,0,0:0:0:0:
147,119,26922,2,0,P|127:154|114:190,1,75,2|2,3:2|0:0,0:0:0:0:
165,278,27383,1,8,0:0:0:0:
260,235,27614,1,2,0:0:0:0:
317,293,27845,6,0,B|336:313|336:313|417:293,2,90,4|0|8,3:2|1:0|0:1,0:0:0:0:
260,235,28789,2,0,P|234:219|205:212,2,60,0|8|2,3:0|0:1|3:0,0:0:0:0:
222,310,29498,1,2,0:3:0:0:
285,365,29734,2,0,P|326:361|351:353,1,60,8|8,3:1|0:1,0:0:0:0:
409,302,30207,1,2,3:0:0:0:
350,242,30443,2,0,P|342:213|345:183,1,60,2|2,0:3|3:0,0:0:0:0:
414,135,30915,1,8,0:1:0:0:
345,86,31152,2,0,L|265:99,1,60,2|0,3:0|0:0,0:0:0:0:
226,157,31624,6,0,L|239:245,2,90,2|8|8,3:0|0:1|0:1,0:0:0:0:
145,181,32547,2,0,P|113:202|90:210,2,60,0|8|2,3:0|0:1|3:2,0:0:0:0:
179,262,33239,1,2,0:3:0:0:
114,309,33470,2,0,P|71:293|27:287,1,90,2|0,3:0|3:0,0:0:0:0:
4,250,33953,1,2,3:0:0:0:
74,204,34189,2,0,P|64:147|49:124,1,60,2|2,0:3|3:0,0:0:0:0:
8,81,34661,1,8,0:1:0:0:
84,45,34897,2,0,P|133:56|195:85,1,90,0|8,3:0|0:1,0:0:0:0:
187,109,35370,1,2,3:0:0:0:
344,79,35724,5,8,3:2:0:0:
344,79,35842,2,0,L|356:11,2,60,2|8|0,3:0|0:1|3:0,0:0:0:0:
287,145,36551,6,0,P|245:180|221:231,1,90,8|8,0:1|0:1,0:0:0:0:
274,327,37260,2,0,P|343:311|358:278,1,90,8|0,3:1|3:0,0:0:0:0:
345,257,37732,2,0,L|362:194,1,60,2|2,3:0|0:3,0:0:0:0:
437,161,38204,2,0,L|420:98,1,60,0|8,3:0|0:1,0:0:0:0:
463,29,38677,1,2,3:0:0:0:
463,29,38795,1,8,0:1:0:0:
342,61,39142,6,0,L|241:38,1,90,8|0,3:1|1:0,0:0:0:0:
214,55,39607,6,0,B|143:55|193:130|106:123,2,120,2|2|0,3:0|3:0|3:0,0:0:0:0:
277,109,40769,1,0,0:0:0:0:
220,171,41002,2,0,P|241:233|253:275,1,90,8|0,0:1|1:0,0:0:0:0:
266,294,41467,1,2,3:0:0:0:
207,354,41700,2,0,P|159:342|133:333,1,60,8|2,0:1|3:0,0:0:0:0:
77,294,42165,2,8,B|64:210|140:248|113:143,1,150
87,114,42862,5,4,3:2:0:0:
211,17,43216,1,8,0:0:0:0:
311,138,43570,1,0,3:0:0:0:
332,35,43806,6,0,P|269:47|217:61,1,112.5,10|8,0:0|0:0,0:0:0:0:
220,112,44279,2,0,P|183:165|157:211,1,112.5,0|0,0:0|3:0,0:0:0:0:
187,251,44751,1,2,3:2:0:0:
152,349,44987,1,0,0:0:0:0:
152,349,45224,2,0,P|213:366|248:376,2,75,2|0|10,0:0|3:0|0:0,0:0:0:0:
61,295,45932,1,0,0:0:0:0:
61,295,46169,2,0,P|49:234|53:198,1,75,2|0,0:0|0:0,0:0:0:0:
107,134,46641,5,12,0:0:0:0:
185,203,46877,1,0,3:0:0:0:
185,203,46995,2,0,P|250:186|277:179,1,75
336,114,47468,2,0,P|393:147|418:162,2,75,0|0|0,0:3|0:3|0:3,0:0:0:0:
311,67,48058,2,0,P|267:45|209:129,1,150,8|4,0:0|3:2,0:0:0:0:
237,261,48885,1,4,3:2:0:0:
391,229,49239,1,2,3:2:0:0:
368,125,49476,6,0,B|344:90|344:90|372:8,2,112.5,12|12|12,3:2|3:2|3:2,0:0:0:0:
368,125,51316,6,0,P|361:170|366:231,1,82.5000025177003,4|8,3:2|0:0,0:0:0:0:
397,251,51668,1,0,0:0:0:0:
343,355,51904,1,2,0:3:0:0:
343,355,52021,1,8,0:0:0:0:
267,267,52257,2,0,P|213:253|163:261,1,82.5000025177003,2|2,3:0|3:0,0:0:0:0:
159,307,52610,1,8,0:0:0:0:
159,307,52727,1,2,3:0:0:0:
57,251,52963,1,8,0:0:0:0:
143,174,53198,6,0,P|143:132|137:92,1,82.5000025177003,2|8,3:0|0:0,0:0:0:0:
108,42,53550,1,0,0:0:0:0:
219,89,53786,1,2,0:3:0:0:
219,89,53903,1,8,0:0:0:0:
308,15,54139,6,0,L|408:43,1,82.5000025177003,2|2,3:0|3:0,0:0:0:0:
429,84,54492,1,8,0:0:0:0:
429,84,54609,1,2,3:0:0:0:
478,188,54845,1,8,0:0:0:0:
379,248,55080,6,0,P|372:293|377:354,1,82.5000025177003,2|8,3:0|0:0,0:0:0:0:
348,381,55432,1,0,0:0:0:0:
248,332,55668,1,2,0:3:0:0:
248,332,55785,1,8,0:0:0:0:
298,227,56021,1,2,3:0:0:0:
253,120,56257,2,0,P|271:55|279:20,2,82.5000025177003,0|2|8,0:0|3:0|0:0,0:0:0:0:
138,130,56963,6,0,L|48:113,1,82.5000025177003,2|8,3:0|0:0,0:0:0:0:
24,162,57316,2,0,L|49:265,1,82.5000025177003,0|2,0:0|0:3,0:0:0:0:
36,299,57668,1,8,0:0:0:0:
147,268,57904,2,0,P|205:296|213:342,1,82.5000025177003,2|2,3:0|3:0,0:0:0:0:
191,365,58257,1,8,0:0:0:0:
191,365,58374,1,2,3:0:0:0:
304,339,58610,1,12,0:0:0:0:
416,312,58845,6,0,P|416:270|410:230,1,82.5000025177003,2|8,3:0|0:0,0:0:0:0:
361,199,59197,1,0,0:0:0:0:
432,108,59433,1,2,0:3:0:0:
432,108,59551,2,0,P|486:94|536:102,2,82.5000025177003,8|2|2,0:0|3:0|3:0,0:0:0:0:
384,85,60139,1,8,0:0:0:0:
384,85,60256,1,2,3:0:0:0:
279,135,60492,1,8,0:0:0:0:
190,61,60727,6,0,P|145:54|84:59,1,82.5000025177003,2|8,3:0|0:0,0:0:0:0:
83,106,61079,1,0,0:0:0:0:
28,208,61315,1,2,0:3:0:0:
107,299,61551,1,8,0:0:0:0:
107,299,61668,2,0,P|161:285|211:293,1,82.5000025177003,2|2,3:0|3:0,0:0:0:0:
228,334,62021,1,8,0:0:0:0:
228,334,62138,1,2,3:0:0:0:
325,271,62374,1,8,0:0:0:0:
240,191,62610,6,0,L|230:62,1,123.75000377655,2|0,3:0|0:0,0:0:0:0:
273,28,63080,1,2,3:0:0:0:
273,28,63198,1,2,0:3:0:0:
378,96,63433,1,2,0:3:0:0:
378,96,63551,2,0,L|387:212,1,82.5000025177003,0|2,0:0|3:0,0:0:0:0:
343,230,63904,1,8,0:0:0:0:
343,230,64021,1,2,3:0:0:0:
240,191,64257,1,8,0:0:0:0:
192,295,64492,6,0,P|113:300|59:317,1,123.75000377655,2|8,3:0|0:0,0:0:0:0:
20,281,64963,2,0,B|2:244|2:244|29:142,1,123.75000377655,2|8,3:0|0:0,0:0:0:0:
70,130,65433,2,0,P|101:127|126:81,1,82.5000025177003,2|2,3:0|3:0,0:0:0:0:
156,38,65786,1,8,0:0:0:0:
156,38,65904,2,0,L|223:39,3,41.2500012588501,8|8|8|8,3:2|0:0|0:0|0:0,0:0:0:0:
236,80,66374,6,0,P|229:125|234:186,1,82.5000025177003,4|8,3:2|0:0,0:0:0:0:
207,214,66726,1,0,0:0:0:0:
293,299,66962,1,2,0:3:0:0:
293,299,67079,1,8,0:0:0:0:
354,200,67315,2,0,P|408:186|458:194,1,82.5000025177003,2|2,3:0|3:0,0:0:0:0:
481,229,67668,1,8,0:0:0:0:
481,229,67785,1,2,3:0:0:0:
439,336,68021,1,8,0:0:0:0:
335,283,68257,6,0,L|239:302,1,82.5000025177003,2|8,3:0|0:0,0:0:0:0:
228,349,68610,1,0,0:0:0:0:
126,304,68844,1,2,0:3:0:0:
126,304,68963,1,8,0:0:0:0:
209,223,69198,6,0,L|223:131,1,82.5000025177003,2|2,3:0|3:0,0:0:0:0:
269,109,69550,1,8,0:0:0:0:
269,109,69667,1,2,3:0:0:0:
176,39,69903,1,8,0:0:0:0:
68,83,70139,6,0,L|80:164,1,82.5000025177003,2|8,3:0|0:0,0:0:0:0:
125,198,70492,1,0,0:0:0:0:
75,307,70727,1,2,0:3:0:0:
75,307,70845,2,0,P|113:322|154:376,1,82.5000025177003,8|2,0:0|3:0,0:0:0:0:
250,302,71316,5,0,0:0:0:0:
250,302,71551,1,2,3:0:0:0:
367,376,71785,1,8,0:0:0:0:
476,338,72021,6,0,P|488:291|473:251,1,82.5000025177003,2|8,3:0|0:0,0:0:0:0:
423,240,72374,2,0,P|369:206|381:173,1,82.5000025177003,0|2,0:0|0:3,0:0:0:0:
413,160,72727,1,8,0:0:0:0:
337,72,72962,2,0,L|230:65,1,82.5000025177003,2|2,3:0|3:0,0:0:0:0:
217,111,73315,1,8,0:0:0:0:
217,111,73432,1,2,3:0:0:0:
112,60,73668,1,12,0:0:0:0:
31,143,73903,6,0,P|24:188|29:249,1,82.5000025177003,2|8,3:0|0:0,0:0:0:0:
59,270,74257,1,0,0:0:0:0:
164,218,74491,1,2,0:3:0:0:
164,218,74609,2,0,P|218:204|268:212,2,82.5000025177003,8|2|2,0:0|3:0|3:0,0:0:0:0:
151,277,75197,1,8,0:0:0:0:
151,277,75316,1,2,3:0:0:0:
237,353,75550,1,8,0:0:0:0:
343,309,75785,6,0,P|343:267|337:227,1,82.5000025177003,2|8,3:0|0:0,0:0:0:0:
288,196,76139,1,8,0:0:0:0:
341,93,76373,1,2,0:3:0:0:
421,183,76609,1,8,0:0:0:0:
421,183,76727,2,0,P|475:169|525:177,1,82.5000025177003,2|2,3:0|3:0,0:0:0:0:
509,232,77079,1,8,0:0:0:0:
509,232,77198,1,2,3:0:0:0:
454,334,77432,1,8,0:0:0:0:
343,309,77668,6,0,L|333:180,1,123.75000377655,2|8,3:0|0:0,0:0:0:0:
294,149,78139,1,2,3:0:0:0:
294,149,78257,1,2,0:3:0:0:
208,80,78491,1,8,0:0:0:0:
208,80,78610,2,0,L|117:98,1,75,2|2,3:0|3:0,0:0:0:0:
110,138,78943,1,8,0:0:0:0:
110,138,79054,1,2,3:0:0:0:
155,224,79276,1,8,0:0:0:0:
108,318,79514,6,0,P|172:337|194:354,1,75,2|8,3:0|0:0,0:0:0:0:
225,363,79868,2,0,P|249:334|294:331,1,75,2|8,0:3|0:0,0:0:0:0:
335,337,80222,1,2,3:0:0:0:
436,363,80458,2,0,L|419:235,1,112.5,8|0,3:2|0:0,0:0:0:0:
377,222,80931,2,0,L|312:205,3,37.5,8|8|8|8,3:2|0:0|0:0|0:0,0:0:0:0:
316,166,81403,5,4,3:2:0:0:
227,222,81639,1,8,0:0:0:0:
145,155,81875,2,0,P|93:149|54:138,2,75,0|12|2,3:0|0:0|3:0,0:0:0:0:
226,88,82584,1,2,3:0:0:0:
226,88,82702,1,8,0:0:0:0:
318,138,82938,1,2,0:3:0:0:
399,72,83174,2,0,B|434:93|434:93|419:179,1,112.5,0|8,0:0|0:0,0:0:0:0:
362,250,83765,6,0,P|378:298|391:335,2,75,2|8|2,3:0|0:0|3:0,0:0:0:0:
280,314,84473,1,2,3:0:0:0:
280,314,84592,2,0,P|213:299|136:281,1,112.5,8|8,0:0|0:0,0:0:0:0:
90,220,85182,2,0,P|84:161|96:116,1,75,2|8,3:0|0:0,0:0:0:0:
153,65,85654,1,2,3:0:0:0:
234,131,85891,1,8,0:0:0:0:
297,45,86127,5,2,3:0:0:0:
388,95,86359,1,2,3:0:0:0:
388,95,86475,2,0,P|415:167|421:205,1,112.5,8|2,0:0|3:0,0:0:0:0:
315,235,87058,2,0,P|244:243|190:257,1,112.5,2|8,3:0|0:0,0:0:0:0:
169,292,87505,2,0,P|110:276|69:268,1,75,8|8,0:0|0:0,0:0:0:0:
57,237,87841,2,0,L|26:37,1,187.5,6|0,3:2|0:0,0:0:0:0:
