osu file format v14

[General]
AudioFilename: audio.mp3
AudioLeadIn: 0
PreviewTime: 50644
Countdown: 0
SampleSet: Soft
StackLeniency: 0.7
Mode: 0
LetterboxInBreaks: 0
WidescreenStoryboard: 1

[Editor]
DistanceSpacing: 1.3
BeatDivisor: 6
GridSize: 32
TimelineZoom: 2.899999

[Metadata]
Title:Gallop (TV Size)
TitleUnicode:ギャロップ (TV Size)
Artist:pe'zmoku
ArtistUnicode:pe'zmoku
Creator:-Mikan
Version:Akitoshi's Normal
Source:BLEACH
Tags:irohas MugiwaraSekai akitoshi corinn -laura- frostwich synderes ducky- anime japanese ed ending 16 jazz Pe'z pezmoku suzumoku
BeatmapID:2644457
BeatmapSetID:1225198

[Difficulty]
HPDrainRate:4
CircleSize:4
OverallDifficulty:4
ApproachRate:5
SliderMultiplier:1.2
SliderTickRate:1

[Events]
//Background and Video events
0,0,"ippxQBA8tZM_1.jpg",0,0
Video,50,"[AniTousen] TV ED16 - Gallop (pe'zmoku).mp4"
//Break Periods
//Storyboard Layer 0 (Background)
//Storyboard Layer 1 (Fail)
//Storyboard Layer 2 (Pass)
//Storyboard Layer 3 (Foreground)
//Storyboard Layer 4 (Overlay)
//Storyboard Sound Samples

[TimingPoints]
1540,468.75,4,2,1,40,1,0
3415,-100,4,2,1,50,0,0
4000,428.571428571429,4,2,1,50,1,0
4857,461.538461538462,4,2,1,50,1,0
5087,483.870967741935,4,2,1,50,1,0
5248,491.803278688525,4,2,1,60,1,0
6231,465.116279069767,4,2,1,60,1,0
7161,468.75,4,2,1,60,1,0
11379,437.956204379562,4,2,1,60,1,0
11743,461.538461538462,4,2,1,50,1,0
12785,476.190476190476,4,2,1,50,1,0
13261,588.235294117647,4,2,1,50,1,0
13408,476.190476190476,4,2,1,50,1,0
14241,468.75,4,2,1,50,1,0
14692,517.241379310345,4,2,1,50,1,0
14950,425.531914893617,4,2,1,50,1,0
15162,480,4,2,1,50,1,0
15882,447.761194029851,4,2,1,50,1,0
16106,458.015267175573,4,2,1,50,1,0
16564,472.44094488189,4,2,1,50,1,0
19398,465.116279069767,4,2,1,50,1,0
20328,472.44094488189,4,2,1,50,1,0
23162,461.538461538462,4,2,1,50,1,0
24546,472.44094488189,4,2,1,50,1,0
25490,480,4,2,1,50,1,0
26450,472.44094488189,4,2,1,50,1,0
26922,461.538461538462,4,2,1,50,1,0
27845,472.44094488189,4,2,1,50,1,0
31624,461.538461538462,4,2,1,50,1,0
33470,483.870967741935,4,2,1,50,1,0
33953,472.44094488189,4,2,1,50,1,0
39142,465.116279069767,4,2,1,50,1,0
42862,472.44094488189,4,2,1,50,1,0
49358,-100,4,2,1,5,0,0
49476,-100,4,2,1,60,0,0
50302,-100,4,2,1,5,0,0
50421,447.761194029851,4,2,1,50,1,0
51316,470.588235294118,4,2,2,70,1,1
51316,-90.9090909090909,4,2,2,70,0,1
51551,-90.9090909090909,4,2,1,70,0,1
58610,-90.9090909090909,4,2,2,70,0,1
58727,-90.9090909090909,4,2,1,70,0,1
66374,-90.9090909090909,4,2,2,70,0,1
66610,-90.9090909090909,4,2,1,70,0,1
73668,-90.9090909090909,4,2,2,70,0,1
73786,-90.9090909090909,4,2,1,70,0,1
78610,444.444444444444,4,2,1,70,1,1
78610,-90.9090909090909,4,2,1,70,0,1
79276,476.190476190476,4,2,1,70,1,1
79276,-90.9090909090909,4,2,1,70,0,1
79514,472.44094488189,4,2,1,70,1,1
79514,-90.9090909090909,4,2,1,70,0,1
81403,-100,4,2,1,60,0,0
86127,465.116279069767,4,2,1,60,1,0
87058,447.761194029851,4,2,1,60,1,0
88401,-100,4,2,1,5,0,0

[Colours]
Combo1 : 0,128,64
Combo2 : 207,207,207
Combo3 : 132,187,255

[HitObjects]
173,160,1540,6,0,P|117:177|48:158,2,120,0|2|0,0:0|0:0|0:0,0:0:0:0:
257,92,2946,2,0,L|322:106,1,60,2|0,0:0|0:0,0:0:0:0:
369,110,3415,6,0,B|352:165|352:165|374:203,1,90,8|0,3:2|0:0,3:0:0:0:
394,251,4000,1,0,3:0:0:0:
394,251,4214,2,0,P|340:248|277:340,1,160,8|8,0:0|0:0,0:0:0:0:
169,365,5248,6,0,P|104:359|33:352,1,120,4|2,3:2|3:0,0:0:0:0:
44,239,6231,2,0,P|87:240|128:215,2,90,2|8|8,3:0|0:0|0:0,0:0:0:0:
21,190,7161,2,0,P|30:140|46:58,1,120,2|2,3:0|3:0,0:0:0:0:
146,40,8098,2,0,P|144:94|164:133,2,90,0|8|8,3:0|0:0|0:0,0:0:0:0:
195,17,9036,6,0,P|286:41|331:47,1,120,2|2,3:2|3:0,0:0:0:0:
369,49,9739,1,8,0:0:0:0:
369,49,9973,2,0,P|379:89|383:109,1,60,2|2,3:0|3:0,0:0:0:0:
430,132,10442,2,0,P|420:172|416:192,1,60,2|8,3:0|0:0,0:0:0:0:
408,243,10911,1,4,3:2:0:0:
304,294,11379,2,0,P|259:281|190:277,1,100,8|2,0:0|3:2,0:0:0:0:
206,276,12785,6,0,P|217:209|194:162,1,120,4|10,3:2|0:0,0:0:0:0:
98,102,13765,2,0,P|86:165|75:221,1,120,2|10,3:2|0:0,0:0:0:0:
53,322,14692,1,0,3:0:0:0:
147,374,15162,1,10,0:0:0:0:
252,352,15642,2,0,P|282:353|317:362,1,60,2|0,3:2|0:0,0:0:0:0:
362,373,16106,2,0,P|392:371|427:363,1,60,10|2,0:0|0:0,0:0:0:0:
460,330,16564,6,0,P|474:271|443:208,1,120,2|10,3:2|0:0,0:0:0:0:
405,120,17508,2,0,P|358:156|342:213,1,120,2|10,3:2|0:0,0:0:0:0:
254,276,18453,2,0,P|176:263|123:256,1,120,0|10,3:0|0:0,0:0:0:0:
86,251,19162,1,0,0:0:0:0:
86,251,19398,2,0,P|91:180|67:133,1,120,2|10,3:2|0:0,0:0:0:0:
126,47,20328,6,0,P|180:69|239:62,1,120,2|10,3:2|0:0,0:0:0:0:
316,138,21272,2,0,P|370:115|429:122,1,120,2|10,3:2|0:0,0:0:0:0:
508,196,22217,1,2,3:2:0:0:
449,287,22690,1,10,0:0:0:0:
342,259,23162,2,0,P|305:264|274:271,1,60,2|2,3:2|0:0,0:0:0:0:
240,302,23623,2,0,P|203:297|172:290,1,60,10|0,0:0|0:0,0:0:0:0:
132,268,24085,6,0,P|149:196|135:143,1,120,2|10,3:2|0:0,0:0:0:0:
31,152,25018,2,0,P|14:209|23:267,1,120,2|10,3:2|0:0,0:0:0:0:
71,364,25970,2,0,P|130:359|200:351,1,120,2|10,3:2|0:0,0:0:0:0:
238,325,26686,1,0,0:0:0:0:
238,325,26922,2,0,P|297:330|367:338,1,120,2|8,3:2|0:0,0:0:0:0:
409,316,27614,1,2,0:0:0:0:
409,316,27845,6,0,P|435:257|430:198,2,120,4|2|0,3:2|0:3|3:0,0:0:0:0:
331,240,29262,1,2,3:0:0:0:
351,134,29734,2,0,P|427:155|501:90,2,180,8|2|2,3:1|0:3|3:0,0:0:0:0:
246,98,31624,6,0,P|177:113|116:130,2,120,2|2|0,3:0|3:0|3:0,0:0:0:0:
351,134,33008,1,2,3:2:0:0:
299,223,33470,2,0,P|222:243|175:228,1,120,2|2,3:0|3:0,0:0:0:0:
137,219,34189,1,2,0:3:0:0:
137,219,34425,2,0,P|112:280|122:338,1,120,2|0,3:0|3:0,0:0:0:0:
220,369,35370,6,0,P|282:361|358:350,2,120,2|2|0,3:0|3:0|3:0,0:0:0:0:
119,332,36787,1,2,3:0:0:0:
171,237,37260,1,8,3:1:0:0:
277,253,37732,2,0,P|336:257|393:228,1,120,2|0,3:0|3:0,0:0:0:0:
426,191,38441,2,0,P|411:129|396:63,1,120,8|2,0:1|0:3,0:0:0:0:
384,22,39142,5,8,3:1:0:0:
309,99,39607,1,2,3:0:0:0:
204,124,40072,1,2,3:0:0:0:
112,65,40537,1,0,3:0:0:0:
26,130,41002,2,0,P|43:192|57:259,1,120,8|2,0:1|3:0,0:0:0:0:
62,299,41700,2,0,P|124:297|184:332,1,120,8|8,0:1|0:0,0:0:0:0:
211,362,42397,1,8,0:0:0:0:
297,300,42862,6,0,P|283:220|267:172,1,120,4|2,3:2|0:0,0:0:0:0:
255,136,43570,1,0,3:0:0:0:
255,136,43806,2,0,P|312:145|367:112,1,120,10|0,0:0|0:0,0:0:0:0:
464,156,44751,2,0,P|478:236|494:284,1,120,2|2,3:2|0:0,0:0:0:0:
506,320,45459,1,0,3:0:0:0:
506,320,45696,2,0,P|449:311|398:341,1,120,10|2,0:0|0:0,0:0:0:0:
295,379,46641,6,0,P|239:368|162:360,1,120,12|0,0:0|3:0,0:0:0:0:
126,359,47350,1,2,3:2:0:0:
126,359,47586,2,0,P|112:309|105:284,1,60,10|2,0:0|3:2,0:0:0:0:
75,259,48058,2,0,P|89:209|96:184,1,60,8|8,0:0|0:0,0:0:0:0:
108,149,48531,6,0,P|61:157|18:131,2,90,4|4|2,3:2|3:2|3:2,0:0:0:0:
149,114,49476,2,0,B|196:122|196:122|239:96,2,90,12|12|12,3:2|3:2|3:2,0:0:0:0:
149,114,51316,6,0,P|135:178|126:226,2,99.0000030212403,4|0|8,3:2|0:0|0:0,0:0:0:0:
166,36,52257,1,2,3:0:0:0:
296,16,52727,2,0,P|330:27|370:40,1,66.0000020141602,2|8,3:0|0:0,0:0:0:0:
397,105,53198,2,0,P|435:94|499:95,2,99.0000030212403,2|0|8,3:0|0:0|0:0,0:0:0:0:
323,133,54139,1,2,3:0:0:0:
431,207,54610,2,0,P|424:240|417:275,1,66.0000020141602,2|8,3:0|0:0,0:0:0:0:
405,349,55080,6,0,P|450:360|503:375,2,99.0000030212403,2|0|8,3:0|0:0|0:0,0:0:0:0:
331,318,56021,1,2,3:0:0:0:
331,318,56257,1,0,0:0:0:0:
252,293,56492,2,0,P|199:299|180:303,1,66.0000020141602,2|8,3:0|0:0,0:0:0:0:
111,275,56963,2,0,P|118:211|83:145,1,132.00000402832,2|0,3:0|0:0,0:0:0:0:
24,106,57668,2,0,P|88:112|154:77,1,132.00000402832,8|2,0:0|3:0,0:0:0:0:
198,22,58374,2,0,P|240:28|278:32,1,66.0000020141602,2|12,3:0|0:0,0:0:0:0:
322,83,58845,6,0,P|302:130|312:190,2,99.0000030212403,2|0|8,3:0|0:0|0:0,0:0:0:0:
383,32,59786,1,2,3:0:0:0:
498,95,60257,2,0,P|493:129|489:174,1,66.0000020141602,2|8,3:0|0:0,0:0:0:0:
417,191,60727,2,0,P|431:259|445:334,1,132.00000402832,2|2,3:0|3:0,0:0:0:0:
381,370,61433,1,8,0:0:0:0:
381,370,61668,2,0,P|343:344|246:363,1,132.00000402832,2|2,3:0|3:0,0:0:0:0:
212,228,62610,6,0,P|230:156|243:99,1,132.00000402832,2|2,3:0|3:0,0:0:0:0:
196,33,63316,1,8,0:0:0:0:
196,33,63551,2,0,P|143:58|69:42,1,132.00000402832,0|2,0:0|3:0,0:0:0:0:
7,87,64257,1,8,0:0:0:0:
7,87,64492,2,0,P|22:151|36:222,1,132.00000402832,2|2,3:0|3:0,0:0:0:0:
60,345,65433,1,2,3:0:0:0:
167,268,65904,2,0,P|198:273|230:284,1,66.0000020141602,8|8,3:2|0:0,0:0:0:0:
306,308,66374,6,0,B|333:323|333:323|423:309,2,99.0000030212403,4|0|8,3:2|0:0|0:0,0:0:0:0:
282,231,67316,1,2,3:0:0:0:
388,153,67786,2,0,P|383:121|379:82,1,66.0000020141602,2|8,3:0|0:0,0:0:0:0:
301,72,68257,2,0,P|244:97|205:92,2,99.0000030212403,2|0|8,3:0|0:0|0:0,0:0:0:0:
352,11,69198,1,2,3:0:0:0:
481,34,69668,2,0,P|474:77|468:110,1,66.0000020141602,2|8,3:0|0:0,0:0:0:0:
419,160,70139,6,0,P|434:212|440:256,2,99.0000030212403,2|0|8,3:0|0:0|0:0,0:0:0:0:
348,121,71080,1,2,3:0:0:0:
348,121,71316,1,0,0:0:0:0:
274,150,71551,2,0,P|228:147|199:142,1,66.0000020141602,2|8,3:0|0:0,0:0:0:0:
133,119,72021,2,0,P|92:174|97:250,1,132.00000402832,2|0,3:0|0:0,0:0:0:0:
113,311,72727,2,0,P|179:292|249:322,1,132.00000402832,8|2,0:0|3:0,0:0:0:0:
291,369,73433,2,0,P|329:361|370:356,1,66.0000020141602,2|12,3:0|0:0,0:0:0:0:
401,293,73904,6,0,P|463:301|503:285,2,99.0000030212403,2|0|8,3:0|0:0|0:0,0:0:0:0:
333,251,74845,1,2,3:0:0:0:
416,148,75316,2,0,P|411:115|404:76,1,66.0000020141602,2|8,3:0|0:0,0:0:0:0:
347,28,75786,2,0,P|305:60|223:45,1,132.00000402832,2|2,3:0|3:0,0:0:0:0:
154,21,76492,1,8,0:0:0:0:
154,21,76727,2,0,P|141:89|130:151,1,132.00000402832,2|2,3:0|3:0,0:0:0:0:
15,217,77668,6,0,P|43:260|43:346,1,132.00000402832,2|2,3:0|3:0,0:0:0:0:
124,368,78374,1,8,0:0:0:0:
124,368,78610,2,0,P|168:356|255:347,1,132.00000402832,2|2,3:0|3:0,0:0:0:0:
311,292,79276,1,8,0:0:0:0:
311,292,79514,6,0,P|312:232|283:175,2,99.0000030212403,2|2|2,3:0|0:3|3:0,0:0:0:0:
235,267,80458,2,0,P|183:255|163:255,1,66.0000020141602,8|8,3:2|3:2,0:0:0:0:
120,192,80931,2,0,P|68:204|48:204,1,66.0000020141602,8|8,3:2|0:0,0:0:0:0:
8,141,81403,6,0,P|6:84|53:37,1,120,4|0,3:2|3:0,0:0:0:0:
125,24,82111,1,12,0:0:0:0:
125,24,82348,2,0,B|166:51|166:51|247:35,1,120,2|2,3:0|3:0,0:0:0:0:
366,20,83292,2,0,P|355:71|343:148,1,120,2|2,3:0|3:0,0:0:0:0:
338,219,84001,1,8,0:0:0:0:
338,219,84237,2,0,P|382:217|448:263,1,120,2|2,3:0|3:0,0:0:0:0:
334,331,85182,6,0,P|275:324|203:315,1,120,2|2,3:0|3:0,0:0:0:0:
153,277,85891,1,8,0:0:0:0:
153,277,86127,2,0,P|89:294|38:307,2,90,2|8|2,3:0|0:0|3:0,0:0:0:0:
213,221,87058,6,0,P|219:153|185:98,1,120,2|8,3:0|0:0,0:0:0:0:
86,66,87841,2,0,B|77:103|44:155|44:155|67:173|86:198,1,150,6|0,3:2|0:0,0:0:0:0:
