osu file format v14

[General]
AudioFilename: audio.mp3
AudioLeadIn: 0
PreviewTime: -1
Countdown: 1
SampleSet: Normal
StackLeniency: 0.7
Mode: 0
LetterboxInBreaks: 0
WidescreenStoryboard: 0

[Editor]
DistanceSpacing: 1.5
BeatDivisor: 3
GridSize: 4
TimelineZoom: 1

[Metadata]
Title:preparing the trappy patty
TitleUnicode:preparing the trappy patty
Artist:Pdwubs
ArtistUnicode:Pdwubs
Creator:Bacwux
Version:Butwhy
Source:
Tags:
BeatmapID:1476231
BeatmapSetID:696978

[Difficulty]
HPDrainRate:7
CircleSize:4
OverallDifficulty:8
ApproachRate:9
SliderMultiplier:1.4
SliderTickRate:1

[Events]
//Background and Video events
//Break Periods
//Storyboard Layer 0 (Background)
//Storyboard Layer 1 (Fail)
//Storyboard Layer 2 (Pass)
//Storyboard Layer 3 (Foreground)
//Storyboard Sound Samples

[TimingPoints]
0,428.571428571429,4,1,0,100,1,0

[HitObjects]
256,192,0,12,0,3428,0:0:0:0:
120,136,4071,5,0,0:0:0:0:
120,136,4178,1,0,0:0:0:0:
120,136,4285,1,8,0:0:0:0:
192,60,4500,1,0,0:0:0:0:
252,176,4714,2,0,L|244:264,1,70,8|0,0:0|0:0,0:0:0:0:
168,316,5142,2,8,P|228:284|316:308,1,140
400,192,5785,5,0,0:0:0:0:
400,192,5892,1,0,0:0:0:0:
400,192,6000,1,8,0:0:0:0:
252,176,6214,1,0,0:0:0:0:
308,304,6428,2,0,L|384:300,1,70,8|0,0:0|0:0,0:0:0:0:
368,96,6857,6,0,L|292:100,1,70,8|0,0:0|0:0,0:0:0:0:
252,176,7285,2,0,L|176:172,1,70,8|0,0:0|0:0,0:0:0:0:
72,88,7714,1,8,0:0:0:0:
172,176,7928,1,0,0:0:0:0:
96,268,8142,1,8,0:0:0:0:
176,84,8357,1,0,0:0:0:0:
220,240,8571,2,8,B|228:280|212:336|212:336|244:300|244:280,1,140
268,172,9214,5,0,0:0:0:0:
268,172,9321,1,0,0:0:0:0:
268,172,9428,2,0,L|266:186,2,8.75,8|0|0,0:0|0:0|0:0,0:0:0:0:
320,96,9642,1,0,0:0:0:0:
364,220,9857,1,8,0:0:0:0:
184,164,10071,1,0,0:0:0:0:
404,144,10285,2,0,L|412:292,1,140,8|8,0:0|0:0,0:0:0:0:
237,301,11142,5,8,0:0:0:0:
184,164,11357,1,0,0:0:0:0:
184,164,11464,1,0,0:0:0:0:
184,164,11571,1,8,0:0:0:0:
328,332,11785,1,0,0:0:0:0:
120,240,12000,5,8,0:0:0:0:
135,208,12107,1,0,0:0:0:0:
140,174,12214,1,2,0:0:0:0:
133,140,12321,1,0,0:0:0:0:
116,109,12428,5,8,0:0:0:0:
149,97,12535,1,0,0:0:0:0:
176,76,12642,1,2,0:0:0:0:
196,48,12749,1,0,0:0:0:0:
205,14,12857,6,0,L|204:44,6,17.5,8|0|0|2|0|0|0,0:0|0:0|0:0|0:0|0:0|0:0|0:0,0:0:0:0:
284,72,13285,2,0,L|282:101,6,17.5,8|0|0|2|0|0|0,0:0|0:0|0:0|0:0|0:0|0:0|0:0,0:0:0:0:
220,148,13714,1,8,0:0:0:0:
256,192,13767,12,0,15428,0:0:0:0:
204,104,15714,5,0,0:0:0:0:
328,244,15857,1,8,0:0:0:0:
200,200,16000,1,2,0:0:0:0:
200,200,16071,1,0,0:0:0:0:
200,200,16142,1,0,0:0:0:0:
280,52,16285,1,8,0:0:0:0:
328,244,16428,1,2,0:0:0:0:
328,244,16500,1,0,0:0:0:0:
328,244,16571,1,0,0:0:0:0:
128,144,16714,5,8,0:0:0:0:
356,100,16857,1,2,0:0:0:0:
356,100,16928,1,0,0:0:0:0:
356,100,17000,1,0,0:0:0:0:
232,284,17142,1,8,0:0:0:0:
204,104,17285,1,2,0:0:0:0:
204,104,17357,1,0,0:0:0:0:
204,104,17428,1,0,0:0:0:0:
404,188,17571,5,8,0:0:0:0:
156,272,17714,1,2,0:0:0:0:
156,272,17785,1,0,0:0:0:0:
156,272,17857,1,0,0:0:0:0:
280,52,18000,1,8,0:0:0:0:
328,244,18142,1,2,0:0:0:0:
328,244,18214,1,0,0:0:0:0:
328,244,18285,1,0,0:0:0:0:
128,144,18428,5,8,0:0:0:0:
128,144,18714,1,8,0:0:0:0:
404,188,18857,1,4,0:0:0:0:
212,344,19285,5,8,0:0:0:0:
204,104,19428,1,2,0:0:0:0:
204,104,19500,1,0,0:0:0:0:
204,104,19571,1,0,0:0:0:0:
372,292,19714,1,8,0:0:0:0:
380,52,19857,1,2,0:0:0:0:
380,52,19929,1,0,0:0:0:0:
380,52,20000,1,0,0:0:0:0:
156,272,20142,5,8,0:0:0:0:
436,240,20285,1,2,0:0:0:0:
436,240,20357,1,0,0:0:0:0:
436,240,20428,1,0,0:0:0:0:
64,104,20571,1,8,0:0:0:0:
344,136,20714,1,2,0:0:0:0:
344,136,20786,1,0,0:0:0:0:
344,136,20857,1,0,0:0:0:0:
156,272,21000,5,8,0:0:0:0:
276,56,21142,1,2,0:0:0:0:
276,56,21214,1,0,0:0:0:0:
276,56,21285,1,0,0:0:0:0:
324,320,21428,1,8,0:0:0:0:
204,104,21570,1,2,0:0:0:0:
204,104,21642,1,0,0:0:0:0:
204,104,21713,1,0,0:0:0:0:
404,180,21857,5,8,0:0:0:0:
404,180,22142,1,8,0:0:0:0:
156,272,22285,1,4,0:0:0:0:
204,104,22714,5,8,0:0:0:0:
335,285,22857,1,2,0:0:0:0:
335,285,22928,1,0,0:0:0:0:
335,285,23000,1,0,0:0:0:0:
335,62,23142,1,8,0:0:0:0:
204,242,23285,1,2,0:0:0:0:
415,173,23428,1,0,0:0:0:0:
204,104,23571,5,8,0:0:0:0:
335,285,23714,1,2,0:0:0:0:
335,62,23857,1,0,0:0:0:0:
132,204,24000,5,8,0:0:0:0:
428,264,24214,1,0,0:0:0:0:
204,104,24428,5,8,0:0:0:0:
256,336,24571,1,2,0:0:0:0:
308,104,24714,1,0,0:0:0:0:
204,280,24857,5,8,0:0:0:0:
256,48,25000,1,2,0:0:0:0:
308,280,25143,1,0,0:0:0:0:
112,192,25285,5,8,0:0:0:0:
256,336,25428,1,2,0:0:0:0:
400,192,25571,1,0,0:0:0:0:
256,48,25714,1,12,0:0:0:0:
256,336,26142,5,8,0:0:0:0:
140,256,26285,1,2,0:0:0:0:
267,195,26428,1,0,0:0:0:0:
256,336,26571,5,8,0:0:0:0:
146,207,26714,1,2,0:0:0:0:
312,175,26857,1,0,0:0:0:0:
256,336,26999,5,8,0:0:0:0:
168,152,27142,1,2,0:0:0:0:
370,166,27285,1,0,0:0:0:0:
256,336,27428,6,0,L|268:216,1,105,8|0,0:0|0:0,0:0:0:0:
272,208,27857,1,8,0:0:0:0:
168,304,28071,1,0,0:0:0:0:
376,244,28285,2,0,L|364:156,1,70,8|0,0:0|0:0,0:0:0:0:
212,136,28714,2,0,L|224:48,1,70,8|0,0:0|0:0,0:0:0:0:
