osu file format v14

[General]
AudioFilename: audio.mp3
AudioLeadIn: 0
PreviewTime: 31276
Countdown: 1
SampleSet: Normal
StackLeniency: 0.7
Mode: 0
LetterboxInBreaks: 0
WidescreenStoryboard: 0

[Editor]
DistanceSpacing: 0.6
BeatDivisor: 4
GridSize: 8
TimelineZoom: 1.600006

[Metadata]
Title:Weight of my pride
TitleUnicode:Weight of my pride
Artist:Pay money To my Pain
ArtistUnicode:Pay money To my Pain
Creator:sabiruddin
Version:Extra
Source:Hajime no Ippo
Tags:hajime no ippo weight of my pride pay money to my pain
BeatmapID:1349664
BeatmapSetID:636020

[Difficulty]
HPDrainRate:5
CircleSize:4
OverallDifficulty:8
ApproachRate:9.5
SliderMultiplier:1.4
SliderTickRate:1

[Events]
//Background and Video events
0,0,"ippo.jpeg",0,0
//Break Periods
2,81260,90676
2,94071,95217
2,161206,181562
2,200449,202319
//Storyboard Layer 0 (Background)
//Storyboard Layer 1 (Fail)
//Storyboard Layer 2 (Pass)
//Storyboard Layer 3 (Foreground)
//Storyboard Sound Samples

[TimingPoints]
466,324.324324324324,4,1,0,100,1,0
10844,-100,4,1,0,100,0,0
31276,-100,4,1,0,100,0,0
31601,-100,4,1,0,100,0,1
52682,-200,4,1,0,100,0,0
70520,-200,4,1,0,100,0,0
80898,-200,4,1,0,100,0,0
91276,-100,4,1,0,100,0,0
97925,-200,4,1,0,100,0,0
101655,-100,4,1,0,100,0,1
123060,-200,4,1,0,100,0,0
140574,-100,4,1,0,100,0,0
161330,-100,4,1,0,100,0,0
182087,-133.333333333333,4,1,0,100,0,0
200249,-100,4,1,0,100,0,0
202844,-100,4,1,0,100,0,1
212574,-66.6666666666667,4,1,0,100,0,1
213222,-100,4,1,0,100,0,1
213871,-200,4,1,0,100,0,0
233979,-200,4,1,0,100,0,0
242411,-200,4,1,0,100,0,0
249547,-100,4,1,0,100,0,1
254736,-100,4,1,0,100,0,1
259925,-100,4,1,0,100,0,1
265114,-100,4,1,0,100,0,1
269655,-100,4,1,0,100,0,0

[HitObjects]
124,256,10844,5,0,0:0:0:0:
188,72,11006,1,0,0:0:0:0:
320,224,11168,2,0,P|320:256|352:288,1,70
408,172,11493,1,0,0:0:0:0:
416,96,11655,2,0,P|416:64|384:64,1,70
272,116,11980,1,0,0:0:0:0:
256,192,12141,2,0,B|256:224|224:256,1,70
108,252,12465,1,0,0:0:0:0:
108,252,12628,2,0,P|128:224|192:224,1,70
256,288,12952,1,0,0:0:0:0:
256,288,13033,1,0,0:0:0:0:
256,288,13114,2,0,L|320:224,1,70
380,240,13438,5,0,0:0:0:0:
448,64,13601,1,0,0:0:0:0:
256,64,13763,2,0,P|224:64|192:96,1,70
96,192,14087,1,0,0:0:0:0:
128,256,14249,2,0,P|160:288|192:256,1,70
320,128,14574,1,0,0:0:0:0:
384,192,14736,2,0,P|352:224|320:192,1,70
128,128,15060,1,0,0:0:0:0:
192,64,15222,2,0,P|224:32|256:64,1,70
416,128,15547,1,0,0:0:0:0:
416,128,15628,1,0,0:0:0:0:
416,128,15709,2,0,L|352:192,1,70
136,288,16033,5,0,0:0:0:0:
192,96,16195,1,0,0:0:0:0:
320,288,16357,2,0,P|320:316|288:348,1,70
128,352,16682,1,0,0:0:0:0:
384,320,16844,2,0,P|416:288|384:256,1,70
384,224,17168,1,0,0:0:0:0:
128,224,17330,2,0,P|96:192|128:160,1,70
128,128,17654,1,0,0:0:0:0:
384,128,17817,2,0,P|416:96|384:64,1,70
384,32,18141,1,0,0:0:0:0:
128,32,18303,2,0,P|96:32|64:64,1,70
64,128,18628,5,0,0:0:0:0:
64,128,18709,1,0,0:0:0:0:
64,128,18790,1,0,0:0:0:0:
248,192,19114,5,0,0:0:0:0:
248,192,19195,1,0,0:0:0:0:
248,192,19276,1,0,0:0:0:0:
128,320,19601,5,0,0:0:0:0:
128,320,19682,1,0,0:0:0:0:
128,320,19763,1,0,0:0:0:0:
352,256,20087,5,0,0:0:0:0:
352,256,20168,1,0,0:0:0:0:
352,256,20249,1,0,0:0:0:0:
224,160,20574,5,0,0:0:0:0:
224,160,20655,1,0,0:0:0:0:
224,160,20736,2,0,P|192:192|224:224,1,70
288,160,21222,5,0,0:0:0:0:
140,248,21384,1,0,0:0:0:0:
384,148,21547,2,0,P|384:192|352:192,1,70
152,120,21871,1,0,0:0:0:0:
160,192,22033,2,0,P|192:224|224:192,1,70
376,152,22358,1,0,0:0:0:0:
376,88,22520,2,0,P|352:64|320:96,1,70
224,128,22844,1,0,0:0:0:0:
224,128,23006,2,0,P|192:160|224:192,1,70
344,216,23330,1,0,0:0:0:0:
344,216,23493,2,0,P|352:192|320:160,1,70
264,216,23817,5,0,0:0:0:0:
116,128,23979,1,0,0:0:0:0:
352,192,24141,2,0,P|352:224|320:224,1,70
128,256,24466,1,0,0:0:0:0:
128,192,24628,2,0,P|128:160|160:160,1,70
352,224,24953,1,0,0:0:0:0:
352,288,25114,2,0,P|352:320|320:320,1,70
192,256,25439,1,0,0:0:0:0:
192,256,25601,2,0,P|192:224|224:224,1,70
320,160,25925,1,0,0:0:0:0:
320,160,26087,2,0,P|320:128|288:128,1,70
176,160,26411,5,0,0:0:0:0:
64,192,26573,1,0,0:0:0:0:
64,192,26655,1,0,0:0:0:0:
64,192,26736,2,0,B|64:160|64:160|96:128,1,70
224,64,27060,5,0,0:0:0:0:
224,64,27141,1,0,0:0:0:0:
224,64,27222,2,0,B|256:64|256:64|288:96,1,70
144,104,27547,5,0,0:0:0:0:
144,104,27628,1,0,0:0:0:0:
144,104,27709,2,0,L|164:172,1,70
368,136,28032,5,0,0:0:0:0:
368,136,28113,1,0,0:0:0:0:
368,136,28195,2,0,L|320:224,1,70
168,288,28520,5,0,0:0:0:0:
168,288,28601,1,0,0:0:0:0:
168,288,28682,2,0,L|228:244,1,70
356,96,29006,6,0,P|412:172|396:216,1,140
112,176,29493,6,0,P|72:248|120:280,1,140
264,216,29979,6,0,P|308:172|276:108,1,140
200,144,30465,6,0,P|144:180|144:256,1,140
328,212,30952,6,0,P|348:232|336:292,1,70
212,176,31276,1,0,0:0:0:0:
140,60,31601,5,0,0:0:0:0:
140,60,31682,1,0,0:0:0:0:
140,60,31763,1,0,0:0:0:0:
140,60,31844,1,0,0:0:0:0:
140,60,31925,1,0,0:0:0:0:
140,60,32006,1,0,0:0:0:0:
140,60,32087,2,0,L|176:120,1,70
272,288,32411,5,0,0:0:0:0:
272,288,32492,1,0,0:0:0:0:
272,288,32574,1,0,0:0:0:0:
304,304,32655,1,0,0:0:0:0:
344,304,32736,1,0,0:0:0:0:
376,288,32817,1,0,0:0:0:0:
396,256,32898,2,0,P|412:216|356:148,1,140
168,176,33384,6,0,P|164:212|224:304,1,140
292,208,33871,2,0,P|308:260|300:296,1,70
84,192,34195,2,0,L|84:120,1,70
384,56,34520,2,0,L|384:132,1,70
216,112,34844,2,0,L|128:112,1,70
232,312,35168,2,0,L|312:312,1,70
384,144,35493,2,0,P|428:100|420:76,1,70
128,152,35817,2,0,P|96:220|80:224,2,70
148,64,36303,5,0,0:0:0:0:
248,60,36465,1,0,0:0:0:0:
283,67,36546,1,0,0:0:0:0:
315,80,36627,1,0,0:0:0:0:
344,100,36708,1,0,0:0:0:0:
371,124,36790,2,0,P|411:188|395:260,1,140
144,176,37276,2,0,L|100:256,1,70
232,240,37601,6,0,L|264:176,2,70
456,184,38087,6,0,P|416:216|424:324,1,140
184,136,38574,6,0,L|140:212,1,70
340,176,38898,1,0,0:0:0:0:
296,264,39060,1,0,0:0:0:0:
116,100,39222,6,0,L|68:180,1,70
364,280,39547,2,0,L|417:192,1,70
436,52,39871,2,0,L|448:128,1,70
128,64,40195,1,0,0:3:0:0:
72,232,40357,1,0,0:3:0:0:
72,232,40438,1,0,0:3:0:0:
72,232,40520,1,0,0:3:0:0:
216,120,40682,1,0,0:3:0:0:
40,120,40844,1,0,0:3:0:0:
40,120,40925,1,0,0:3:0:0:
40,120,41006,1,0,0:3:0:0:
200,224,41168,1,0,0:3:0:0:
200,224,41249,1,0,0:3:0:0:
200,224,41330,1,0,0:3:0:0:
296,80,41493,5,0,0:0:0:0:
416,208,41655,1,0,0:0:0:0:
416,219,41736,1,0,0:0:0:0:
416,231,41817,1,0,0:0:0:0:
416,243,41898,1,0,0:0:0:0:
416,256,41979,2,0,P|384:328|328:344,1,140
152,336,42465,5,0,0:0:0:0:
288,224,42628,1,0,0:0:0:0:
256,96,42790,1,0,0:0:0:0:
128,160,42952,1,0,0:0:0:0:
128,160,43033,1,0,0:0:0:0:
128,160,43114,1,0,0:0:0:0:
352,64,43276,1,0,0:0:0:0:
352,64,43357,1,0,0:0:0:0:
352,64,43438,1,0,0:0:0:0:
288,224,43601,5,0,0:0:0:0:
160,256,43763,1,0,0:0:0:0:
160,96,43925,1,0,0:0:0:0:
352,96,44087,1,0,0:0:0:0:
320,256,44249,1,0,0:0:0:0:
160,192,44411,1,0,0:0:0:0:
256,64,44574,1,0,0:0:0:0:
256,320,44736,5,0,0:0:0:0:
352,96,44898,1,0,0:0:0:0:
160,288,45060,1,0,0:0:0:0:
384,192,45222,1,0,0:0:0:0:
128,192,45384,1,0,0:0:0:0:
352,288,45547,1,0,0:0:0:0:
160,96,45709,1,0,0:0:0:0:
352,96,45871,2,0,P|416:160|384:192,1,140
272,80,46357,1,0,0:0:0:0:
272,80,46438,1,0,0:0:0:0:
272,80,46520,1,0,0:0:0:0:
264,240,46682,1,0,0:0:0:0:
192,104,46844,2,0,L|160:72,2,35
352,96,47168,5,0,0:0:0:0:
352,96,47249,1,0,0:0:0:0:
352,96,47330,2,0,L|352:192,1,70
256,192,47655,2,0,L|160:304,1,140
288,64,48141,2,0,P|320:64|352:96,1,70
352,128,48465,2,0,L|352:288,1,140
192,320,48952,2,0,P|128:320|96:256,1,140
128,160,49438,2,0,P|160:96|224:96,1,140
336,176,50087,5,0,0:0:0:0:
192,288,50411,1,0,0:0:0:0:
160,112,50736,1,0,0:0:0:0:
352,96,51060,1,0,0:0:0:0:
352,256,51384,1,0,0:0:0:0:
160,256,51709,1,0,0:0:0:0:
160,96,52033,1,0,0:0:0:0:
352,288,52357,1,0,0:0:0:0:
64,128,53006,5,0,0:0:0:0:
112,96,53330,1,0,0:0:0:0:
160,80,53655,2,0,B|160:128|160:128|192:112,1,70
352,64,54303,2,0,L|368:112,1,35
416,176,54628,2,0,L|384:208,1,35
256,192,54952,1,0,0:0:0:0:
256,192,55925,5,0,0:0:0:0:
288,48,56249,2,0,L|320:112,1,70
256,192,56897,5,0,0:0:0:0:
160,320,57222,2,0,L|128:256,1,70
400,208,57871,2,0,L|416:240,1,35
304,96,58195,2,0,L|288:144,1,35
112,48,58520,5,0,0:0:0:0:
160,80,58844,1,0,0:0:0:0:
112,176,59168,1,0,0:0:0:0:
240,112,59493,1,0,0:0:0:0:
208,240,59817,1,0,0:0:0:0:
352,176,60141,2,0,L|352:256,2,70
208,224,61114,5,0,0:0:0:0:
256,128,61438,1,0,0:0:0:0:
128,128,61763,1,0,0:0:0:0:
144,80,62087,1,0,0:0:0:0:
384,80,62736,5,0,0:0:0:0:
336,96,63384,5,0,0:0:0:0:
336,96,63709,1,0,0:0:0:0:
336,96,64033,1,0,0:0:0:0:
432,208,64357,1,0,0:0:0:0:
336,304,64682,1,0,0:0:0:0:
176,272,65006,1,0,0:0:0:0:
192,128,65330,2,0,P|192:96|224:80,2,70
176,208,66303,5,0,0:0:0:0:
240,304,66628,5,0,0:0:0:0:
352,224,66952,1,0,0:0:0:0:
352,112,67276,5,0,0:0:0:0:
224,80,67601,1,0,0:0:0:0:
112,128,67925,5,0,0:0:0:0:
128,256,68249,1,0,0:0:0:0:
272,256,68574,5,0,0:0:0:0:
352,144,68898,1,0,0:0:0:0:
208,96,69222,2,0,P|256:112|256:128,2,70
128,48,70033,2,0,P|96:80|96:112,1,70
96,192,70520,5,0,0:0:0:0:
96,192,70601,1,0,0:0:0:0:
96,192,70682,1,0,0:0:0:0:
96,192,70763,1,0,0:0:0:0:
96,192,70844,1,0,0:0:0:0:
192,192,71006,2,0,L|208:224,1,35
304,240,71330,1,0,0:0:0:0:
240,320,71493,1,0,0:0:0:0:
400,256,71655,1,0,0:0:0:0:
336,352,71817,1,0,0:0:0:0:
480,272,71979,1,0,0:0:0:0:
416,368,72141,1,0,0:0:0:0:
320,256,72303,1,0,0:0:0:0:
432,224,72465,2,0,L|448:240,6,17.5
352,112,73114,6,0,L|368:96,4,17.5
320,64,73601,2,0,L|272:64,1,35
192,96,73925,1,0,0:0:0:0:
160,144,74087,1,0,0:0:0:0:
112,160,74249,1,0,0:0:0:0:
96,208,74411,1,0,0:0:0:0:
144,240,74573,1,0,0:0:0:0:
256,208,74736,2,0,L|272:192,2,17.5
288,112,75060,2,0,L|304:128,2,17.5
384,160,75384,2,0,L|368:176,2,17.5
96,192,75709,5,0,0:0:0:0:
96,192,75790,1,0,0:0:0:0:
96,192,75871,1,0,0:0:0:0:
96,192,75952,1,0,0:0:0:0:
96,192,76033,1,0,0:0:0:0:
192,192,76195,2,0,L|208:160,1,35
304,144,76519,1,0,0:0:0:0:
240,64,76682,1,0,0:0:0:0:
400,128,76844,1,0,0:0:0:0:
336,32,77006,1,0,0:0:0:0:
480,112,77168,1,0,0:0:0:0:
416,16,77330,1,0,0:0:0:0:
368,160,77493,1,0,0:0:0:0:
432,208,77655,2,0,L|448:192,6,17.5
352,272,78303,6,0,L|368:288,4,17.5
320,320,78790,2,0,L|272:320,1,35
192,288,79114,1,0,0:0:0:0:
160,240,79276,1,0,0:0:0:0:
112,224,79438,1,0,0:0:0:0:
96,176,79600,1,0,0:0:0:0:
144,144,79762,1,0,0:0:0:0:
256,176,79925,2,0,L|272:192,2,17.5
288,272,80249,2,0,L|304:256,2,17.5
384,224,80573,2,0,L|368:208,2,17.5
288,128,80898,1,0,0:0:0:0:
288,128,81060,1,0,0:0:0:0:
416,80,91276,5,0,0:0:0:0:
288,128,91438,1,0,0:0:0:0:
400,224,91763,6,0,P|352:256|288:208,1,140
112,144,92250,6,0,P|160:96|240:128,1,140
256,192,92736,12,0,93871,0:0:0:0:
208,160,95817,5,0,0:0:0:0:
320,176,95979,1,0,0:0:0:0:
272,240,96465,6,0,P|224:272|160:224,1,140
224,128,96952,6,0,P|272:80|352:112,1,140
320,224,97438,6,0,P|288:272|352:320,1,140
256,192,97925,12,0,98898,0:0:0:0:
384,112,99060,5,0,0:0:0:0:
384,112,99141,1,0,0:0:0:0:
384,112,99222,2,0,L|368:160,1,35
224,128,99547,5,0,0:0:0:0:
224,128,99628,1,0,0:0:0:0:
224,128,99709,2,0,L|240:160,1,35
320,256,100033,5,0,0:0:0:0:
320,256,100114,1,0,0:0:0:0:
320,256,100195,2,0,L|304:288,1,35
160,272,100520,5,0,0:0:0:0:
160,272,100601,1,0,0:0:0:0:
160,272,100682,2,0,L|144:304,1,35
48,208,101006,1,0,0:0:0:0:
384,192,101330,5,0,0:0:0:0:
208,96,101655,5,0,0:0:0:0:
230,69,101736,1,0,0:0:0:0:
259,49,101817,1,0,0:0:0:0:
291,36,101898,1,0,0:0:0:0:
326,31,101979,1,0,0:0:0:0:
360,35,102060,1,0,0:0:0:0:
393,47,102141,1,0,0:0:0:0:
422,67,102222,1,0,0:0:0:0:
448,80,102303,5,0,0:0:0:0:
421,102,102384,1,0,0:0:0:0:
400,130,102465,1,0,0:0:0:0:
388,163,102546,1,0,0:0:0:0:
383,197,102627,1,0,0:0:0:0:
388,232,102708,1,0,0:0:0:0:
400,265,102789,1,0,0:0:0:0:
421,293,102870,1,0,0:0:0:0:
442,326,102952,6,0,P|378:342|362:342,1,70
272,192,103276,1,0,0:0:0:0:
272,192,103357,1,0,0:0:0:0:
272,192,103438,2,0,L|208:160,1,70
80,144,103763,1,0,0:0:0:0:
112,272,103925,1,0,0:0:0:0:
112,272,104006,1,0,0:0:0:0:
112,272,104087,2,0,L|192:320,1,70
320,320,104411,5,0,0:0:0:0:
400,240,104574,1,0,0:0:0:0:
432,144,104736,1,0,0:0:0:0:
368,64,104898,1,0,0:0:0:0:
333,71,104979,1,0,0:0:0:0:
299,76,105060,1,0,0:0:0:0:
264,79,105141,1,0,0:0:0:0:
229,80,105222,1,0,0:0:0:0:
194,78,105303,1,0,0:0:0:0:
159,73,105384,1,0,0:0:0:0:
125,66,105465,1,0,0:0:0:0:
91,58,105547,6,0,P|171:218|139:314,1,280
288,176,106520,5,0,0:0:0:0:
288,176,106601,1,0,0:0:0:0:
288,176,106682,1,0,0:0:0:0:
288,176,106763,1,0,0:0:0:0:
288,176,106844,2,0,L|256:320,1,140
384,320,107330,2,0,L|464:320,1,70
432,176,107655,1,0,0:0:0:0:
400,144,107736,1,0,0:0:0:0:
368,112,107817,1,0,0:0:0:0:
256,64,107979,2,0,P|240:112|208:144,1,70
96,160,108303,2,0,L|80:240,1,70
160,320,108628,2,0,L|240:320,1,70
320,256,108952,2,0,L|384:224,1,70
272,96,109276,6,0,P|240:80|224:112,1,70
160,208,109601,2,0,L|160:304,1,70
352,272,109925,2,0,L|352:192,1,70
250,64,110249,2,0,L|320:64,2,70
96,192,110736,1,0,0:0:0:0:
336,176,110898,1,0,0:0:0:0:
336,176,110979,1,0,0:0:0:0:
336,176,111060,1,0,0:0:0:0:
96,320,111222,1,0,0:0:0:0:
448,288,111384,1,0,0:0:0:0:
448,288,111465,1,0,0:0:0:0:
448,288,111546,1,0,0:0:0:0:
208,64,111709,5,0,0:0:0:0:
247,91,111790,1,0,0:0:0:0:
293,103,111871,1,0,0:0:0:0:
340,99,111952,1,0,0:0:0:0:
384,80,112033,5,0,0:0:0:0:
374,113,112114,1,0,0:0:0:0:
369,148,112195,1,0,0:0:0:0:
367,183,112276,1,0,0:0:0:0:
368,218,112357,1,0,0:0:0:0:
374,252,112438,1,0,0:0:0:0:
384,288,112520,2,0,P|288:320|272:288,1,140
96,176,113006,1,0,0:0:0:0:
96,176,113087,1,0,0:0:0:0:
96,176,113168,1,0,0:0:0:0:
240,64,113330,1,0,0:0:0:0:
224,224,113493,2,0,L|192:160,1,70
128,64,113817,6,0,P|160:32|240:64,1,140
336,96,114303,2,0,P|336:144|368:144,1,70
448,144,114628,2,0,P|464:176|432:272,1,140
208,48,115114,2,0,P|176:64|176:160,1,140
328,120,115601,2,0,P|360:72|344:40,1,70
392,312,115925,2,0,P|328:312|312:328,1,70
112,288,116250,5,0,0:0:0:0:
256,144,116412,1,0,0:0:0:0:
256,144,116493,1,0,0:0:0:0:
256,144,116574,1,0,0:0:0:0:
192,336,116736,5,0,0:0:0:0:
384,96,116898,1,0,0:0:0:0:
384,96,116979,1,0,0:0:0:0:
384,96,117060,1,0,0:0:0:0:
112,144,117222,6,0,P|128:112|160:128,1,70
368,176,117547,1,0,0:0:0:0:
368,176,117628,1,0,0:0:0:0:
368,176,117709,2,0,P|384:144|352:112,1,70
160,304,118033,5,0,0:0:0:0:
160,304,118114,1,0,0:0:0:0:
160,304,118195,2,0,P|128:288|128:256,1,70
304,80,118520,2,0,P|336:80|352:112,1,70
160,256,118844,5,0,0:0:0:0:
160,256,118925,1,0,0:0:0:0:
160,256,119006,2,0,P|128:224|144:208,1,70
384,96,119330,5,0,0:0:0:0:
384,96,119411,1,0,0:0:0:0:
384,96,119492,2,0,P|416:112|416:144,1,70
176,272,119817,2,0,P|144:256|128:160,1,140
240,128,120303,2,0,P|288:128|304:208,1,140
144,80,120790,6,0,L|112:128,2,35
288,80,121114,2,0,L|320:128,2,35
400,176,121438,1,0,0:0:0:0:
400,176,121520,1,0,0:0:0:0:
400,176,121601,1,0,0:0:0:0:
240,240,121763,2,0,L|240:288,2,35
128,112,122087,2,0,L|128:64,2,35
384,208,122411,1,0,0:0:0:0:
160,80,123060,5,0,0:0:0:0:
160,160,123384,1,0,0:0:0:0:
160,240,123709,2,0,P|160:272|192:288,1,70
432,160,124357,1,0,0:0:0:0:
368,112,124682,1,0,0:0:0:0:
304,64,125006,2,0,P|272:48|240:64,1,70
192,272,125979,5,0,0:0:0:0:
320,64,126303,2,0,P|272:64|256:80,1,70
304,272,126952,1,0,0:0:0:0:
384,64,127276,2,0,P|336:80|320:96,1,70
160,80,127925,2,0,L|160:128,1,35
336,192,128249,2,0,L|320:224,1,35
80,160,128574,5,0,0:0:0:0:
176,80,128898,1,0,0:0:0:0:
208,192,129222,1,0,0:0:0:0:
304,240,129547,2,0,P|336:208|320:192,1,70
128,64,130195,6,0,L|112:96,1,35
208,112,130520,2,0,L|192:144,1,35
288,160,130844,1,0,0:0:0:0:
368,240,131168,5,0,0:0:0:0:
368,240,131249,1,0,0:0:0:0:
368,240,131330,1,0,0:0:0:0:
368,240,131411,1,0,0:0:0:0:
368,240,131493,1,0,0:0:0:0:
288,64,131817,6,0,P|272:48|240:80,2,70
384,144,132790,1,0,0:0:0:0:
112,224,133438,6,0,L|128:192,1,35
176,80,133763,1,0,0:0:0:0:
176,80,133844,1,0,0:0:0:0:
176,80,133925,1,0,0:0:0:0:
192,288,134087,2,0,L|208:240,1,35
272,64,134411,1,0,0:0:0:0:
272,64,134493,1,0,0:0:0:0:
272,64,134574,1,0,0:0:0:0:
240,368,134736,2,0,L|256:336,1,35
352,32,135060,1,0,0:0:0:0:
352,32,135141,1,0,0:0:0:0:
352,32,135222,1,0,0:0:0:0:
144,304,135384,6,0,P|96:256|144:208,1,140
272,64,136357,2,0,P|304:48|320:80,2,70
128,64,137330,2,0,P|96:96|112:112,1,70
112,224,137979,5,0,0:0:0:0:
176,272,138303,1,0,0:0:0:0:
240,320,138628,1,0,0:0:0:0:
288,256,138952,1,0,0:0:0:0:
336,192,139276,1,0,0:0:0:0:
272,144,139601,1,0,0:0:0:0:
208,112,139925,1,0,0:0:0:0:
160,176,140249,1,0,0:0:0:0:
336,48,140574,5,0,0:0:0:0:
448,224,140736,1,0,0:0:0:0:
256,112,140898,1,0,0:0:0:0:
512,128,141060,1,0,0:0:0:0:
288,240,141222,5,0,0:0:0:0:
176,176,141384,1,0,0:0:0:0:
64,112,141547,5,0,0:0:0:0:
64,112,141628,1,0,0:0:0:0:
64,112,141709,1,0,0:0:0:0:
80,224,141871,1,0,0:0:0:0:
112,320,142033,6,0,L|160:320,2,35
192,256,142357,2,0,L|192:208,2,35
272,160,142682,5,0,0:0:0:0:
272,160,142844,1,0,0:0:0:0:
368,208,143006,5,0,0:0:0:0:
368,208,143087,1,0,0:0:0:0:
368,208,143168,2,0,L|368:256,2,35
272,64,143493,6,0,L|304:32,2,35
192,192,143817,5,0,0:0:0:0:
192,192,143898,1,0,0:0:0:0:
192,192,143979,1,0,0:0:0:0:
192,192,144060,1,0,0:0:0:0:
192,192,144141,2,0,L|176:256,2,35
384,208,144465,6,0,L|416:256,2,35
272,64,144790,5,0,0:0:0:0:
272,64,144871,1,0,0:0:0:0:
272,64,144952,1,0,0:0:0:0:
96,96,145114,2,0,P|48:160|80:208,1,140
192,48,145601,5,0,0:0:0:0:
368,144,145763,1,0,0:0:0:0:
368,144,145844,1,0,0:0:0:0:
368,144,145925,1,0,0:0:0:0:
288,272,146087,5,0,0:0:0:0:
288,272,146168,1,0,0:0:0:0:
288,272,146249,1,0,0:0:0:0:
96,144,146411,5,0,0:0:0:0:
240,48,146574,1,0,0:0:0:0:
176,208,146736,1,0,0:0:0:0:
320,112,146898,1,0,0:0:0:0:
240,288,147060,1,0,0:0:0:0:
400,176,147222,1,0,0:0:0:0:
320,352,147384,1,0,0:0:0:0:
480,224,147547,2,0,P|464:192|368:144,1,140
112,48,148033,5,0,0:0:0:0:
112,48,148114,1,0,0:0:0:0:
112,48,148195,1,0,0:0:0:0:
272,80,148357,2,0,P|320:80|336:112,1,70
432,176,148682,1,0,0:0:0:0:
384,288,148844,1,0,0:0:0:0:
96,192,149006,1,0,0:0:0:0:
96,192,149087,1,0,0:0:0:0:
96,192,149168,1,0,0:0:0:0:
144,304,149330,1,0,0:0:0:0:
272,128,149493,1,0,0:0:0:0:
448,288,149655,6,0,P|464:224|448:208,1,70
192,80,149979,1,0,0:0:0:0:
192,80,150060,1,0,0:0:0:0:
192,80,150141,1,0,0:0:0:0:
352,256,150303,2,0,P|416:224|416:160,1,140
352,144,150952,5,0,0:0:0:0:
352,144,151033,1,0,0:0:0:0:
352,144,151114,1,0,0:0:0:0:
256,272,151276,5,0,0:0:0:0:
256,272,151357,1,0,0:0:0:0:
256,272,151438,1,0,0:0:0:0:
96,80,151601,6,0,L|112:32,2,35
128,240,151925,2,0,L|112:272,2,35
240,112,152249,2,0,L|256:80,1,35
288,272,152411,2,0,L|272:304,1,35
400,112,152574,2,0,L|416:64,2,35
416,288,152898,2,0,P|416:336|384:352,2,70
144,96,153547,5,0,0:0:0:0:
176,80,153628,1,0,0:0:0:0:
224,64,153710,1,0,0:0:0:0:
272,64,153790,2,0,P|304:64|336:80,1,35
416,144,154033,2,0,P|432:192|432:240,2,70
80,144,154520,5,0,0:0:0:0:
80,144,154601,1,0,0:0:0:0:
80,144,154682,1,0,0:0:0:0:
224,64,154844,1,0,0:0:0:0:
176,224,155006,2,0,P|160:256|176:288,2,70
448,256,155493,5,0,0:0:0:0:
448,256,155574,1,0,0:0:0:0:
448,256,155655,1,0,0:0:0:0:
432,112,155817,1,0,0:0:0:0:
128,112,156141,5,0,0:0:0:0:
144,128,156222,1,0,0:0:0:0:
160,144,156303,1,0,0:0:0:0:
384,96,156465,5,0,0:0:0:0:
368,112,156547,1,0,0:0:0:0:
352,128,156628,1,0,0:0:0:0:
184,280,156790,6,0,L|152:320,2,35
352,256,157114,5,0,0:0:0:0:
400,256,157195,1,0,0:0:0:0:
448,256,157276,1,0,0:0:0:0:
416,64,157438,1,0,0:0:0:0:
288,208,157601,1,0,0:0:0:0:
240,48,157763,1,0,0:0:0:0:
448,176,157925,1,0,0:0:0:0:
448,176,158006,1,0,0:0:0:0:
448,176,158087,2,0,L|368:176,1,70
448,320,158411,1,0,0:0:0:0:
208,128,158736,6,0,L|192:96,1,35
352,144,159060,2,0,L|384:96,1,35
192,288,159384,1,0,0:0:0:0:
192,288,159465,1,0,0:0:0:0:
192,288,159547,1,0,0:0:0:0:
80,144,159709,1,0,0:0:0:0:
288,240,159871,1,0,0:0:0:0:
192,128,160033,1,0,0:0:0:0:
320,64,160195,1,0,0:0:0:0:
400,160,160357,1,0,0:0:0:0:
400,160,160438,1,0,0:0:0:0:
400,160,160520,2,0,P|416:208|368:288,1,140
208,112,161006,5,0,0:0:0:0:
128,144,182087,6,0,P|144:96|192:96,1,105.000004005432
352,96,182574,2,0,L|384:144,1,52.5000020027161
368,240,182898,1,0,0:0:0:0:
224,288,183060,2,0,P|224:320|192:336,1,52.5000020027161
112,232,183384,2,0,P|96:208|104:184,1,52.5000020027161
128,64,183709,5,0,0:0:0:0:
312,64,183871,2,0,P|344:64|368:96,1,52.5000020027161
400,224,184195,5,0,0:0:0:0:
208,304,184357,2,0,P|184:312|160:296,1,52.5000020027161
128,80,184682,6,0,P|183:64|224:94,1,105.000004005432,0|0,0:3|0:0,0:0:0:0:
384,120,185168,2,0,P|416:152|408:216,1,105.000004005432
304,296,185655,2,0,P|272:304|248:288,1,52.5000020027161
144,208,185979,2,0,P|112:160|144:112,1,105.000004005432
272,256,186952,5,0,0:0:0:0:
96,216,187276,5,0,0:0:0:0:
200,80,187438,1,0,0:0:0:0:
384,160,187763,6,0,L|416:208,1,52.5000020027161
256,144,188249,2,0,L|224:192,1,52.5000020027161
272,304,188574,2,0,L|336:304,1,52.5000020027161
416,208,188898,1,0,0:0:0:0:
368,96,189060,2,0,P|360:64|304:88,1,105.000004005432
128,128,189547,2,0,P|112:160|128:192,1,52.5000020027161
168,240,189871,5,0,0:0:0:0:
168,264,190357,5,0,0:0:0:0:
168,296,190844,5,0,0:0:0:0:
320,176,192141,5,0,0:0:0:0:
208,320,192465,1,0,0:0:0:0:
208,320,192547,1,0,0:0:0:0:
208,320,192628,2,0,L|176:256,1,52.5000020027161
88,120,192952,2,0,P|112:80|168:56,1,105.000004005432
296,64,193438,2,0,P|328:72|344:104,1,52.5000020027161
408,200,193763,2,0,P|440:232|440:248,2,52.5000020027161
256,144,194249,2,0,P|224:192|240:240,1,105.000004005432
336,288,194736,5,0,0:0:0:0:
464,128,195060,2,0,P|432:64|384:48,1,105.000004005432
288,32,195547,2,0,P|224:32|192:64,1,105.000004005432
96,112,196033,2,0,P|64:128|64:160,1,52.5000020027161
240,128,196357,1,0,0:0:0:0:
240,128,196438,1,0,0:0:0:0:
240,128,196520,1,0,0:0:0:0:
128,256,196682,1,0,0:0:0:0:
320,256,196844,1,0,0:0:0:0:
368,96,197006,1,0,0:0:0:0:
368,96,197087,1,0,0:0:0:0:
368,96,197168,1,0,0:0:0:0:
160,96,197330,6,0,B|128:96|112:128,1,52.5000020027161
160,96,197655,2,0,B|96:112|80:176,1,105.000004005432
208,256,198141,2,0,P|240:192|272:176,1,105.000004005432
368,288,198627,2,0,P|400:288|416:256,1,52.5000020027161
368,288,198952,2,0,P|400:288|432:224,1,105.000004005432
320,128,199438,2,0,P|320:192|288:224,1,105.000004005432
144,112,199925,5,0,0:0:0:0:
336,248,200249,1,0,0:0:0:0:
128,144,202844,5,0,0:0:0:0:
128,144,202925,1,0,0:0:0:0:
128,144,203006,1,0,0:0:0:0:
128,144,203087,1,0,0:0:0:0:
128,144,203168,5,0,0:0:0:0:
145,114,203249,1,0,0:0:0:0:
169,88,203330,1,0,0:0:0:0:
198,68,203411,1,0,0:0:0:0:
230,55,203492,1,0,0:0:0:0:
265,49,203573,1,0,0:0:0:0:
300,50,203654,1,0,0:0:0:0:
334,59,203735,1,0,0:0:0:0:
365,74,203816,1,0,0:0:0:0:
392,96,203897,1,0,0:0:0:0:
414,123,203978,1,0,0:0:0:0:
430,155,204059,1,0,0:0:0:0:
448,196,204141,5,0,0:0:0:0:
448,201,204222,1,0,0:0:0:0:
448,206,204303,1,0,0:0:0:0:
448,211,204384,1,0,0:0:0:0:
448,216,204465,1,0,0:0:0:0:
448,221,204546,1,0,0:0:0:0:
448,226,204627,1,0,0:0:0:0:
448,231,204708,1,0,0:0:0:0:
448,240,204790,5,0,0:0:0:0:
416,187,204871,1,0,0:0:0:0:
371,146,204952,1,0,0:0:0:0:
315,120,205033,1,0,0:0:0:0:
255,112,205114,1,0,0:0:0:0:
195,121,205195,1,0,0:0:0:0:
140,147,205276,1,0,0:0:0:0:
95,188,205357,1,0,0:0:0:0:
63,240,205438,5,0,0:0:0:0:
97,231,205519,1,0,0:0:0:0:
131,225,205600,1,0,0:0:0:0:
166,223,205681,1,0,0:0:0:0:
201,225,205762,1,0,0:0:0:0:
236,231,205843,1,0,0:0:0:0:
269,240,205924,1,0,0:0:0:0:
302,253,206005,1,0,0:0:0:0:
336,272,206087,2,0,L|416:272,1,70
256,112,206411,5,0,0:0:0:0:
112,48,206736,1,0,0:0:0:0:
192,112,207060,1,0,0:0:0:0:
96,192,207384,2,0,P|80:256|144:320,1,140
448,192,208033,5,0,1:1:0:0:
448,192,208114,1,0,1:1:0:0:
448,192,208195,1,0,1:1:0:0:
448,192,208276,1,0,1:1:0:0:
448,192,208357,5,0,1:1:0:0:
435,159,208438,1,0,1:1:0:0:
417,129,208519,1,0,1:1:0:0:
393,103,208600,1,0,1:1:0:0:
365,83,208681,1,0,1:1:0:0:
333,68,208762,1,0,1:1:0:0:
299,59,208843,1,0,1:1:0:0:
264,57,208924,1,0,1:1:0:0:
230,62,209005,1,0,1:1:0:0:
197,73,209086,1,0,1:1:0:0:
166,90,209167,1,0,1:1:0:0:
140,113,209248,1,0,1:1:0:0:
128,144,209330,5,0,1:1:0:0:
159,128,209411,1,0,1:1:0:0:
193,119,209492,1,0,1:1:0:0:
227,118,209573,1,0,1:1:0:0:
262,124,209654,1,0,1:1:0:0:
294,138,209735,1,0,1:1:0:0:
323,158,209816,1,0,1:1:0:0:
346,184,209897,1,0,1:1:0:0:
364,214,209978,1,0,1:1:0:0:
374,247,210059,1,0,1:1:0:0:
377,282,210140,1,0,1:1:0:0:
373,317,210221,1,0,1:1:0:0:
352,352,210303,5,0,1:1:0:0:
326,328,210384,1,0,1:1:0:0:
293,318,210465,1,0,1:1:0:0:
258,324,210546,1,0,1:1:0:0:
224,336,210628,6,0,P|160:320|128:256,2,140
280,216,211438,1,0,0:0:0:0:
368,312,211601,1,0,0:0:0:0:
448,208,211763,1,0,0:0:0:0:
368,128,211925,6,0,P|336:80|304:48,2,70
176,112,212574,6,0,P|112:144|160:256,1,210.000008010865
320,240,213222,6,0,P|368:160|336:96,1,140
112,288,213871,5,0,0:0:0:0:
112,160,214195,1,0,0:0:0:0:
200,48,214520,2,0,B|200:96|200:96|232:80,1,70
288,256,215168,2,0,L|304:304,1,35
432,88,215493,2,0,L|400:120,1,35
256,192,215817,1,0,0:0:0:0:
256,192,216790,5,0,0:0:0:0:
400,88,217114,2,0,L|432:152,1,70
336,288,217762,5,0,0:0:0:0:
200,184,218087,2,0,L|168:120,1,70
280,264,218736,2,0,L|296:296,1,35
96,224,219060,2,0,L|80:272,1,35
144,152,219385,5,0,0:0:0:0:
200,88,219709,1,0,0:0:0:0:
272,184,220033,1,0,0:0:0:0:
336,88,220358,1,0,0:0:0:0:
440,176,220682,1,0,0:0:0:0:
344,248,221006,2,0,L|344:328,2,70
304,128,221979,5,0,0:0:0:0:
248,288,222303,1,0,0:0:0:0:
160,136,222628,1,0,0:0:0:0:
88,288,222952,2,0,L|120:288,6,17.5
200,288,223601,5,0,0:0:0:0:
136,88,224249,5,0,0:0:0:0:
232,88,224574,1,0,0:0:0:0:
336,88,224898,1,0,0:0:0:0:
432,208,225222,1,0,0:0:0:0:
312,248,225547,1,0,0:0:0:0:
184,208,225871,1,0,0:0:0:0:
80,136,226195,2,0,P|80:104|112:88,2,70
176,208,227168,5,0,0:0:0:0:
344,56,227493,5,0,0:0:0:0:
336,296,227817,5,0,0:0:0:0:
168,80,228141,5,0,0:0:0:0:
120,304,228465,5,0,0:0:0:0:
304,120,228790,5,0,0:0:0:0:
424,296,229114,5,0,0:0:0:0:
160,216,229439,5,0,0:0:0:0:
384,88,229763,5,0,0:0:0:0:
208,96,230087,2,0,P|256:112|256:128,2,70
112,224,230898,2,0,P|112:248|120:256,1,35
312,312,231222,2,0,P|352:336|400:304,1,105
384,176,232033,1,0,0:0:0:0:
256,104,232357,1,0,0:0:0:0:
192,272,232682,1,0,0:0:0:0:
80,96,233006,1,0,0:0:0:0:
328,240,233330,1,0,0:0:0:0:
376,64,233655,1,0,0:0:0:0:
216,160,233979,2,0,P|168:144|200:232,1,210
376,112,235276,5,0,0:0:0:0:
376,144,235763,5,0,0:0:0:0:
376,176,236249,5,0,0:0:0:0:
128,96,237547,5,0,0:0:0:0:
264,288,237871,5,0,0:0:0:0:
384,96,238195,1,0,0:0:0:0:
128,240,238520,5,0,0:0:0:0:
392,240,238844,1,0,0:0:0:0:
240,72,239168,2,0,P|208:80|232:96,1,70
368,128,239817,2,0,P|392:128|384:144,1,35
120,200,240141,2,0,P|104:192|96:208,1,35
352,288,240465,2,0,P|368:280|384:288,1,35
136,328,240790,2,0,P|120:336|104:320,1,35
288,168,241114,2,0,P|320:176|296:192,1,70
112,112,241763,1,0,0:0:0:0:
344,288,242411,5,0,0:0:0:0:
384,64,242736,5,0,0:0:0:0:
176,256,243060,5,0,0:0:0:0:
272,64,243384,5,0,0:0:0:0:
392,280,243709,5,0,0:0:0:0:
240,96,244033,5,0,0:0:0:0:
160,296,244357,6,0,P|104:232|120:184,1,140
312,64,245330,6,0,L|352:96,1,35
200,192,245655,6,0,L|192:240,1,35
80,88,245979,6,0,L|64:128,1,35
288,80,246303,6,0,L|320:112,1,35
232,232,246628,6,0,L|208:264,1,35
472,200,246952,6,0,P|472:232|440:224,1,70
368,144,247601,6,0,P|336:136|336:168,1,70
272,232,248249,6,0,P|256:256|216:248,1,70
112,208,248898,6,0,P|72:208|64:264,1,105
80,64,249547,5,0,0:0:0:0:
256,80,249709,1,0,0:0:0:0:
160,224,249871,1,0,0:0:0:0:
41,225,250033,5,0,0:0:0:0:
176,112,250195,1,0,0:0:0:0:
210,282,250357,1,0,0:0:0:0:
176,368,250520,5,0,0:0:0:0:
151,192,250682,1,0,0:0:0:0:
313,254,250844,1,0,0:0:0:0:
373,345,251006,5,0,0:0:0:0:
206,284,251168,1,0,0:0:0:0:
337,170,251330,1,0,0:0:0:0:
400,112,251493,5,0,0:0:0:0:
298,257,251655,1,0,0:0:0:0:
224,96,251817,2,0,P|192:80|160:96,1,70
368,80,252141,5,0,0:0:0:0:
368,208,252303,1,0,0:0:0:0:
413,98,252465,5,0,0:0:0:0:
322,189,252627,1,0,0:0:0:0:
432,144,252790,5,0,0:0:0:0:
304,144,252952,1,0,0:0:0:0:
413,189,253114,5,0,0:0:0:0:
322,98,253276,1,0,0:0:0:0:
368,208,253438,5,0,0:0:0:0:
368,80,253600,1,0,0:0:0:0:
322,189,253763,5,0,0:0:0:0:
416,96,253925,2,0,P|384:80|336:96,1,70
256,160,254249,2,0,L|192:208,2,70
352,48,254736,5,8,0:0:0:0:
352,281,254898,1,8,0:0:0:0:
434,81,255060,5,8,0:0:0:0:
268,246,255222,1,8,0:0:0:0:
468,164,255385,5,8,0:0:0:0:
234,164,255547,1,8,0:0:0:0:
434,246,255709,5,8,0:0:0:0:
268,81,255871,1,8,0:0:0:0:
352,281,256033,5,8,0:0:0:0:
352,48,256195,1,8,0:0:0:0:
272,248,256357,2,8,P|232:216|216:184,1,70
288,152,256682,2,8,P|272:120|240:96,2,70
96,224,257168,5,0,0:0:0:0:
128,272,257249,1,0,0:0:0:0:
176,296,257330,2,0,P|232:304|264:288,1,70
392,64,257655,5,0,0:0:0:0:
392,112,257736,1,0,0:0:0:0:
392,160,257817,2,0,P|392:200|376:240,1,70
112,80,258141,5,0,0:0:0:0:
144,112,258222,1,0,0:0:0:0:
176,144,258303,2,0,P|208:168|240:176,1,70
392,232,258628,2,0,P|440:248|416:176,1,140
312,72,259114,2,0,P|256:64|192:112,1,140
96,200,259601,1,0,0:0:0:0:
90,234,259682,1,0,0:0:0:0:
101,267,259763,1,0,0:0:0:0:
125,292,259844,1,0,0:0:0:0:
157,303,259925,5,0,0:0:0:0:
384,304,260087,1,0,0:0:0:0:
384,72,260249,1,0,0:0:0:0:
232,240,260411,1,0,0:0:0:0:
80,80,260574,1,0,0:0:0:0:
336,128,260736,1,0,0:0:0:0:
104,256,260898,1,0,0:0:0:0:
232,48,261060,1,0,0:0:0:0:
376,208,261222,1,0,0:0:0:0:
128,120,261384,1,0,0:0:0:0:
392,72,261547,1,0,0:0:0:0:
240,288,261709,1,0,0:0:0:0:
208,64,261871,1,0,0:0:0:0:
120,256,262033,2,0,L|112:208,1,35
168,264,262195,6,0,P|224:232|168:208,1,140
424,128,262682,1,0,0:0:0:0:
176,200,262844,1,0,0:0:0:0:
376,56,263006,5,0,0:0:0:0:
400,272,263168,1,0,0:0:0:0:
376,56,263330,1,0,0:0:0:0:
328,152,263493,5,0,0:0:0:0:
80,200,263655,1,0,0:0:0:0:
328,152,263817,1,0,0:0:0:0:
144,72,263979,5,0,0:0:0:0:
272,304,264141,1,0,0:0:0:0:
232,64,264303,5,0,0:0:0:0:
360,296,264465,1,0,0:0:0:0:
392,144,264628,2,0,L|424:120,1,35
408,168,264790,2,0,P|432:208|408:240,1,70
112,80,265114,5,4,0:0:0:0:
140,176,265276,1,0,0:0:0:0:
63,118,265438,1,0,0:0:0:0:
169,118,265600,1,0,0:0:0:0:
83,176,265763,1,0,0:0:0:0:
112,80,265925,1,0,0:0:0:0:
160,64,266087,5,4,0:0:0:0:
208,224,266249,1,0,0:0:0:0:
80,128,266411,1,0,0:0:0:0:
256,128,266573,1,0,0:0:0:0:
112,224,266736,1,0,0:0:0:0:
160,64,266898,1,0,0:0:0:0:
256,72,267060,5,4,0:0:0:0:
232,288,267222,1,0,0:0:0:0:
128,128,267384,1,4,0:0:0:0:
368,224,267546,1,0,0:0:0:0:
324,62,267709,5,4,0:0:0:0:
405,331,267871,1,0,0:0:0:0:
189,170,268033,1,0,0:0:0:0:
485,170,268195,1,4,0:0:0:0:
242,331,268357,1,0,0:0:0:0:
324,62,268520,1,0,0:0:0:0:
405,331,268682,1,4,0:0:0:0:
189,170,268844,1,0,0:0:0:0:
104,288,269006,5,4,0:0:0:0:
112,96,269168,1,0,0:0:0:0:
304,200,269330,2,0,L|336:128,1,70
480,160,269655,6,2,P|448:216|408:120,1,210
168,128,270303,5,4,0:0:0:0:
320,272,270465,1,4,0:0:0:0:
