osu file format v14

[General]
AudioFilename: audio.mp3
AudioLeadIn: 0
PreviewTime: 10014
Countdown: 0
SampleSet: Soft
StackLeniency: 0.7
Mode: 3
LetterboxInBreaks: 0
SpecialStyle: 0
WidescreenStoryboard: 0

[Editor]
DistanceSpacing: 0.7
BeatDivisor: 4
GridSize: 4
TimelineZoom: 1.100002

[Metadata]
Title:Nasha Russia
TitleUnicode:Наша Russia
Artist:Pavel Volya & Alexey Massalitinov
ArtistUnicode:Павел Воля & Алексей Массалитинов
Creator:AJIekceu
Version:Balalaika [NM]
Source:Наша Russia
Tags:alexey tnt comeby club тнт комеди клаб 2006 русский russian ending tv edit size
BeatmapID:1216981
BeatmapSetID:574635

[Difficulty]
HPDrainRate:7
CircleSize:4
OverallDifficulty:7.5
ApproachRate:5
SliderMultiplier:1.4
SliderTickRate:1

[Events]
//Background and Video events
0,0,"4fJRWpOlLh0.jpg",0,0
//Break Periods
//Storyboard Layer 0 (Background)
//Storyboard Layer 1 (Fail)
//Storyboard Layer 2 (Pass)
//Storyboard Layer 3 (Foreground)
//Storyboard Sound Samples

[TimingPoints]
14.4307116104872,666.666666666667,4,2,1,70,1,0
10681,-100,4,2,1,70,0,1
21347,-100,4,2,1,70,0,0
61347,-100,4,2,1,70,0,1
72014,-100,4,2,1,70,0,0

[HitObjects]
448,192,14,5,4,0:0:0:0:
320,192,347,1,2,0:0:0:0:
192,192,514,1,0,0:0:0:0:
448,192,681,1,8,0:0:0:0:
64,192,681,1,0,0:0:0:0:
320,192,1181,1,2,0:0:0:0:
192,192,1514,1,2,0:0:0:0:
64,192,1681,1,4,0:0:0:0:
320,192,2014,1,8,0:0:0:0:
448,192,2014,1,0,0:0:0:0:
64,192,2681,1,4,0:0:0:0:
192,192,3014,1,2,0:0:0:0:
320,192,3181,1,4,0:0:0:0:
64,192,3347,1,8,0:0:0:0:
448,192,3347,1,0,0:0:0:0:
320,192,3847,1,2,0:0:0:0:
448,192,4181,1,4,0:0:0:0:
192,192,4347,1,2,0:0:0:0:
320,192,4681,1,8,0:0:0:0:
64,192,4681,1,0,0:0:0:0:
192,192,4847,1,4,0:0:0:0:
320,192,5014,1,4,0:0:0:0:
64,192,5347,128,0,6681:0:0:0:0:
192,192,5347,1,4,0:0:0:0:
448,192,5681,1,2,0:0:0:0:
320,192,5847,1,4,0:0:0:0:
192,192,6014,1,8,0:0:0:0:
320,192,6514,1,2,0:0:0:0:
192,192,6681,128,0,8014:0:0:0:0:
448,192,6847,1,4,0:0:0:0:
64,192,7347,1,8,0:0:0:0:
320,192,8014,128,0,9347:0:0:0:0:
448,192,8014,1,4,0:0:0:0:
64,192,8347,1,2,0:0:0:0:
192,192,8514,1,4,0:0:0:0:
448,192,8681,1,8,0:0:0:0:
192,192,9181,1,2,0:0:0:0:
448,192,9347,128,0,10014:0:0:0:0:
64,192,9514,1,4,0:0:0:0:
320,192,9681,1,2,0:0:0:0:
192,192,9847,1,4,0:0:0:0:
64,192,10014,128,4,10681:0:0:0:0:
320,192,10181,1,4,0:0:0:0:
448,192,10347,1,2,0:0:0:0:
192,192,10514,1,4,0:0:0:0:
448,192,10681,1,0,0:0:0:0:
320,192,10681,1,4,0:0:0:0:
192,192,11014,1,2,0:0:0:0:
320,192,11181,1,4,0:0:0:0:
448,192,11347,1,8,0:0:0:0:
64,192,11347,1,0,0:0:0:0:
320,192,11681,1,0,0:0:0:0:
192,192,11847,1,2,0:0:0:0:
448,192,12014,1,0,0:0:0:0:
192,192,12181,1,2,0:0:0:0:
64,192,12347,1,4,0:0:0:0:
192,192,12681,1,8,0:0:0:0:
320,192,12681,1,0,0:0:0:0:
448,192,12847,128,2,13347:0:0:0:0:
64,192,13347,1,4,0:0:0:0:
320,192,13681,1,2,0:0:0:0:
192,192,13847,1,4,0:0:0:0:
448,192,14014,1,8,0:0:0:0:
320,192,14014,1,0,0:0:0:0:
192,192,14347,1,0,0:0:0:0:
320,192,14514,1,2,0:0:0:0:
64,192,14681,1,0,0:0:0:0:
192,192,14847,1,4,0:0:0:0:
320,192,15014,1,2,0:0:0:0:
192,192,15181,1,0,0:0:0:0:
448,192,15347,1,8,0:0:0:0:
64,192,15347,1,0,0:0:0:0:
320,192,15514,128,4,16014:0:0:0:0:
192,192,15681,1,4,0:0:0:0:
64,192,16014,1,4,0:0:0:0:
192,192,16347,1,2,0:0:0:0:
320,192,16514,1,4,0:0:0:0:
64,192,16681,1,0,0:0:0:0:
192,192,16681,1,8,0:0:0:0:
448,192,17014,1,0,0:0:0:0:
192,192,17347,1,0,0:0:0:0:
448,192,17514,1,4,0:0:0:0:
64,192,17681,1,0,0:0:0:0:
448,192,17847,1,0,0:0:0:0:
64,192,18014,1,0,0:0:0:0:
320,192,18014,1,8,0:0:0:0:
192,192,18181,128,2,18681:0:0:0:0:
448,192,18681,1,4,0:0:0:0:
64,192,19014,1,2,0:0:0:0:
192,192,19181,1,4,0:0:0:0:
448,192,19347,1,0,0:0:0:0:
320,192,19347,1,8,0:0:0:0:
192,192,19681,1,0,0:0:0:0:
320,192,19847,1,2,0:0:0:0:
192,192,20014,1,0,0:0:0:0:
448,192,20181,1,4,0:0:0:0:
64,192,20347,1,4,0:0:0:0:
448,192,20514,1,4,0:0:0:0:
192,192,20681,1,4,0:0:0:0:
320,192,20847,1,4,0:0:0:0:
64,192,21014,1,4,0:0:0:0:
448,192,21181,1,4,0:0:0:0:
192,192,21347,1,4,0:0:0:0:
64,192,21347,1,0,0:0:0:0:
448,192,21681,1,2,0:0:0:0:
320,192,21847,1,4,0:0:0:0:
192,192,22014,1,8,0:0:0:0:
64,192,22014,1,0,0:0:0:0:
320,192,22514,1,2,0:0:0:0:
192,192,22847,1,2,0:0:0:0:
448,192,23014,1,4,0:0:0:0:
320,192,23347,1,8,0:0:0:0:
64,192,23347,1,0,0:0:0:0:
192,192,23681,1,0,0:0:0:0:
448,192,24014,1,4,0:0:0:0:
320,192,24347,1,2,0:0:0:0:
192,192,24514,1,4,0:0:0:0:
448,192,24681,1,8,0:0:0:0:
64,192,24681,1,0,0:0:0:0:
192,192,25181,1,2,0:0:0:0:
64,192,25514,1,4,0:0:0:0:
448,192,25681,1,2,0:0:0:0:
320,192,26014,1,8,0:0:0:0:
192,192,26014,1,0,0:0:0:0:
64,192,26181,1,4,0:0:0:0:
448,192,26347,1,4,0:0:0:0:
192,192,26681,1,4,0:0:0:0:
64,192,27014,1,4,0:0:0:0:
320,192,27347,1,4,0:0:0:0:
448,192,27681,1,4,0:0:0:0:
320,192,27847,1,2,0:0:0:0:
64,192,28014,1,0,0:0:0:0:
192,192,28181,1,2,0:0:0:0:
320,192,28347,1,2,0:0:0:0:
448,192,28681,1,2,0:0:0:0:
192,192,29014,128,0,29347:0:0:0:0:
320,192,29347,1,4,0:0:0:0:
448,192,29514,1,0,0:0:0:0:
64,192,29681,1,0,0:0:0:0:
192,192,30014,1,0,0:0:0:0:
320,192,30014,1,8,0:0:0:0:
448,192,30347,1,0,0:0:0:0:
192,192,30514,1,0,0:0:0:0:
64,192,30847,1,0,0:0:0:0:
320,192,31014,1,8,0:0:0:0:
192,192,31347,1,8,0:0:0:0:
448,192,31347,1,0,0:0:0:0:
64,192,31847,1,8,0:0:0:0:
320,192,32014,1,8,0:0:0:0:
192,192,32181,1,0,0:0:0:0:
448,192,32347,1,0,0:0:0:0:
320,192,32514,1,0,0:0:0:0:
192,192,32681,1,8,0:0:0:0:
64,192,32681,1,0,0:0:0:0:
320,192,32847,1,0,0:0:0:0:
64,192,33014,1,0,0:0:0:0:
448,192,33181,1,0,0:0:0:0:
192,192,33347,1,0,0:0:0:0:
320,192,33514,1,8,0:0:0:0:
192,192,33681,1,8,0:0:0:0:
64,192,34014,1,0,0:0:0:0:
448,192,34014,1,0,0:0:0:0:
320,192,34347,1,0,0:0:0:0:
64,192,34514,1,0,0:0:0:0:
192,192,34681,1,8,0:0:0:0:
448,192,35014,1,0,0:0:0:0:
320,192,35347,1,8,0:0:0:0:
64,192,35347,1,0,0:0:0:0:
192,192,35514,1,8,0:0:0:0:
448,192,35847,1,8,0:0:0:0:
64,192,36181,1,8,0:0:0:0:
320,192,36347,1,8,0:0:0:0:
448,192,36681,1,0,0:0:0:0:
192,192,36681,1,8,0:0:0:0:
64,192,37014,1,0,0:0:0:0:
320,192,37181,1,0,0:0:0:0:
192,192,37347,1,8,0:0:0:0:
64,192,37347,1,4,0:0:0:0:
320,192,37681,1,0,0:0:0:0:
448,192,38014,1,0,0:0:0:0:
192,192,38014,1,8,0:0:0:0:
64,192,38347,1,8,0:0:0:0:
320,192,38514,1,4,0:0:0:0:
64,192,38681,1,4,0:0:0:0:
448,192,38847,1,4,0:0:0:0:
192,192,39014,1,4,0:0:0:0:
64,192,39347,128,4,40014:0:0:0:0:
448,192,39347,1,8,0:0:0:0:
320,192,39681,1,0,0:0:0:0:
192,192,40014,1,4,0:0:0:0:
448,192,40014,1,0,0:0:0:0:
448,192,40347,1,4,0:0:0:0:
320,192,40681,1,4,0:0:0:0:
192,192,40847,1,0,0:0:0:0:
64,192,41181,1,4,0:0:0:0:
448,192,41347,1,4,0:0:0:0:
192,192,41514,1,4,0:0:0:0:
320,192,41681,1,4,0:0:0:0:
64,192,42014,1,0,0:0:0:0:
448,192,42014,1,8,0:0:0:0:
320,192,42347,1,0,0:0:0:0:
448,192,42514,1,4,0:0:0:0:
192,192,42681,1,4,0:0:0:0:
64,192,42681,1,2,0:0:0:0:
320,192,42847,1,4,0:0:0:0:
448,192,43014,1,4,0:0:0:0:
192,192,43347,1,4,0:0:0:0:
64,192,43347,1,2,0:0:0:0:
448,192,43681,1,8,0:0:0:0:
320,192,43847,1,0,0:0:0:0:
64,192,44014,1,8,0:0:0:0:
192,192,44181,1,4,0:0:0:0:
448,192,44347,1,4,0:0:0:0:
320,192,44681,1,8,0:0:0:0:
64,192,44681,1,2,0:0:0:0:
192,192,45014,1,2,0:0:0:0:
64,192,45347,1,4,0:0:0:0:
448,192,45347,1,2,0:0:0:0:
192,192,45681,1,4,0:0:0:0:
320,192,46014,1,8,0:0:0:0:
64,192,46181,1,4,0:0:0:0:
448,192,46514,1,4,0:0:0:0:
192,192,46681,1,8,0:0:0:0:
320,192,46847,1,4,0:0:0:0:
64,192,47014,1,4,0:0:0:0:
448,192,47347,1,2,0:0:0:0:
320,192,47347,1,4,0:0:0:0:
192,192,47681,1,4,0:0:0:0:
320,192,47847,1,4,0:0:0:0:
64,192,48014,1,2,0:0:0:0:
448,192,48014,1,4,0:0:0:0:
192,192,48347,1,4,0:0:0:0:
320,192,48681,1,4,0:0:0:0:
64,192,48681,1,2,0:0:0:0:
192,192,49181,1,4,0:0:0:0:
320,192,49347,1,2,0:0:0:0:
448,192,49514,1,4,0:0:0:0:
192,192,49681,1,4,0:0:0:0:
64,192,49681,1,2,0:0:0:0:
320,192,50014,128,2,50681:0:0:0:0:
64,192,50347,1,2,0:0:0:0:
192,192,50681,1,4,0:0:0:0:
448,192,50681,1,8,0:0:0:0:
64,192,51014,1,0,0:0:0:0:
192,192,51181,1,0,0:0:0:0:
448,192,51347,1,0,0:0:0:0:
320,192,51347,1,8,0:0:0:0:
192,192,51681,1,4,0:0:0:0:
320,192,51847,1,4,0:0:0:0:
64,192,52014,1,0,0:0:0:0:
448,192,52347,1,4,0:0:0:0:
192,192,52681,1,8,0:0:0:0:
64,192,52681,1,0,0:0:0:0:
448,192,53014,1,2,0:0:0:0:
320,192,53181,1,4,0:0:0:0:
192,192,53347,1,4,0:0:0:0:
64,192,53681,1,2,0:0:0:0:
448,192,54014,1,0,0:0:0:0:
320,192,54014,1,8,0:0:0:0:
192,192,54347,1,4,0:0:0:0:
64,192,54514,1,4,0:0:0:0:
320,192,54847,1,4,0:0:0:0:
448,192,55014,1,4,0:0:0:0:
320,192,55347,1,8,0:0:0:0:
64,192,55347,1,0,0:0:0:0:
192,192,55514,128,2,56014:0:0:0:0:
320,192,55847,1,0,0:0:0:0:
448,192,56014,1,4,0:0:0:0:
64,192,56347,1,4,0:0:0:0:
448,192,56681,1,4,0:0:0:0:
192,192,56681,1,8,0:0:0:0:
320,192,56847,1,0,0:0:0:0:
448,192,57181,1,4,0:0:0:0:
192,192,57181,1,0,0:0:0:0:
64,192,57514,1,4,0:0:0:0:
320,192,57681,1,4,0:0:0:0:
64,192,58014,1,0,0:0:0:0:
448,192,58014,1,8,0:0:0:0:
320,192,58514,1,4,0:0:0:0:
192,192,58681,1,4,0:0:0:0:
64,192,58681,1,8,0:0:0:0:
320,192,59014,1,8,0:0:0:0:
192,192,59347,1,8,0:0:0:0:
448,192,59514,1,2,0:0:0:0:
64,192,59681,1,0,0:0:0:0:
320,192,59847,1,4,0:0:0:0:
448,192,60181,1,4,0:0:0:0:
192,192,60347,1,4,0:0:0:0:
320,192,60681,128,2,61347:0:0:0:0:
64,192,60681,1,4,0:0:0:0:
192,192,61181,1,4,0:0:0:0:
64,192,61347,1,4,0:0:0:0:
448,192,61347,1,0,0:0:0:0:
192,192,61681,1,0,0:0:0:0:
64,192,61847,1,0,0:0:0:0:
320,192,62014,1,8,0:0:0:0:
448,192,62014,1,0,0:0:0:0:
192,192,62347,1,0,0:0:0:0:
320,192,62514,1,0,0:0:0:0:
448,192,62681,1,0,0:0:0:0:
64,192,62847,1,4,0:0:0:0:
320,192,63014,1,4,0:0:0:0:
192,192,63347,1,8,0:0:0:0:
448,192,63347,1,0,0:0:0:0:
64,192,63514,128,2,64014:0:0:0:0:
448,192,63847,1,4,0:0:0:0:
320,192,64014,1,4,0:0:0:0:
192,192,64014,1,0,0:0:0:0:
448,192,64347,1,0,0:0:0:0:
192,192,64514,1,0,0:0:0:0:
320,192,64681,1,4,0:0:0:0:
64,192,64681,1,8,0:0:0:0:
192,192,65014,1,0,0:0:0:0:
448,192,65181,1,4,0:0:0:0:
64,192,65347,1,0,0:0:0:0:
320,192,65514,1,4,0:0:0:0:
192,192,65681,1,4,0:0:0:0:
320,192,66014,1,8,0:0:0:0:
64,192,66014,1,0,0:0:0:0:
448,192,66181,128,2,66681:0:0:0:0:
192,192,66347,1,0,0:0:0:0:
64,192,66681,1,0,0:0:0:0:
320,192,66681,1,4,0:0:0:0:
192,192,67014,1,4,0:0:0:0:
320,192,67181,1,0,0:0:0:0:
448,192,67347,1,4,0:0:0:0:
64,192,67347,1,0,0:0:0:0:
320,192,67514,1,0,0:0:0:0:
192,192,67681,1,4,0:0:0:0:
448,192,67847,1,4,0:0:0:0:
64,192,68181,1,4,0:0:0:0:
320,192,68347,1,4,0:0:0:0:
192,192,68514,1,0,0:0:0:0:
448,192,68681,1,0,0:0:0:0:
320,192,68681,1,8,0:0:0:0:
192,192,68847,128,2,69347:0:0:0:0:
64,192,69181,1,0,0:0:0:0:
448,192,69347,1,0,0:0:0:0:
320,192,69347,1,4,0:0:0:0:
64,192,69681,1,0,0:0:0:0:
448,192,69681,1,4,0:0:0:0:
192,192,70014,1,0,0:0:0:0:
320,192,70014,1,4,0:0:0:0:
448,192,70181,1,0,0:0:0:0:
64,192,70347,1,4,0:0:0:0:
192,192,70514,1,8,0:0:0:0:
448,192,70681,1,0,0:0:0:0:
320,192,70681,1,4,0:0:0:0:
192,192,70847,1,0,0:0:0:0:
64,192,71014,1,4,0:0:0:0:
448,192,71014,1,0,0:0:0:0:
320,192,71181,1,0,0:0:0:0:
192,192,71347,1,4,0:0:0:0:
64,192,71347,128,2,72014:0:0:0:0:
448,192,71681,128,2,72014:0:0:0:0:
320,192,72014,1,4,0:0:0:0:
