osu file format v14

[General]
AudioFilename: audio.mp3
AudioLeadIn: 0
PreviewTime: 1874
Countdown: 0
SampleSet: Soft
StackLeniency: 0.7
Mode: 0
LetterboxInBreaks: 0
WidescreenStoryboard: 0

[Editor]
Bookmarks: 9150,23478,44747
DistanceSpacing: 1
BeatDivisor: 4
GridSize: 32
TimelineZoom: 2.1

[Metadata]
Title:Can We Fix It? (TV Size)
TitleUnicode:Can We Fix It? (TV Size)
Artist:Paul K. Joyce feat. Neil Morrissey
ArtistUnicode:Paul K. Joyce feat. Neil Morrissey
Creator:Kyoshiro
Version:Normal
Source:Bob the Builder
Tags:TV series Never Mind the Breeze Blocks British version Theme song HOT Animation english rock yShadowXOP_
BeatmapID:2223258
BeatmapSetID:1061694

[Difficulty]
HPDrainRate:4
CircleSize:3.5
OverallDifficulty:4
ApproachRate:4.5
SliderMultiplier:1.15
SliderTickRate:1

[Events]
//Background and Video events
0,0,"wp2255751.jpg",0,0
Video,-1043,"bob1.mp4"
//Break Periods
//Storyboard Layer 0 (Background)
//Storyboard Layer 1 (Fail)
//Storyboard Layer 2 (Pass)
//Storyboard Layer 3 (Foreground)
//Storyboard Layer 4 (Overlay)
//Storyboard Sound Samples

[TimingPoints]
195.350695192173,447.761194029851,4,2,1,65,1,0
1538,-100,4,2,1,65,0,0
1986,-100,4,2,1,65,0,0
9150,-100,4,2,1,50,0,0
23478,-100,4,2,1,70,0,0
37807,-100,4,2,1,70,0,1
44747,-100,4,2,1,40,0,0
44971,-100,4,2,1,5,0,0

[Colours]
Combo1 : 238,209,11
Combo2 : 30,135,240

[HitObjects]
35,62,195,5,0,3:0:0:0:
116,143,643,2,0,L|175:135,2,57.5,2|8|10,0:0|0:0|0:0,0:0:0:0:
34,224,1538,1,2,0:0:0:0:
115,305,1986,6,0,P|167:282|229:295,1,115,4|10,3:2|0:0,0:0:0:0:
304,372,2881,1,2,0:2:0:0:
412,332,3329,1,10,0:0:0:0:
330,250,3777,2,0,L|336:180,1,57.5,2|0,3:2|0:0,0:0:0:0:
375,151,4225,2,0,L|370:93,1,57.5,10|0,0:0|3:0,0:0:0:0:
329,53,4672,2,0,L|208:62,1,115,2|10,0:2|0:0,0:0:0:0:
132,143,5568,6,0,P|76:133|24:156,1,115,2|10,3:2|0:0,0:0:0:0:
3,269,6463,1,2,0:2:0:0:
84,350,6911,1,10,0:0:0:0:
165,268,7359,2,0,L|300:287,1,115,2|10,3:2|0:0,0:0:0:0:
319,324,8031,1,0,3:0:0:0:
319,324,8255,2,0,P|368:300|430:302,1,115,2|10,3:2|0:0,0:0:0:0:
508,219,9150,5,2,3:2:0:0:
426,137,9598,2,0,L|433:75,1,57.5,8|2,0:0|0:0,0:0:0:0:
391,39,10046,2,0,P|340:68|269:62,1,115,2|8,0:0|0:0,0:0:0:0:
203,148,10941,2,0,P|152:119|81:125,1,115,2|8,0:2|0:0,0:0:0:0:
56,78,11613,2,0,L|47:13,2,57.5,2|2|0,0:0|0:0|3:0,0:0:0:0:
15,118,12284,1,8,0:0:0:0:
15,233,12732,6,0,P|66:262|137:256,1,115,2|8,0:0|0:0,0:0:0:0:
161,302,13404,1,2,0:0:0:0:
161,302,13628,2,0,P|212:273|283:279,1,115,2|8,0:0|0:0,0:0:0:0:
347,190,14523,2,0,P|297:161|240:161,1,115,2|8,0:0|0:0,0:0:0:0:
200,119,15195,1,2,0:0:0:0:
200,119,15419,2,0,P|150:147|93:147,1,115,2|8,0:0|0:0,0:0:0:0:
9,226,16314,5,2,0:0:0:0:
110,280,16762,2,0,L|104:345,1,57.5,8|2,0:0|0:0,0:0:0:0:
146,377,17210,2,0,L|267:366,1,115,2|8,0:0|0:0,0:0:0:0:
341,285,18105,2,0,L|462:296,1,115,2|8,0:2|0:0,0:0:0:0:
496,254,18777,1,2,0:0:0:0:
496,254,19001,2,0,P|506:191|483:142,1,115,2|8,0:0|0:0,0:0:0:0:
392,213,19896,6,0,P|361:201|273:217,1,115,2|8,0:0|0:0,0:0:0:0:
240,172,20568,1,2,0:0:0:0:
240,172,20792,2,0,P|209:183|121:167,1,115,2|8,0:0|0:0,0:0:0:0:
97,220,21464,1,0,3:0:0:0:
97,220,21687,2,0,P|41:253|13:302,1,115,6|8,3:2|0:0,0:0:0:0:
124,331,22583,1,0,3:0:0:0:
201,245,23031,2,0,L|258:253,1,57.5,8|8,0:0|0:0,0:0:0:0:
289,300,23478,6,0,P|336:274|398:277,1,115,6|10,3:2|0:0,0:0:0:0:
447,303,24150,1,0,3:0:0:0:
447,303,24374,2,0,P|440:276|467:187,1,115,2|10,0:2|0:0,0:0:0:0:
442,80,25269,2,0,L|386:90,1,57.5,2|0,3:2|0:0,0:0:0:0:
344,130,25717,2,0,L|288:120,1,57.5,10|0,0:0|3:0,0:0:0:0:
246,79,26165,2,0,L|125:101,1,115,2|10,0:2|3:2,0:0:0:0:
17,99,27061,6,0,P|40:150|33:207,1,115,6|10,3:2|0:0,0:0:0:0:
74,247,27732,1,0,3:0:0:0:
74,247,27956,2,0,P|50:298|57:355,1,115,2|10,0:2|0:0,0:0:0:0:
172,355,28852,2,0,P|179:298|155:246,1,115,2|10,3:2|0:0,0:0:0:0:
196,206,29523,1,0,3:0:0:0:
196,206,29747,2,0,P|193:178|198:147,1,57.5,2|0,3:2|3:0,0:0:0:0:
219,95,30195,1,10,0:0:0:0:
318,152,30643,6,0,P|364:133|432:140,1,115,2|8,0:2|0:0,0:0:0:0:
483,125,31314,1,2,0:0:0:0:
483,125,31538,2,0,L|478:250,1,115,2|8,0:0|0:0,0:0:0:0:
409,332,32434,2,0,P|361:308|293:318,1,115,2|8,0:2|0:0,0:0:0:0:
260,273,33105,1,2,0:0:0:0:
260,273,33329,2,0,B|268:241|256:215|256:215|274:190|275:159,1,115,2|8,0:0|0:0,0:0:0:0:
233,55,34225,5,2,0:0:0:0:
233,55,34449,2,0,L|111:61,1,115,2|2,0:0|0:0,0:0:0:0:
71,26,35120,2,0,P|45:57|40:141,1,115,2|8,0:0|0:0,0:0:0:0:
117,210,36016,1,2,3:2:0:0:
35,291,36464,1,8,0:0:0:0:
116,372,36911,1,0,3:0:0:0:
197,290,37359,2,0,L|260:296,1,57.5,8|8,0:0|0:0,0:0:0:0:
295,336,37807,6,0,P|310:313|307:207,1,115,6|10,3:2|0:0,0:0:0:0:
356,187,38478,1,0,3:0:0:0:
356,187,38702,2,0,P|341:164|344:58,1,115,2|10,0:2|0:0,0:0:0:0:
242,148,39598,2,0,L|176:137,1,57.5,2|0,3:2|0:0,0:0:0:0:
144,97,40046,2,0,L|78:108,1,57.5,10|0,0:2|3:0,0:0:0:0:
46,65,40493,2,0,P|24:95|25:200,1,115,2|10,3:2|0:2,0:0:0:0:
95,252,41389,6,0,P|146:227|203:230,1,115,2|10,3:2|0:0,0:0:0:0:
243,190,42061,1,0,3:0:0:0:
243,190,42284,2,0,P|294:214|351:211,1,115,2|10,0:2|0:0,0:0:0:0:
459,252,43180,2,0,P|465:234|465:195,1,57.5,2|0,3:2|0:0,0:0:0:0:
454,138,43628,1,10,0:0:0:0:
352,85,44075,2,0,L|362:27,2,57.5,0|0|10,3:0|3:0|0:0,0:0:0:0:
311,125,44747,1,6,3:2:0:0:
256,192,44971,12,0,50568,0:0:0:0:
