osu file format v14

[General]
AudioFilename: audio.mp3
AudioLeadIn: 0
PreviewTime: 1874
Countdown: 0
SampleSet: Soft
StackLeniency: 0.7
Mode: 0
LetterboxInBreaks: 0
WidescreenStoryboard: 0

[Editor]
Bookmarks: 9150,23478,44747
DistanceSpacing: 1.3
BeatDivisor: 4
GridSize: 4
TimelineZoom: 2.1

[Metadata]
Title:Can We Fix It? (TV Size)
TitleUnicode:Can We Fix It? (TV Size)
Artist:Paul K. Joyce feat. Neil Morrissey
ArtistUnicode:Paul K. Joyce feat. Neil Morrissey
Creator:Kyoshiro
Version:Hard
Source:Bob the Builder
Tags:TV series Never Mind the Breeze Blocks British version Theme song HOT Animation english rock yShadowXOP_
BeatmapID:2223257
BeatmapSetID:1061694

[Difficulty]
HPDrainRate:5
CircleSize:3.8
OverallDifficulty:6
ApproachRate:7
SliderMultiplier:1.45
SliderTickRate:1

[Events]
//Background and Video events
0,0,"wp2255751.jpg",0,0
Video,-1043,"bob1.mp4"
//Break Periods
//Storyboard Layer 0 (Background)
//Storyboard Layer 1 (Fail)
//Storyboard Layer 2 (Pass)
//Storyboard Layer 3 (Foreground)
//Storyboard Layer 4 (Overlay)
//Storyboard Sound Samples

[TimingPoints]
195.350695192173,447.761194029851,4,2,1,65,1,0
1538,-90.9090909090909,4,2,1,65,0,0
1874,-90.9090909090909,4,2,1,40,0,0
1986,-100,4,2,1,65,0,0
9150,-105.263157894737,4,2,1,50,0,0
23478,-100,4,2,1,70,0,0
30643,-105.263157894737,4,2,1,60,0,0
37807,-90.9090909090909,4,2,1,70,0,1
44747,-351.567993249895,4,2,1,40,0,0
44859,-351.567993249895,4,2,1,5,0,0

[Colours]
Combo1 : 238,209,11
Combo2 : 30,135,240

[HitObjects]
271,58,195,5,0,3:0:0:0:
366,154,643,2,0,L|439:140,2,72.5,2|8|10,0:0|0:0|0:0,0:0:0:0:
335,285,1538,2,0,L|461:265,1,119.625003650665,2|0,0:0|0:0,0:0:0:0:
484,235,1986,6,0,P|513:308|485:369,1,145,4|10,3:2|0:0,0:0:0:0:
426,303,2658,1,0,3:0:0:0:
364,364,2881,2,0,L|283:352,1,72.5,2|0,0:2|3:0,0:0:0:0:
230,291,3329,2,0,L|149:303,1,72.5,10|0,0:0|3:0,0:0:0:0:
86,373,3777,5,2,3:2:0:0:
14,301,4001,1,0,0:0:0:0:
85,229,4225,2,0,P|94:193|82:147,1,72.5,10|0,0:0|3:0,0:0:0:0:
15,86,4672,2,0,P|8:50|17:15,1,72.5,2|0,0:2|3:0,0:0:0:0:
111,56,5120,1,10,0:0:0:0:
204,16,5344,1,0,3:0:0:0:
286,98,5568,6,0,B|253:80|253:80|210:129|238:207,1,145,2|10,3:2|0:0,0:0:0:0:
271,257,6240,1,0,3:0:0:0:
345,301,6464,2,0,L|418:294,1,72.5,2|0,0:2|3:0,0:0:0:0:
281,362,6911,2,0,L|208:355,1,72.5,10|0,0:0|3:0,0:0:0:0:
126,272,7359,6,0,L|137:155,1,108.75,2|0,3:2|0:0,0:0:0:0:
143,105,7807,1,10,0:0:0:0:
214,176,8031,1,0,3:0:0:0:
296,93,8255,2,0,L|371:100,1,72.5,2|0,3:2|3:0,0:0:0:0:
429,38,8702,1,10,0:0:0:0:
429,38,8926,1,0,3:0:0:0:
493,102,9150,6,0,P|522:175|490:241,1,137.749996321678,2|8,3:2|0:0,0:0:0:0:
433,170,9822,1,2,0:0:0:0:
369,233,10046,2,0,L|293:220,1,68.8749981608391,2|0,0:0|3:0,0:0:0:0:
237,158,10493,2,0,L|161:171,1,68.8749981608391,8|0,0:0|3:0,0:0:0:0:
109,237,10941,6,0,P|80:164|112:98,1,137.749996321678,2|8,0:2|0:0,0:0:0:0:
163,47,11613,1,2,0:0:0:0:
226,110,11837,2,0,L|293:98,1,68.8749981608391,2|0,0:0|3:0,0:0:0:0:
357,35,12284,1,8,0:0:0:0:
420,98,12508,1,0,3:0:0:0:
356,161,12732,6,0,L|370:300,1,137.749996321678,2|8,0:0|0:0,0:0:0:0:
341,383,13404,1,2,0:0:0:0:
277,319,13628,2,0,L|203:331,1,68.8749981608391,2|0,0:0|3:0,0:0:0:0:
137,383,14075,2,0,L|59:371,1,68.8749981608391,8|0,0:0|3:0,0:0:0:0:
5,308,14523,6,0,L|18:170,1,137.749996321678,2|8,0:0|0:0,0:0:0:0:
69,96,15195,1,2,0:0:0:0:
132,159,15419,2,0,L|206:147,1,68.8749981608391,2|0,0:0|3:0,0:0:0:0:
263,84,15866,1,8,0:0:0:0:
351,94,16090,1,0,3:0:0:0:
423,188,16314,6,0,B|393:171|393:171|347:219|377:285,1,137.749996321678,2|8,0:0|0:0,0:0:0:0:
433,329,16986,1,2,0:0:0:0:
357,377,17210,2,0,P|322:381|287:373,1,68.8749981608391,2|0,0:0|3:0,0:0:0:0:
225,310,17658,2,0,P|190:306|155:314,1,68.8749981608391,8|0,0:0|3:0,0:0:0:0:
94,376,18105,6,0,P|71:339|97:246,1,137.749996321678,2|8,0:2|0:0,0:0:0:0:
150,184,18777,1,2,0:0:0:0:
213,247,19001,2,0,P|246:254|280:250,1,68.8749981608391,2|0,0:0|0:0,0:0:0:0:
366,223,19449,1,8,0:0:0:0:
406,302,19672,1,0,3:0:0:0:
478,250,19896,6,0,P|501:213|475:120,1,137.749996321678,2|8,0:0|0:0,0:0:0:0:
415,188,20568,1,2,0:0:0:0:
351,124,20792,2,0,L|283:137,1,68.8749981608391,2|0,0:0|3:0,0:0:0:0:
219,200,21240,1,8,0:0:0:0:
168,125,21464,1,0,3:0:0:0:
91,173,21687,6,0,L|104:241,1,68.8749981608391,6|0,3:2|0:0,0:0:0:0:
167,304,22135,2,0,L|154:372,1,68.8749981608391,8|0,0:0|3:0,0:0:0:0:
64,371,22583,1,0,3:0:0:0:
1,307,22807,1,0,3:0:0:0:
82,224,23031,1,8,0:0:0:0:
60,108,23255,1,8,0:0:0:0:
60,108,23366,1,8,0:0:0:0:
60,108,23478,6,0,B|93:92|93:92|199:115,1,145,6|10,3:2|0:0,0:0:0:0:
282,88,24150,1,0,3:0:0:0:
343,149,24374,2,0,L|422:138,1,72.5,2|0,0:2|3:0,0:0:0:0:
278,208,24822,2,0,L|199:197,1,72.5,10|0,0:0|3:0,0:0:0:0:
133,125,25269,5,2,3:2:0:0:
119,24,25493,1,0,0:0:0:0:
41,89,25717,2,0,P|32:126|41:165,1,72.5,10|0,0:0|3:0,0:0:0:0:
110,231,26165,2,0,P|119:268|110:307,1,72.5,2|0,0:2|3:0,0:0:0:0:
37,370,26613,1,10,3:2:0:0:
19,269,26837,1,0,3:0:0:0:
124,333,27061,6,0,B|157:350|157:350|265:332,1,145,6|10,3:2|0:0,0:0:0:0:
324,270,27732,1,0,3:0:0:0:
400,311,27956,2,0,P|410:275|403:233,1,72.5,2|0,0:2|3:0,0:0:0:0:
343,178,28404,2,0,P|333:142|340:100,1,72.5,10|0,0:0|3:0,0:0:0:0:
249,19,28852,6,0,L|122:32,1,108.75,2|0,3:2|0:0,0:0:0:0:
83,37,29299,1,10,0:0:0:0:
165,119,29523,1,0,3:0:0:0:
82,201,29747,2,0,L|90:288,1,72.5,2|0,3:2|3:0,0:0:0:0:
26,335,30195,1,10,0:0:0:0:
26,335,30419,1,0,3:0:0:0:
133,382,30643,6,0,P|184:347|257:351,1,137.749996321678,2|8,0:2|0:0,0:0:0:0:
340,383,31314,1,2,0:0:0:0:
403,319,31538,2,0,L|394:242,1,68.8749981608391,2|0,0:0|3:0,0:0:0:0:
331,186,31986,2,0,L|340:109,1,68.8749981608391,8|0,0:0|3:0,0:0:0:0:
249,117,32434,6,0,P|198:82|125:86,1,137.749996321678,2|8,0:2|0:0,0:0:0:0:
61,22,33105,1,2,0:0:0:0:
2,89,33329,2,0,B|-1:126|-1:126|7:170,1,68.8749981608391,2|0,0:0|0:0,0:0:0:0:
68,220,33777,1,8,0:0:0:0:
4,283,34001,1,0,3:0:0:0:
67,346,34225,5,2,0:0:0:0:
130,282,34449,2,0,L|204:293,1,68.8749981608391,2|10,0:0|0:0,0:0:0:0:
261,355,34896,1,2,0:0:0:0:
324,291,35120,2,0,L|398:280,2,68.8749981608391,2|0|8,0:0|3:0|0:0,0:0:0:0:
261,355,35792,1,0,3:0:0:0:
198,292,36016,6,0,L|211:224,1,68.8749981608391,2|0,3:2|0:0,0:0:0:0:
274,160,36464,2,0,L|261:92,1,68.8749981608391,8|0,0:0|3:0,0:0:0:0:
183,46,36912,1,0,3:0:0:0:
98,76,37136,1,8,0:0:0:0:
98,76,37247,1,8,0:0:0:0:
98,76,37360,1,8,0:0:0:0:
146,154,37584,1,8,0:0:0:0:
146,154,37695,1,8,0:0:0:0:
146,154,37807,6,0,B|179:138|179:138|303:166,1,159.500004867554,6|10,3:2|0:0,0:0:0:0:
372,91,38478,1,0,3:0:0:0:
454,153,38702,2,0,L|442:234,1,79.7500024337769,2|0,0:2|3:0,0:0:0:0:
368,305,39150,2,0,L|380:386,1,79.7500024337769,10|0,0:0|3:0,0:0:0:0:
275,383,39598,5,2,3:2:0:0:
201,309,39822,1,0,0:0:0:0:
274,235,40046,2,0,L|262:156,1,79.7500024337769,10|0,0:2|3:0,0:0:0:0:
188,82,40493,2,0,L|199:3,1,79.7500024337769,2|0,3:2|3:0,0:0:0:0:
303,3,40941,1,10,0:2:0:0:
376,76,41165,1,0,3:0:0:0:
280,171,41389,6,0,B|309:142|309:142|363:196|324:272,1,159.500004867554,2|10,3:2|0:0,0:0:0:0:
305,351,42061,1,0,3:0:0:0:
231,277,42284,2,0,L|144:291,1,79.7500024337769,2|0,0:2|3:0,0:0:0:0:
78,363,42732,2,0,L|-9:349,1,79.7500024337769,10|0,0:0|3:0,0:0:0:0:
0,246,43180,5,2,3:2:0:0:
146,99,43628,1,10,0:0:0:0:
146,99,43852,1,0,3:0:0:0:
145,245,44075,5,0,3:0:0:0:
218,171,44299,1,0,3:0:0:0:
146,99,44523,1,10,0:0:0:0:
72,172,44747,6,0,B|149:98|357:98|213:386|437:386|506:317,1,536.169400130901,6|0,3:2|0:0,0:0:0:0:
