osu file format v14

[General]
AudioFilename: audio.mp3
AudioLeadIn: 0
PreviewTime: -1
Countdown: 0
SampleSet: Normal
StackLeniency: 0.7
Mode: 1
LetterboxInBreaks: 0
WidescreenStoryboard: 0

[Editor]
Bookmarks: 1009,13422,25836,39284,51697,64111,77559,98249,126179,137291
DistanceSpacing: 0.3
BeatDivisor: 2
GridSize: 32
TimelineZoom: 1.4

[Metadata]
Title:Boku No Atama
TitleUnicode:Boku No Atama
Artist:Paul Gilbert
ArtistUnicode:Paul Gilbert
Creator:k3v227
Version:Tomatoni
Source:
Tags:space ship one
BeatmapID:1135443
BeatmapSetID:536116

[Difficulty]
HPDrainRate:6
CircleSize:2
OverallDifficulty:5
ApproachRate:5
SliderMultiplier:1.65
SliderTickRate:1

[Events]
//Background and Video events
0,0,"boku no atama (bg).jpg",0,30
//Break Periods
//Storyboard Layer 0 (Background)
//Storyboard Layer 1 (Fail)
//Storyboard Layer 2 (Pass)
//Storyboard Layer 3 (Foreground)
//Storyboard Sound Samples

[TimingPoints]
1009,517.241379310345,4,1,0,80,1,0
39284,517.241379310345,4,1,0,80,1,0
77560,517.241379310345,4,1,0,80,1,1
98250,-100,4,1,0,80,0,0
122042,517.241379310345,4,1,0,80,1,0
134455,517.241379310345,5,1,0,80,1,0
136561,517.241379310345,4,1,0,80,1,0
137291,517.241379310345,4,1,0,80,1,0
137420,-100,4,1,0,20,0,0
137808,-133.333333333333,4,1,0,20,0,0

[HitObjects]
256,192,233,5,8,0:0:0:0:
256,192,491,1,8,0:0:0:0:
256,192,750,1,0,0:0:0:0:
256,192,1009,1,0,0:0:0:0:
256,192,1267,1,8,0:0:0:0:
256,192,1526,1,8,0:0:0:0:
256,192,1784,1,0,0:0:0:0:
256,192,2043,1,0,0:0:0:0:
256,192,2302,1,8,0:0:0:0:
256,192,2560,1,0,0:0:0:0:
256,192,2819,1,8,0:0:0:0:
256,192,3077,1,0,0:0:0:0:
256,192,3336,1,8,0:0:0:0:
256,192,3595,1,8,0:0:0:0:
256,192,4112,1,0,0:0:0:0:
256,192,4371,1,8,0:0:0:0:
256,192,4629,1,8,0:0:0:0:
256,192,4888,1,0,0:0:0:0:
256,192,5146,1,4,0:0:0:0:
256,192,5664,1,12,0:0:0:0:
256,192,6181,1,0,0:0:0:0:
256,192,6440,1,0,0:0:0:0:
256,192,6569,1,8,0:0:0:0:
256,192,6698,1,8,0:0:0:0:
256,192,6957,1,0,0:0:0:0:
256,192,7215,1,0,0:0:0:0:
256,192,7473,1,8,0:0:0:0:
256,192,7732,1,8,0:0:0:0:
256,192,7990,1,0,0:0:0:0:
256,192,8249,1,0,0:0:0:0:
256,192,8508,1,8,0:0:0:0:
256,192,8766,1,0,0:0:0:0:
256,192,9025,1,8,0:0:0:0:
256,192,9283,1,0,0:0:0:0:
256,192,9542,1,8,0:0:0:0:
256,192,9801,1,8,0:0:0:0:
256,192,10318,1,0,0:0:0:0:
256,192,10577,1,8,0:0:0:0:
256,192,10835,1,8,0:0:0:0:
256,192,11094,1,0,0:0:0:0:
256,192,11352,1,4,0:0:0:0:
256,192,11870,1,12,0:0:0:0:
256,192,12259,1,8,0:0:0:0:
256,192,12387,1,0,0:0:0:0:
256,192,12646,1,0,0:0:0:0:
256,192,12904,1,8,0:0:0:0:
256,192,13163,1,0,0:0:0:0:
256,192,13422,1,0,0:0:0:0:
256,192,13681,1,8,0:0:0:0:
256,192,13810,1,8,0:0:0:0:
256,192,13940,1,8,0:0:0:0:
256,192,14198,1,0,0:0:0:0:
256,192,14457,1,8,0:0:0:0:
256,192,14715,1,8,0:0:0:0:
256,192,14974,1,0,0:0:0:0:
256,192,15233,1,8,0:0:0:0:
256,192,15491,1,0,0:0:0:0:
256,192,15750,1,0,0:0:0:0:
256,192,16009,1,8,0:0:0:0:
256,192,16268,1,0,0:0:0:0:
256,192,16396,1,0,0:0:0:0:
256,192,16526,1,8,0:0:0:0:
256,192,16784,1,8,0:0:0:0:
256,192,17043,1,8,0:0:0:0:
256,192,17302,1,0,0:0:0:0:
256,192,17560,1,12,0:0:0:0:
256,192,18077,1,12,0:0:0:0:
256,192,18853,1,0,0:0:0:0:
256,192,19112,1,4,0:0:0:0:
256,192,19371,1,4,0:0:0:0:
256,192,19629,1,0,0:0:0:0:
256,192,19888,1,8,0:0:0:0:
256,192,20017,1,8,0:0:0:0:
256,192,20147,1,8,0:0:0:0:
256,192,20405,1,0,0:0:0:0:
256,192,20664,1,8,0:0:0:0:
256,192,20922,1,8,0:0:0:0:
256,192,21181,1,0,0:0:0:0:
256,192,21440,1,8,0:0:0:0:
256,192,21698,1,0,0:0:0:0:
256,192,21957,1,0,0:0:0:0:
256,192,22216,1,8,0:0:0:0:
256,192,22475,1,0,0:0:0:0:
256,192,22603,1,0,0:0:0:0:
256,192,22733,1,8,0:0:0:0:
256,192,22991,1,8,0:0:0:0:
256,192,23250,1,8,0:0:0:0:
256,192,23509,1,0,0:0:0:0:
256,192,23767,1,12,0:0:0:0:
256,192,24284,1,12,0:0:0:0:
256,192,24802,1,8,0:0:0:0:
256,192,25060,1,0,0:0:0:0:
256,192,25146,1,0,0:0:0:0:
256,192,25233,1,0,0:0:0:0:
256,192,25319,1,0,0:0:0:0:
256,192,25578,1,0,0:0:0:0:
256,192,25836,1,4,0:0:0:0:
256,192,26095,1,0,0:0:0:0:
256,192,26353,1,8,0:0:0:0:
256,192,26612,1,0,0:0:0:0:
256,192,26741,1,0,0:0:0:0:
256,192,26871,1,0,0:0:0:0:
256,192,27129,1,8,0:0:0:0:
256,192,27388,1,0,0:0:0:0:
256,192,27646,1,8,0:0:0:0:
256,192,28164,1,0,0:0:0:0:
256,192,28422,1,8,0:0:0:0:
256,192,28681,1,8,0:0:0:0:
256,192,28940,1,0,0:0:0:0:
256,192,29198,1,8,0:0:0:0:
256,192,29457,1,0,0:0:0:0:
256,192,29715,1,8,0:0:0:0:
256,192,29845,1,0,0:0:0:0:
256,192,29974,1,8,0:0:0:0:
256,192,30233,1,8,0:0:0:0:
256,192,30491,1,8,0:0:0:0:
256,192,30750,1,0,0:0:0:0:
256,192,31009,1,8,0:0:0:0:
256,192,31267,1,8,0:0:0:0:
256,192,31526,1,0,0:0:0:0:
256,192,31784,1,12,0:0:0:0:
256,192,32302,1,0,0:0:0:0:
256,192,32560,1,8,0:0:0:0:
256,192,32819,1,0,0:0:0:0:
256,192,32948,1,0,0:0:0:0:
256,192,33077,1,0,0:0:0:0:
256,192,33336,1,0,0:0:0:0:
256,192,33595,1,8,0:0:0:0:
256,192,33853,1,12,0:0:0:0:
256,192,34371,1,0,0:0:0:0:
256,192,34629,1,8,0:0:0:0:
256,192,34888,1,0,0:0:0:0:
256,192,35017,1,8,0:0:0:0:
256,192,35146,1,0,0:0:0:0:
256,192,35405,1,0,0:0:0:0:
256,192,35664,1,8,0:0:0:0:
256,192,35922,1,0,0:0:0:0:
256,192,36181,1,4,0:0:0:0:
256,192,36440,1,4,0:0:0:0:
256,192,36698,1,4,0:0:0:0:
256,192,36957,1,4,0:0:0:0:
256,192,37215,1,12,0:0:0:0:
256,192,37474,1,8,0:0:0:0:
256,192,37603,1,0,0:0:0:0:
256,192,37733,1,8,0:0:0:0:
256,192,37862,1,8,0:0:0:0:
256,192,37991,1,8,0:0:0:0:
256,192,38121,1,0,0:0:0:0:
256,192,38250,1,8,0:0:0:0:
256,192,38379,1,8,0:0:0:0:
256,192,38509,1,0,0:0:0:0:
256,192,38638,1,8,0:0:0:0:
256,192,38767,1,8,0:0:0:0:
256,192,38896,1,0,0:0:0:0:
256,192,39026,1,8,0:0:0:0:
256,192,39155,1,8,0:0:0:0:
256,192,39284,1,8,0:0:0:0:
256,192,39542,1,0,0:0:0:0:
256,192,39801,1,8,0:0:0:0:
256,192,40059,1,0,0:0:0:0:
256,192,40318,1,0,0:0:0:0:
256,192,40577,1,8,0:0:0:0:
256,192,40835,1,0,0:0:0:0:
256,192,41094,1,8,0:0:0:0:
256,192,41352,1,0,0:0:0:0:
256,192,41611,1,8,0:0:0:0:
256,192,41870,1,8,0:0:0:0:
256,192,42387,1,0,0:0:0:0:
256,192,42646,1,8,0:0:0:0:
256,192,42904,1,8,0:0:0:0:
256,192,43163,1,0,0:0:0:0:
256,192,43421,1,4,0:0:0:0:
256,192,43939,1,12,0:0:0:0:
256,192,44456,1,0,0:0:0:0:
256,192,44585,1,0,0:0:0:0:
256,192,44715,1,0,0:0:0:0:
256,192,44973,1,0,0:0:0:0:
256,192,45232,1,8,0:0:0:0:
256,192,45490,1,0,0:0:0:0:
256,192,45748,1,8,0:0:0:0:
256,192,46007,1,8,0:0:0:0:
256,192,46265,1,0,0:0:0:0:
256,192,46524,1,0,0:0:0:0:
256,192,46783,1,8,0:0:0:0:
256,192,47041,1,0,0:0:0:0:
256,192,47300,1,8,0:0:0:0:
256,192,47558,1,0,0:0:0:0:
256,192,47817,1,8,0:0:0:0:
256,192,48076,1,8,0:0:0:0:
256,192,48593,1,0,0:0:0:0:
256,192,48852,1,8,0:0:0:0:
256,192,49110,1,8,0:0:0:0:
256,192,49369,1,0,0:0:0:0:
256,192,49627,1,4,0:0:0:0:
256,192,50145,1,12,0:0:0:0:
256,192,50404,1,0,0:0:0:0:
256,192,50663,1,0,0:0:0:0:
256,192,50921,1,4,0:0:0:0:
256,192,51180,1,4,0:0:0:0:
256,192,51438,1,8,0:0:0:0:
256,192,51697,1,0,0:0:0:0:
256,192,51956,1,8,0:0:0:0:
256,192,52085,1,8,0:0:0:0:
256,192,52215,1,8,0:0:0:0:
256,192,52473,1,0,0:0:0:0:
256,192,52732,1,8,0:0:0:0:
256,192,52990,1,8,0:0:0:0:
256,192,53249,1,0,0:0:0:0:
256,192,53508,1,8,0:0:0:0:
256,192,53766,1,0,0:0:0:0:
256,192,54025,1,0,0:0:0:0:
256,192,54284,1,8,0:0:0:0:
256,192,54543,1,0,0:0:0:0:
256,192,54671,1,0,0:0:0:0:
256,192,54801,1,8,0:0:0:0:
256,192,55059,1,8,0:0:0:0:
256,192,55318,1,8,0:0:0:0:
256,192,55577,1,0,0:0:0:0:
256,192,55835,1,12,0:0:0:0:
256,192,56352,1,12,0:0:0:0:
256,192,57128,1,8,0:0:0:0:
256,192,57387,1,8,0:0:0:0:
256,192,57646,1,0,0:0:0:0:
256,192,57904,1,0,0:0:0:0:
256,192,58163,1,8,0:0:0:0:
256,192,58292,1,8,0:0:0:0:
256,192,58422,1,8,0:0:0:0:
256,192,58680,1,0,0:0:0:0:
256,192,58939,1,8,0:0:0:0:
256,192,59197,1,8,0:0:0:0:
256,192,59456,1,0,0:0:0:0:
256,192,59715,1,8,0:0:0:0:
256,192,59973,1,0,0:0:0:0:
256,192,60232,1,0,0:0:0:0:
256,192,60491,1,8,0:0:0:0:
256,192,60750,1,0,0:0:0:0:
256,192,60878,1,0,0:0:0:0:
256,192,61008,1,8,0:0:0:0:
256,192,61266,1,8,0:0:0:0:
256,192,61525,1,8,0:0:0:0:
256,192,61784,1,0,0:0:0:0:
256,192,62042,1,12,0:0:0:0:
256,192,62559,1,12,0:0:0:0:
256,192,63077,1,0,0:0:0:0:
256,192,63335,1,0,0:0:0:0:
256,192,63594,1,8,0:0:0:0:
256,192,63853,1,0,0:0:0:0:
256,192,64111,1,4,0:0:0:0:
256,192,64370,1,0,0:0:0:0:
256,192,64628,1,8,0:0:0:0:
256,192,64887,1,0,0:0:0:0:
256,192,65016,1,0,0:0:0:0:
256,192,65146,1,0,0:0:0:0:
256,192,65404,1,8,0:0:0:0:
256,192,65663,1,0,0:0:0:0:
256,192,65921,1,8,0:0:0:0:
256,192,66439,1,0,0:0:0:0:
256,192,66697,1,8,0:0:0:0:
256,192,66956,1,8,0:0:0:0:
256,192,67215,1,0,0:0:0:0:
256,192,67473,1,8,0:0:0:0:
256,192,67732,1,0,0:0:0:0:
256,192,67990,1,8,0:0:0:0:
256,192,68120,1,0,0:0:0:0:
256,192,68249,1,8,0:0:0:0:
256,192,68508,1,8,0:0:0:0:
256,192,68766,1,8,0:0:0:0:
256,192,69025,1,0,0:0:0:0:
256,192,69284,1,8,0:0:0:0:
256,192,69542,1,8,0:0:0:0:
256,192,69801,1,0,0:0:0:0:
256,192,70059,1,12,0:0:0:0:
256,192,70577,1,0,0:0:0:0:
256,192,70835,1,8,0:0:0:0:
256,192,71094,1,0,0:0:0:0:
256,192,71223,1,0,0:0:0:0:
256,192,71352,1,0,0:0:0:0:
256,192,71611,1,0,0:0:0:0:
256,192,71870,1,8,0:0:0:0:
256,192,72128,1,12,0:0:0:0:
256,192,72646,1,0,0:0:0:0:
256,192,72904,1,8,0:0:0:0:
256,192,73163,1,0,0:0:0:0:
256,192,73292,1,8,0:0:0:0:
256,192,73421,1,0,0:0:0:0:
256,192,73680,1,0,0:0:0:0:
256,192,73939,1,8,0:0:0:0:
256,192,74197,1,0,0:0:0:0:
256,192,74456,1,4,0:0:0:0:
256,192,74715,1,4,0:0:0:0:
256,192,74973,1,4,0:0:0:0:
256,192,75232,1,4,0:0:0:0:
256,192,75490,1,8,0:0:0:0:
256,192,75620,1,8,0:0:0:0:
256,192,75749,1,8,0:0:0:0:
256,192,75878,1,0,0:0:0:0:
256,192,76008,1,8,0:0:0:0:
256,192,76137,1,8,0:0:0:0:
256,192,76266,1,0,0:0:0:0:
256,192,76396,1,8,0:0:0:0:
256,192,76525,1,0,0:0:0:0:
256,192,76654,1,8,0:0:0:0:
256,192,76784,1,8,0:0:0:0:
256,192,76913,1,0,0:0:0:0:
256,192,77042,1,8,0:0:0:0:
256,192,77171,1,8,0:0:0:0:
256,192,77301,1,0,0:0:0:0:
256,192,77559,1,4,0:0:0:0:
256,192,77818,1,8,0:0:0:0:
256,192,77947,1,8,0:0:0:0:
256,192,78077,1,8,0:0:0:0:
256,192,78335,1,0,0:0:0:0:
256,192,78594,1,8,0:0:0:0:
256,192,78853,1,0,0:0:0:0:
256,192,79111,1,0,0:0:0:0:
256,192,79241,1,0,0:0:0:0:
256,192,79370,1,8,0:0:0:0:
256,192,79628,1,8,0:0:0:0:
256,192,79887,1,0,0:0:0:0:
256,192,80016,1,8,0:0:0:0:
256,192,80146,1,0,0:0:0:0:
256,192,80404,1,8,0:0:0:0:
256,192,80663,1,0,0:0:0:0:
256,192,80922,1,8,0:0:0:0:
256,192,81180,1,8,0:0:0:0:
256,192,81697,1,0,0:0:0:0:
256,192,81956,1,8,0:0:0:0:
256,192,82215,1,8,0:0:0:0:
256,192,82473,1,0,0:0:0:0:
256,192,82732,1,8,0:0:0:0:
256,192,82991,1,8,0:0:0:0:
256,192,83120,1,8,0:0:0:0:
256,192,83249,1,8,0:0:0:0:
256,192,83508,1,12,0:0:0:0:
256,192,84025,1,8,0:0:0:0:
256,192,84284,1,8,0:0:0:0:
256,192,84542,1,0,0:0:0:0:
256,192,84801,1,8,0:0:0:0:
256,192,85060,1,0,0:0:0:0:
256,192,85189,1,0,0:0:0:0:
256,192,85318,1,0,0:0:0:0:
256,192,85577,1,0,0:0:0:0:
256,192,85835,1,4,0:0:0:0:
256,192,86353,1,8,0:0:0:0:
256,192,86611,1,0,0:0:0:0:
256,192,86741,1,0,0:0:0:0:
256,192,86870,1,0,0:0:0:0:
256,192,87128,1,0,0:0:0:0:
256,192,87387,1,8,0:0:0:0:
256,192,87646,1,0,0:0:0:0:
256,192,87904,1,0,0:0:0:0:
256,192,88163,1,8,0:0:0:0:
256,192,88422,1,8,0:0:0:0:
256,192,88680,1,0,0:0:0:0:
256,192,88810,1,0,0:0:0:0:
256,192,88939,1,8,0:0:0:0:
256,192,89197,1,8,0:0:0:0:
256,192,89456,1,8,0:0:0:0:
256,192,89715,1,0,0:0:0:0:
256,192,89973,1,8,0:0:0:0:
256,192,90103,1,8,0:0:0:0:
256,192,90232,1,8,0:0:0:0:
256,192,90491,1,0,0:0:0:0:
256,192,90749,1,0,0:0:0:0:
256,192,91008,1,8,0:0:0:0:
256,192,91266,1,0,0:0:0:0:
256,192,91525,1,8,0:0:0:0:
256,192,91784,1,0,0:0:0:0:
256,192,92042,1,4,0:0:0:0:
256,192,92301,1,0,0:0:0:0:
256,192,92560,1,8,0:0:0:0:
256,192,92818,1,0,0:0:0:0:
256,192,93077,1,0,0:0:0:0:
256,192,93335,1,0,0:0:0:0:
256,192,93465,1,8,0:0:0:0:
256,192,93594,1,8,0:0:0:0:
256,192,93853,1,0,0:0:0:0:
256,192,94111,1,12,0:0:0:0:
256,192,94628,1,8,0:0:0:0:
256,192,94887,1,0,0:0:0:0:
256,192,95016,1,0,0:0:0:0:
256,192,95146,1,0,0:0:0:0:
256,192,95404,1,0,0:0:0:0:
256,192,95663,1,8,0:0:0:0:
256,192,95922,1,0,0:0:0:0:
256,192,96180,1,0,0:0:0:0:
256,192,96439,1,8,0:0:0:0:
256,192,96568,1,8,0:0:0:0:
256,192,96697,1,8,0:0:0:0:
256,192,96827,1,8,0:0:0:0:
256,192,96956,1,8,0:0:0:0:
256,192,97215,1,4,0:0:0:0:
256,192,97473,1,4,0:0:0:0:
256,192,97732,1,12,0:0:0:0:
256,192,98249,1,4,0:0:0:0:
256,192,98508,1,8,0:0:0:0:
256,192,98766,1,8,0:0:0:0:
256,192,99025,1,0,0:0:0:0:
256,192,99284,1,8,0:0:0:0:
256,192,99542,1,0,0:0:0:0:
256,192,99607,1,8,0:0:0:0:
256,192,99801,1,8,0:0:0:0:
256,192,100318,1,0,0:0:0:0:
256,192,100577,1,8,0:0:0:0:
256,192,100835,1,0,0:0:0:0:
256,192,100922,1,8,0:0:0:0:
256,192,101008,1,8,0:0:0:0:
256,192,101094,1,0,0:0:0:0:
256,192,101180,1,0,0:0:0:0:
256,192,101266,1,8,0:0:0:0:
256,192,101353,1,0,0:0:0:0:
256,192,101870,1,8,0:0:0:0:
256,192,102128,1,0,0:0:0:0:
256,192,102387,1,12,0:0:0:0:
256,192,102904,1,4,0:0:0:0:
256,192,103422,1,8,0:0:0:0:
256,192,103680,1,8,0:0:0:0:
256,192,103766,1,8,0:0:0:0:
256,192,103853,1,8,0:0:0:0:
256,192,103939,1,8,0:0:0:0:
256,192,104197,1,0,0:0:0:0:
256,192,104456,1,0,0:0:0:0:
256,192,104715,1,8,0:0:0:0:
256,192,104973,1,8,0:0:0:0:
256,192,105232,1,0,0:0:0:0:
256,192,105491,1,8,0:0:0:0:
256,192,105749,1,0,0:0:0:0:
256,192,105878,1,8,0:0:0:0:
256,192,106008,1,0,0:0:0:0:
256,192,106525,1,8,0:0:0:0:
256,192,106784,1,0,0:0:0:0:
256,192,107042,1,0,0:0:0:0:
256,192,107107,1,8,0:0:0:0:
256,192,107560,1,0,0:0:0:0:
256,192,108077,1,8,0:0:0:0:
256,192,108335,1,0,0:0:0:0:
256,192,108594,1,12,0:0:0:0:
256,192,109111,1,4,0:0:0:0:
256,192,109628,1,0,0:0:0:0:
256,192,109887,1,0,0:0:0:0:
256,192,110146,1,0,0:0:0:0:
256,192,110404,1,8,0:0:0:0:
256,192,110663,1,4,0:0:0:0:
256,192,110922,1,0,0:0:0:0:
256,192,111180,1,8,0:0:0:0:
256,192,111439,1,8,0:0:0:0:
256,192,111697,1,0,0:0:0:0:
256,192,111956,1,0,0:0:0:0:
256,192,112215,1,8,0:0:0:0:
256,192,112473,1,0,0:0:0:0:
256,192,112991,1,8,0:0:0:0:
256,192,113249,1,0,0:0:0:0:
256,192,113378,1,8,0:0:0:0:
256,192,113508,1,0,0:0:0:0:
256,192,114025,1,0,0:0:0:0:
256,192,114284,1,8,0:0:0:0:
256,192,114542,1,0,0:0:0:0:
256,192,114801,1,8,0:0:0:0:
256,192,115060,1,8,0:0:0:0:
256,192,115318,1,0,0:0:0:0:
256,192,115577,1,0,0:0:0:0:
256,192,115835,1,8,0:0:0:0:
256,192,116094,1,8,0:0:0:0:
256,192,116353,1,0,0:0:0:0:
256,192,116611,1,12,0:0:0:0:
256,192,117128,1,0,0:0:0:0:
256,192,117387,1,8,0:0:0:0:
256,192,117646,1,8,0:0:0:0:
256,192,117904,1,8,0:0:0:0:
256,192,118163,1,0,0:0:0:0:
256,192,118422,1,8,0:0:0:0:
256,192,118680,1,4,0:0:0:0:
256,192,119197,1,0,0:0:0:0:
256,192,119456,1,8,0:0:0:0:
256,192,119973,1,8,0:0:0:0:
256,192,120103,1,8,0:0:0:0:
256,192,120232,1,0,0:0:0:0:
256,192,120491,1,8,0:0:0:0:
256,192,120749,1,0,0:0:0:0:
256,192,121008,1,4,0:0:0:0:
256,192,121266,1,4,0:0:0:0:
256,192,121525,1,4,0:0:0:0:
256,192,121784,1,4,0:0:0:0:
256,192,122042,1,0,0:0:0:0:
256,192,122172,1,0,0:0:0:0:
256,192,122301,1,8,0:0:0:0:
256,192,122430,1,0,0:0:0:0:
256,192,122560,1,8,0:0:0:0:
256,192,122689,1,0,0:0:0:0:
256,192,122818,1,0,0:0:0:0:
256,192,122947,1,8,0:0:0:0:
256,192,123077,1,8,0:0:0:0:
256,192,123206,1,0,0:0:0:0:
256,192,123335,1,8,0:0:0:0:
256,192,123465,1,0,0:0:0:0:
256,192,123594,1,8,0:0:0:0:
256,192,123723,1,8,0:0:0:0:
256,192,123853,1,8,0:0:0:0:
256,192,123982,1,0,0:0:0:0:
256,192,124111,1,8,0:0:0:0:
256,192,124241,1,8,0:0:0:0:
256,192,124370,1,0,0:0:0:0:
256,192,124499,1,8,0:0:0:0:
256,192,124628,1,0,0:0:0:0:
256,192,124758,1,0,0:0:0:0:
256,192,124887,1,8,0:0:0:0:
256,192,125016,1,8,0:0:0:0:
256,192,125146,1,0,0:0:0:0:
256,192,125663,1,4,0:0:0:0:
256,192,126180,1,0,0:0:0:0:
256,192,126439,1,8,0:0:0:0:
256,192,126568,1,8,0:0:0:0:
256,192,126698,1,8,0:0:0:0:
256,192,126956,1,0,0:0:0:0:
256,192,127215,1,8,0:0:0:0:
256,192,127473,1,8,0:0:0:0:
256,192,127732,1,0,0:0:0:0:
256,192,127991,1,8,0:0:0:0:
256,192,128249,1,0,0:0:0:0:
256,192,128508,1,0,0:0:0:0:
256,192,128767,1,8,0:0:0:0:
256,192,129026,1,0,0:0:0:0:
256,192,129154,1,0,0:0:0:0:
256,192,129284,1,8,0:0:0:0:
256,192,129542,1,8,0:0:0:0:
256,192,129801,1,8,0:0:0:0:
256,192,130060,1,0,0:0:0:0:
256,192,130318,1,12,0:0:0:0:
256,192,130835,1,12,0:0:0:0:
256,192,131352,1,8,0:0:0:0:
256,192,131611,1,8,0:0:0:0:
256,192,131740,1,8,0:0:0:0:
256,192,131870,1,8,0:0:0:0:
256,192,132129,1,8,0:0:0:0:
256,192,132257,1,8,0:0:0:0:
256,192,132387,1,0,0:0:0:0:
256,192,132646,1,8,0:0:0:0:
256,192,132775,1,8,0:0:0:0:
256,192,132905,1,8,0:0:0:0:
256,192,133163,1,0,0:0:0:0:
256,192,133422,1,8,0:0:0:0:
256,192,133680,1,8,0:0:0:0:
256,192,133939,1,0,0:0:0:0:
256,192,134198,1,8,0:0:0:0:
256,192,134456,1,0,0:0:0:0:
256,192,134715,1,0,0:0:0:0:
256,192,134974,1,8,0:0:0:0:
256,192,135233,1,0,0:0:0:0:
256,192,135361,1,0,0:0:0:0:
256,192,135491,1,8,0:0:0:0:
256,192,135749,1,8,0:0:0:0:
256,192,136008,1,8,0:0:0:0:
256,192,136267,1,0,0:0:0:0:
256,192,136561,1,12,0:0:0:0:
256,192,137291,1,4,0:0:0:0:
256,192,137549,8,0,145566,0:0:0:0:
