osu file format v14

[General]
AudioFilename: audio.mp3
AudioLeadIn: 0
PreviewTime: 33120
Countdown: 0
SampleSet: Normal
StackLeniency: 0.7
Mode: 3
LetterboxInBreaks: 0
SpecialStyle: 0
WidescreenStoryboard: 1

[Editor]
Bookmarks: 4484,11303,18575,22211,29483,33120,36756,40393,44029,47665,54938,58574,62211,69483,73120,78574,85847,93120,100393,104031
DistanceSpacing: 0.8
BeatDivisor: 4
GridSize: 16
TimelineZoom: 1.3

[Metadata]
Title:SigNalize
TitleUnicode:SigNalize
Artist:Paul Bazooka
ArtistUnicode:Paul Bazooka
Creator:DJBurbz
Version:6K HD
Source:DJ Max Ray
Tags:DJMAX DJ Max Ray Electro Trance
BeatmapID:1542011
BeatmapSetID:730194

[Difficulty]
HPDrainRate:7
CircleSize:6
OverallDifficulty:8
ApproachRate:5
SliderMultiplier:1
SliderTickRate:1

[Events]
//Background and Video events
0,0,"signalize.png",0,0
Video,-181,"video.mp4"
//Break Periods
//Storyboard Layer 0 (Background)
//Storyboard Layer 1 (Fail)
//Storyboard Layer 2 (Pass)
//Storyboard Layer 3 (Foreground)
//Storyboard Sound Samples
Sample,4029,0,"1-bass6-4.wav",70
Sample,4256,0,"1-bass6-2.wav",70
Sample,4483,0,"1-bass6-3.wav",70
Sample,4597,0,"1-bass6-3.wav",70
Sample,4711,0,"1-bass6-4.wav",70
Sample,4938,0,"1-bass6-4.wav",70
Sample,5165,0,"1-bass6-4.wav",70
Sample,5279,0,"1-bass6-4.wav",70
Sample,5393,0,"1-bass6-5.wav",70
Sample,5620,0,"1-bass6-5.wav",70
Sample,5847,0,"1-bass6-4.wav",70
Sample,6074,0,"1-bass6-2.wav",70
Sample,6302,0,"1-bass6-3.wav",70
Sample,6415,0,"1-bass6-3.wav",70
Sample,6529,0,"1-bass6-4.wav",70
Sample,6756,0,"1-bass6-4.wav",70
Sample,6983,0,"1-bass6-4.wav",70
Sample,7097,0,"1-bass6-4.wav",70
Sample,7211,0,"1-bass6-5.wav",70
Sample,7438,0,"1-bass6-5.wav",70
Sample,7665,0,"1-bass6-4.wav",70
Sample,7893,0,"1-bass6-2.wav",70
Sample,8120,0,"1-bass6-3.wav",70
Sample,8233,0,"1-bass6-3.wav",70
Sample,8347,0,"1-bass6-4.wav",70
Sample,8574,0,"1-bass6-4.wav",70
Sample,8802,0,"1-bass6-4.wav",70
Sample,8915,0,"1-bass6-4.wav",70
Sample,9029,0,"1-bass6-5.wav",70
Sample,9256,0,"1-bass6-5.wav",70
Sample,9483,0,"1-bass6-4.wav",70
Sample,9711,0,"1-bass6-2.wav",70
Sample,9938,0,"1-bass6-3.wav",70
Sample,10052,0,"1-bass6-3.wav",70
Sample,10165,0,"1-fx1-10.wav",70
Sample,10165,0,"1-bass6-4.wav",70
Sample,10393,0,"1-bass6-4.wav",70
Sample,10620,0,"1-bass6-4.wav",70
Sample,10733,0,"1-bass6-4.wav",70
Sample,10847,0,"1-bass6-5.wav",70
Sample,11074,0,"1-bass6-5.wav",70
Sample,11302,0,"1-bass6-4.wav",70
Sample,11529,0,"1-bass6-2.wav",70
Sample,11756,0,"1-bass6-3.wav",70
Sample,11870,0,"1-bass6-3.wav",70
Sample,11983,0,"1-bass6-4.wav",70
Sample,12211,0,"1-bass6-4.wav",70
Sample,12438,0,"1-bass6-4.wav",70
Sample,12552,0,"1-bass6-4.wav",70
Sample,12665,0,"1-bass6-5.wav",70
Sample,12893,0,"1-bass6-5.wav",70
Sample,13120,0,"1-bass6-4.wav",70
Sample,13347,0,"1-bass6-2.wav",70
Sample,13574,0,"1-bass6-3.wav",70
Sample,13688,0,"1-bass6-3.wav",70
Sample,13802,0,"1-bass6-4.wav",70
Sample,14029,0,"1-bass6-4.wav",70
Sample,14256,0,"1-bass6-4.wav",70
Sample,14370,0,"1-bass6-4.wav",70
Sample,14483,0,"1-bass6-5.wav",70
Sample,14711,0,"1-bass6-5.wav",70
Sample,14938,0,"1-bass6-4.wav",70
Sample,15165,0,"1-bass6-2.wav",70
Sample,15393,0,"1-bass6-3.wav",70
Sample,15506,0,"1-bass6-3.wav",70
Sample,15620,0,"1-bass6-4.wav",70
Sample,15847,0,"1-bass6-4.wav",70
Sample,16074,0,"1-bass6-4.wav",70
Sample,16188,0,"1-bass6-4.wav",70
Sample,16302,0,"1-bass6-5.wav",70
Sample,16529,0,"1-bass6-5.wav",70
Sample,16529,0,"1-lead-1.wav",70
Sample,16756,0,"1-bass6-4.wav",70
Sample,16756,0,"1-lead-1.wav",70
Sample,16870,0,"1-lead-2.wav",70
Sample,16983,0,"1-bass6-2.wav",70
Sample,17211,0,"1-bass6-3.wav",70
Sample,17211,0,"1-lead-1.wav",70
Sample,17324,0,"1-bass6-3.wav",70
Sample,17438,0,"1-bass6-4.wav",70
Sample,18802,0,"1-hat2-1.wav",70
Sample,19256,0,"1-hat2-1.wav",70
Sample,19711,0,"1-hat2-1.wav",70
Sample,20165,0,"1-hat2-1.wav",70
Sample,20620,0,"1-hat2-1.wav",70
Sample,21074,0,"1-hat2-1.wav",70
Sample,21529,0,"1-hat2-1.wav",70
Sample,21983,0,"1-hat2-1.wav",70
Sample,22211,0,"1-fx3-6.wav",70
Sample,22893,0,"1-hat2-1.wav",70
Sample,23347,0,"1-hat2-1.wav",70
Sample,23802,0,"1-hat2-1.wav",70
Sample,24711,0,"1-hat2-1.wav",70
Sample,25165,0,"1-hat2-1.wav",70
Sample,25620,0,"1-hat2-1.wav",70
Sample,26074,0,"1-hat2-1.wav",70
Sample,26529,0,"1-hat2-1.wav",70
Sample,26983,0,"1-hat2-1.wav",70
Sample,27438,0,"1-hat2-1.wav",70
Sample,27893,0,"1-hat2-1.wav",70
Sample,28347,0,"1-hat2-1.wav",70
Sample,28802,0,"1-hat2-1.wav",70
Sample,29256,0,"1-hat2-1.wav",70
Sample,29483,0,"1-fx1-14.wav",70
Sample,30052,0,"1-fx7-1.wav",70
Sample,30279,0,"1-lead3-32.wav",70
Sample,30279,0,"1-fx7-1.wav",70
Sample,30506,0,"1-fx3-16.wav",70
Sample,30733,0,"1-fx3-17.wav",70
Sample,30961,0,"1-fx3-18.wav",70
Sample,31188,0,"1-fx3-19.wav",70
Sample,31302,0,"1-kick-1.wav",70
Sample,31529,0,"1-hat2-2.wav",70
Sample,31756,0,"1-snare-1.wav",70
Sample,31983,0,"1-hat2-2.wav",70
Sample,32097,0,"1-kick-1.wav",70
Sample,32438,0,"1-hat2-2.wav",70
Sample,32438,0,"1-kick-1.wav",70
Sample,32665,0,"1-snare-1.wav",70
Sample,32836,0,"1-padro-1.wav",70
Sample,32893,0,"1-hat2-2.wav",70
Sample,33006,0,"1-padro-2.wav",70
Sample,33006,0,"1-snare-1.wav",70
Sample,33120,0,"1-lead3-2.wav",70
Sample,33120,0,"1-fx4-1.wav",70
Sample,33347,0,"1-lead3-4.wav",70
Sample,33688,0,"1-lead3-2.wav",70
Sample,34029,0,"1-lead3-4.wav",70
Sample,34256,0,"1-lead3-4.wav",70
Sample,34597,0,"1-lead3-2.wav",70
Sample,34938,0,"1-lead3-2.wav",70
Sample,35165,0,"1-lead3-4.wav",70
Sample,35165,0,"1-padro-7.wav",70
Sample,35279,0,"1-padro-11.wav",70
Sample,35506,0,"1-lead3-2.wav",70
Sample,35506,0,"1-padro-9.wav",70
Sample,35847,0,"1-padro-10.wav",70
Sample,35847,0,"1-lead3-4.wav",70
Sample,35961,0,"1-padro-11.wav",70
Sample,36074,0,"1-lead3-2.wav",70
Sample,36188,0,"1-padro-12.wav",70
Sample,36415,0,"1-lead3-2.wav",70
Sample,36415,0,"1-fx1-15.wav",70
Sample,36643,0,"1-fx1-15.wav",70
Sample,36756,0,"1-fx2-1.wav",70
Sample,36756,0,"1-lead3-4.wav",70
Sample,36756,0,"1-kick-1.wav",70
Sample,36983,0,"1-hat2-1.wav",70
Sample,36983,0,"1-fx2-2.wav",70
Sample,36983,0,"1-lead3-2.wav",70
Sample,37211,0,"1-snare-1.wav",70
Sample,37438,0,"1-hat2-1.wav",70
Sample,37438,0,"1-kick-3.wav",70
Sample,37438,0,"1-lead3-4.wav",70
Sample,37552,0,"1-kick-2.wav",70
Sample,37893,0,"1-kick-1.wav",70
Sample,37893,0,"1-hat2-1.wav",70
Sample,37893,0,"1-lead3-2.wav",70
Sample,38120,0,"1-fx3-26.wav",70
Sample,38120,0,"1-snare-1.wav",70
Sample,38120,0,"1-lead3-5.wav",70
Sample,38290,0,"1-lead3-7.wav",70
Sample,38347,0,"1-hat2-1.wav",70
Sample,38461,0,"1-lead3-2.wav",70
Sample,38574,0,"1-padro-13.wav",70
Sample,38574,0,"1-kick-1.wav",70
Sample,38574,0,"1-lead3-4.wav",70
Sample,38802,0,"1-hat2-1.wav",70
Sample,38802,0,"1-padro-13.wav",70
Sample,38802,0,"1-lead3-2.wav",70
Sample,39029,0,"1-snare-1.wav",70
Sample,39143,0,"1-padro-14.wav",70
Sample,39256,0,"1-hat2-1.wav",70
Sample,39256,0,"1-lead3-5.wav",70
Sample,39370,0,"1-kick-1.wav",70
Sample,39597,0,"1-padro-15.wav",70
Sample,39711,0,"1-hat2-1.wav",70
Sample,39711,0,"1-kick-1.wav",70
Sample,39711,0,"1-lead3-3.wav",70
Sample,39824,0,"1-padro-16.wav",70
Sample,39938,0,"1-snare-1.wav",70
Sample,40108,0,"1-padro-17.wav",70
Sample,40165,0,"1-lead3-5.wav",70
Sample,40165,0,"1-hat2-1.wav",70
Sample,40279,0,"1-snare-1.wav",70
Sample,40279,0,"1-padro-2.wav",70
Sample,40393,0,"1-lead3-2.wav",70
Sample,40393,0,"1-fx4-1.wav",70
Sample,40620,0,"1-lead3-4.wav",70
Sample,40961,0,"1-lead3-2.wav",70
Sample,41302,0,"1-lead3-2.wav",70
Sample,41529,0,"1-lead3-4.wav",70
Sample,41870,0,"1-lead3-2.wav",70
Sample,42211,0,"1-lead3-4.wav",70
Sample,42438,0,"1-lead3-2.wav",70
Sample,42438,0,"1-padro-7.wav",70
Sample,42552,0,"1-padro-11.wav",70
Sample,42779,0,"1-padro-9.wav",70
Sample,42779,0,"1-lead3-3.wav",70
Sample,43120,0,"1-padro-10.wav",70
Sample,43120,0,"1-lead3-4.wav",70
Sample,43233,0,"1-padro-11.wav",70
Sample,43347,0,"1-lead3-2.wav",70
Sample,43461,0,"1-padro-12.wav",70
Sample,43688,0,"1-fx1-15.wav",70
Sample,43688,0,"1-lead3-2.wav",70
Sample,43802,0,"1-hat3-1.wav",70
Sample,44029,0,"1-kick-1.wav",70
Sample,44029,0,"1-padro-27.wav",70
Sample,44256,0,"1-padro-28.wav",70
Sample,44256,0,"1-hat2-1.wav",70
Sample,44370,0,"1-padro-29.wav",70
Sample,44483,0,"1-snare-1.wav",70
Sample,44711,0,"1-kick-3.wav",70
Sample,44711,0,"1-hat2-1.wav",70
Sample,44711,0,"1-padro-30.wav",70
Sample,44824,0,"1-kick-2.wav",70
Sample,44938,0,"1-lead3-44.wav",70
Sample,45165,0,"1-kick-1.wav",70
Sample,45165,0,"1-padro-31.wav",70
Sample,45165,0,"1-hat2-1.wav",70
Sample,45393,0,"1-snare-1.wav",70
Sample,45620,0,"1-hat2-1.wav",70
Sample,45847,0,"1-padro-32.wav",70
Sample,45847,0,"1-kick-1.wav",70
Sample,46074,0,"1-padro-33.wav",70
Sample,46074,0,"1-hat3-2.wav",70
Sample,46302,0,"1-snare-1.wav",70
Sample,46415,0,"1-padro-34.wav",70
Sample,46529,0,"1-hat2-1.wav",70
Sample,46643,0,"1-kick-1.wav",70
Sample,46870,0,"1-padro-35.wav",70
Sample,47097,0,"1-padro-36.wav",70
Sample,47381,0,"1-padro-37.wav",70
Sample,47552,0,"1-padro-38.wav",70
Sample,47665,0,"1-fx4-1.wav",70
Sample,47893,0,"1-padro-39.wav",70
Sample,47893,0,"1-hat2-1.wav",70
Sample,48006,0,"1-padro-40.wav",70
Sample,48233,0,"1-padro-44.wav",70
Sample,48802,0,"1-padro-42.wav",70
Sample,49029,0,"1-padro-43.wav",70
Sample,49256,0,"1-padro-44.wav",70
Sample,49256,0,"1-hat2-1.wav",70
Sample,49824,0,"1-padro-45.wav",70
Sample,49938,0,"1-padro-45.wav",70
Sample,50052,0,"1-padro-47.wav",70
Sample,50165,0,"1-padro-51.wav",70
Sample,50393,0,"1-padro-49.wav",70
Sample,50393,0,"1-fx3-35.wav",70
Sample,50620,0,"1-padro-47.wav",70
Sample,50733,0,"1-fx3-35.wav",70
Sample,50733,0,"1-padro-51.wav",70
Sample,50847,0,"1-fx3-35.wav",70
Sample,50961,0,"1-padro-52.wav",70
Sample,51074,0,"1-fx3-36.wav",70
Sample,51188,0,"1-fx3-35.wav",70
Sample,51302,0,"1-fx3-35.wav",70
Sample,51302,0,"1-padro-53.wav",70
Sample,51415,0,"1-padro-53.wav",70
Sample,51529,0,"1-fx3-36.wav",70
Sample,51529,0,"1-padro-55.wav",70
Sample,51529,0,"1-hat2-1.wav",70
Sample,51643,0,"1-fx3-35.wav",70
Sample,51643,0,"1-padro-56.wav",70
Sample,51756,0,"1-fx3-35.wav",70
Sample,51870,0,"1-padro-60.wav",70
Sample,51983,0,"1-fx3-36.wav",70
Sample,52097,0,"1-fx3-35.wav",70
Sample,52211,0,"1-fx3-35.wav",70
Sample,52438,0,"1-fx3-36.wav",70
Sample,52438,0,"1-padro-55.wav",70
Sample,52552,0,"1-padro-59.wav",70
Sample,52552,0,"1-fx3-35.wav",70
Sample,52665,0,"1-fx3-35.wav",70
Sample,52779,0,"1-padro-60.wav",70
Sample,52893,0,"1-fx3-36.wav",70
Sample,52893,0,"1-hat2-1.wav",70
Sample,53006,0,"1-fx3-35.wav",70
Sample,53347,0,"1-padro-61.wav",70
Sample,53688,0,"1-padro-62.wav",70
Sample,54029,0,"1-padro-61.wav",70
Sample,54256,0,"1-padro-64.wav",70
Sample,54370,0,"1-padro-65.wav",70
Sample,54597,0,"1-padro-66.wav",70
Sample,54824,0,"1-padro-67.wav",70
Sample,55165,0,"1-padro-68.wav",70
Sample,55165,0,"1-hat2-1.wav",70
Sample,55165,0,"1-hat3-2.wav",70
Sample,55279,0,"1-padro-69.wav",70
Sample,55506,0,"1-padro-70.wav",70
Sample,55620,0,"1-hat2-1.wav",70
Sample,56074,0,"1-hat2-1.wav",70
Sample,56074,0,"1-padro-71.wav",70
Sample,56302,0,"1-padro-72.wav",70
Sample,56529,0,"1-padro-70.wav",70
Sample,56529,0,"1-hat2-1.wav",70
Sample,56529,0,"1-hat3-1.wav",70
Sample,56983,0,"1-hat2-1.wav",70
Sample,57097,0,"1-padro-74.wav",70
Sample,57211,0,"1-padro-74.wav",70
Sample,57324,0,"1-padro-76.wav",70
Sample,57438,0,"1-hat2-1.wav",70
Sample,57438,0,"1-padro-77.wav",70
Sample,57665,0,"1-padro-78.wav",70
Sample,57893,0,"1-hat2-1.wav",70
Sample,57893,0,"1-padro-74.wav",70
Sample,58006,0,"1-padro-80.wav",70
Sample,58233,0,"1-padro-81.wav",70
Sample,58347,0,"1-hat2-1.wav",70
Sample,58574,0,"1-snare-2.wav",70
Sample,58574,0,"1-padro-87.wav",70
Sample,58688,0,"1-padro-87.wav",70
Sample,58802,0,"1-hat2-1.wav",70
Sample,58802,0,"1-hat3-1.wav",70
Sample,58802,0,"1-padro-84.wav",70
Sample,58915,0,"1-padro-85.wav",70
Sample,59143,0,"1-padro-89.wav",70
Sample,59256,0,"1-hat2-1.wav",70
Sample,59711,0,"1-hat2-1.wav",70
Sample,59711,0,"1-padro-87.wav",70
Sample,59824,0,"1-padro-90.wav",70
Sample,60052,0,"1-padro-89.wav",70
Sample,60165,0,"1-hat3-2.wav",70
Sample,60165,0,"1-hat2-1.wav",70
Sample,60620,0,"1-padro-90.wav",70
Sample,60961,0,"1-padro-91.wav",70
Sample,61302,0,"1-arpg-1.wav",70
Sample,61302,0,"1-kick-1.wav",70
Sample,61415,0,"1-kick-1.wav",70
Sample,61529,0,"1-kick-1.wav",70
Sample,61643,0,"1-kick-1.wav",70
Sample,61756,0,"1-kick-1.wav",70
Sample,61870,0,"1-kick-1.wav",70
Sample,61983,0,"1-kick-1.wav",70
Sample,62097,0,"1-kick-1.wav",70
Sample,62211,0,"1-lead-40.wav",70
Sample,62211,0,"1-fx4-1.wav",70
Sample,62665,0,"1-lead-41.wav",70
Sample,62893,0,"1-lead-42.wav",70
Sample,63574,0,"1-lead-43.wav",70
Sample,63802,0,"1-lead-44.wav",70
Sample,64256,0,"1-lead-45.wav",70
Sample,64711,0,"1-lead-46.wav",70
Sample,65165,0,"1-lead-47.wav",70
Sample,65847,0,"1-lead-40.wav",70
Sample,66302,0,"1-lead-41.wav",70
Sample,66529,0,"1-lead-42.wav",70
Sample,67211,0,"1-lead-43.wav",70
Sample,67438,0,"1-lead-44.wav",70
Sample,67893,0,"1-lead-45.wav",70
Sample,68347,0,"1-lead-48.wav",70
Sample,68802,0,"1-fx1-20.wav",100
Sample,68802,0,"1-lead-49.wav",70
Sample,69483,0,"1-lead-50.wav",70
Sample,69711,0,"1-lead-53.wav",70
Sample,69938,0,"1-lead-52.wav",70
Sample,70165,0,"1-lead-53.wav",70
Sample,70393,0,"1-lead-54.wav",70
Sample,70620,0,"1-lead-55.wav",70
Sample,70847,0,"1-lead-61.wav",70
Sample,71074,0,"1-lead-60.wav",70
Sample,71302,0,"1-lead-58.wav",70
Sample,71529,0,"1-lead-59.wav",70
Sample,71756,0,"1-lead-60.wav",70
Sample,71983,0,"1-lead-61.wav",70
Sample,72211,0,"1-lead-62.wav",70
Sample,72438,0,"1-lead-63.wav",70
Sample,72665,0,"1-lead-64.wav",70
Sample,72893,0,"1-lead-65.wav",70
Sample,73120,0,"1-lead-66.wav",70
Sample,73120,0,"1-snare-2.wav",70
Sample,73120,0,"1-kick-1.wav",70
Sample,73233,0,"1-lead-67.wav",70
Sample,73347,0,"1-kick-3.wav",70
Sample,73347,0,"1-lead-68.wav",70
Sample,73461,0,"1-lead-69.wav",70
Sample,73574,0,"1-kick-1.wav",70
Sample,73574,0,"1-snare-2.wav",70
Sample,73574,0,"1-lead-76.wav",70
Sample,73688,0,"1-lead-71.wav",70
Sample,73802,0,"1-kick-3.wav",70
Sample,73802,0,"1-lead-72.wav",70
Sample,73915,0,"1-lead-73.wav",70
Sample,74029,0,"1-kick-1.wav",70
Sample,74029,0,"1-lead-74.wav",70
Sample,74029,0,"1-snare-2.wav",70
Sample,74143,0,"1-lead-75.wav",70
Sample,74256,0,"1-lead-76.wav",70
Sample,74256,0,"1-kick-3.wav",70
Sample,74370,0,"1-lead-77.wav",70
Sample,74483,0,"1-snare-2.wav",70
Sample,74483,0,"1-lead-78.wav",70
Sample,74483,0,"1-kick-1.wav",70
Sample,74597,0,"1-lead-79.wav",70
Sample,74711,0,"1-kick-3.wav",70
Sample,74711,0,"1-lead-80.wav",70
Sample,74824,0,"1-lead-70.wav",70
Sample,74938,0,"1-lead-82.wav",70
Sample,74938,0,"1-kick-1.wav",70
Sample,75052,0,"1-kick-3.wav",70
Sample,75052,0,"1-lead-83.wav",70
Sample,75052,0,"1-snare-2.wav",70
Sample,75165,0,"1-fx4-2.wav",100
Sample,75165,0,"1-lead-84.wav",70
Sample,75165,0,"1-kick-1.wav",70
Sample,75279,0,"1-lead-85.wav",70
Sample,75279,0,"1-kick-3.wav",70
Sample,75279,0,"1-snare-2.wav",70
Sample,75393,0,"1-lead-86.wav",70
Sample,75393,0,"1-kick-1.wav",70
Sample,75506,0,"1-snare-2.wav",70
Sample,75506,0,"1-lead-87.wav",70
Sample,75506,0,"1-kick-3.wav",70
Sample,75620,0,"1-kick-1.wav",70
Sample,75620,0,"1-lead-88.wav",70
Sample,75733,0,"1-snare-2.wav",70
Sample,75733,0,"1-kick-1.wav",70
Sample,75733,0,"1-lead-89.wav",70
Sample,75847,0,"1-kick-1.wav",70
Sample,75961,0,"1-kick-1.wav",70
Sample,75961,0,"1-lead-90.wav",70
Sample,75961,0,"1-snare-2.wav",70
Sample,76074,0,"1-kick-1.wav",70
Sample,76188,0,"1-snare-2.wav",70
Sample,76188,0,"1-lead-91.wav",70
Sample,76188,0,"1-kick-1.wav",70
Sample,76302,0,"1-lead-92.wav",70
Sample,76302,0,"1-kick-1.wav",70
Sample,76415,0,"1-snare-2.wav",70
Sample,76415,0,"1-kick-2.wav",70
Sample,76529,0,"1-lead-93.wav",70
Sample,78574,0,"1-arpg-2.wav",70
Sample,78574,0,"1-fx4-1.wav",70
Sample,78688,0,"1-arpg-3.wav",70
Sample,78802,0,"1-arpg-4.wav",70
Sample,78915,0,"1-arpg-2.wav",70
Sample,79029,0,"1-arpg-3.wav",70
Sample,79143,0,"1-arpg-4.wav",70
Sample,79256,0,"1-arpg-2.wav",70
Sample,79370,0,"1-arpg-3.wav",70
Sample,79483,0,"1-arpg-4.wav",70
Sample,79597,0,"1-arpg-2.wav",70
Sample,79711,0,"1-arpg-3.wav",70
Sample,79824,0,"1-arpg-4.wav",70
Sample,79938,0,"1-arpg-2.wav",70
Sample,80052,0,"1-arpg-3.wav",70
Sample,80165,0,"1-arpg-4.wav",70
Sample,80279,0,"1-arpg-5.wav",70
Sample,80393,0,"1-arpg-6.wav",70
Sample,80506,0,"1-arpg-7.wav",70
Sample,80620,0,"1-arpg-8.wav",70
Sample,80733,0,"1-arpg-6.wav",70
Sample,80847,0,"1-arpg-7.wav",70
Sample,80961,0,"1-arpg-8.wav",70
Sample,81074,0,"1-arpg-6.wav",70
Sample,81188,0,"1-arpg-7.wav",70
Sample,81302,0,"1-arpg-8.wav",70
Sample,81415,0,"1-arpg-6.wav",70
Sample,81529,0,"1-arpg-7.wav",70
Sample,81643,0,"1-arpg-8.wav",70
Sample,81756,0,"1-arpg-6.wav",70
Sample,81870,0,"1-arpg-7.wav",70
Sample,81983,0,"1-arpg-8.wav",70
Sample,82097,0,"1-arpg-9.wav",70
Sample,82211,0,"1-arpg-10.wav",70
Sample,82324,0,"1-arpg-11.wav",70
Sample,82438,0,"1-arpg-12.wav",70
Sample,82552,0,"1-arpg-10.wav",70
Sample,82665,0,"1-arpg-11.wav",70
Sample,82779,0,"1-arpg-12.wav",70
Sample,82893,0,"1-arpg-10.wav",70
Sample,83006,0,"1-arpg-11.wav",70
Sample,83120,0,"1-arpg-12.wav",70
Sample,83233,0,"1-arpg-10.wav",70
Sample,83347,0,"1-arpg-11.wav",70
Sample,83461,0,"1-arpg-12.wav",70
Sample,83574,0,"1-arpg-10.wav",70
Sample,83688,0,"1-arpg-11.wav",70
Sample,83802,0,"1-arpg-12.wav",70
Sample,83915,0,"1-arpg-13.wav",70
Sample,84029,0,"1-arpg-14.wav",70
Sample,84143,0,"1-arpg-15.wav",70
Sample,84256,0,"1-arpg-16.wav",70
Sample,84370,0,"1-arpg-14.wav",70
Sample,84483,0,"1-arpg-15.wav",70
Sample,84597,0,"1-arpg-16.wav",70
Sample,84711,0,"1-arpg-14.wav",70
Sample,84824,0,"1-arpg-15.wav",70
Sample,84938,0,"1-arpg-16.wav",70
Sample,85052,0,"1-arpg-14.wav",70
Sample,85165,0,"1-arpg-15.wav",70
Sample,85279,0,"1-arpg-16.wav",70
Sample,85393,0,"1-arpg-14.wav",70
Sample,85506,0,"1-arpg-15.wav",70
Sample,85620,0,"1-arpg-16.wav",70
Sample,85733,0,"1-arpg-17.wav",70
Sample,85847,0,"1-arpg-18.wav",70
Sample,85961,0,"1-arpg-19.wav",70
Sample,86074,0,"1-arpg-20.wav",70
Sample,86188,0,"1-arpg-18.wav",70
Sample,86302,0,"1-arpg-19.wav",70
Sample,86415,0,"1-arpg-20.wav",70
Sample,86529,0,"1-arpg-18.wav",70
Sample,86643,0,"1-arpg-19.wav",70
Sample,86756,0,"1-arpg-20.wav",70
Sample,86870,0,"1-arpg-18.wav",70
Sample,86983,0,"1-arpg-19.wav",70
Sample,87097,0,"1-arpg-20.wav",70
Sample,87211,0,"1-arpg-18.wav",70
Sample,87324,0,"1-arpg-19.wav",70
Sample,87438,0,"1-arpg-20.wav",70
Sample,87552,0,"1-arpg-21.wav",70
Sample,87665,0,"1-arpg-22.wav",70
Sample,87779,0,"1-arpg-23.wav",70
Sample,87893,0,"1-arpg-24.wav",70
Sample,88006,0,"1-arpg-22.wav",70
Sample,88120,0,"1-arpg-23.wav",70
Sample,88233,0,"1-arpg-24.wav",70
Sample,88347,0,"1-arpg-22.wav",70
Sample,88461,0,"1-arpg-23.wav",70
Sample,88574,0,"1-arpg-24.wav",70
Sample,88688,0,"1-arpg-22.wav",70
Sample,88802,0,"1-arpg-23.wav",70
Sample,88915,0,"1-arpg-24.wav",70
Sample,89029,0,"1-arpg-22.wav",70
Sample,89143,0,"1-arpg-23.wav",70
Sample,89256,0,"1-arpg-24.wav",70
Sample,89370,0,"1-arpg-25.wav",70
Sample,89483,0,"1-arpg-26.wav",70
Sample,89597,0,"1-arpg-27.wav",70
Sample,89711,0,"1-arpg-28.wav",70
Sample,89824,0,"1-arpg-26.wav",70
Sample,89938,0,"1-arpg-27.wav",70
Sample,90052,0,"1-arpg-28.wav",70
Sample,90165,0,"1-arpg-26.wav",70
Sample,90279,0,"1-arpg-27.wav",70
Sample,90393,0,"1-arpg-28.wav",70
Sample,90506,0,"1-arpg-26.wav",70
Sample,90620,0,"1-arpg-27.wav",70
Sample,90733,0,"1-arpg-28.wav",70
Sample,90847,0,"1-arpg-26.wav",70
Sample,90961,0,"1-arpg-27.wav",70
Sample,91074,0,"1-arpg-28.wav",70
Sample,91188,0,"1-arpg-29.wav",70
Sample,91302,0,"1-arpg-30.wav",70
Sample,91415,0,"1-arpg-31.wav",70
Sample,91529,0,"1-arpg-32.wav",70
Sample,91643,0,"1-arpg-30.wav",70
Sample,91756,0,"1-arpg-31.wav",70
Sample,91870,0,"1-arpg-32.wav",70
Sample,91983,0,"1-arpg-30.wav",70
Sample,92097,0,"1-arpg-31.wav",70
Sample,92211,0,"1-arpg-32.wav",70
Sample,92324,0,"1-arpg-33.wav",70
Sample,92438,0,"1-arpg-31.wav",70
Sample,92552,0,"1-arpg-32.wav",70
Sample,92665,0,"1-arpg-33.wav",70
Sample,92779,0,"1-arpg-31.wav",70
Sample,92893,0,"1-arpg-32.wav",70
Sample,93006,0,"1-arpg-34.wav",70
Sample,93120,0,"1-kick-1.wav",70
Sample,93120,0,"1-fx4-1.wav",70
Sample,93120,0,"1-arpg-21.wav",70
Sample,93233,0,"1-arpg-7.wav",70
Sample,93347,0,"1-arpg-35.wav",70
Sample,93347,0,"1-hat2-2.wav",70
Sample,93461,0,"1-arpg-21.wav",70
Sample,93574,0,"1-kick-1.wav",70
Sample,93574,0,"1-snare-1.wav",70
Sample,93574,0,"1-arpg-7.wav",70
Sample,93688,0,"1-arpg-35.wav",70
Sample,93802,0,"1-hat2-2.wav",70
Sample,93802,0,"1-arpg-21.wav",70
Sample,93915,0,"1-arpg-7.wav",70
Sample,94029,0,"1-kick-1.wav",70
Sample,94029,0,"1-arpg-35.wav",70
Sample,94143,0,"1-arpg-21.wav",70
Sample,94256,0,"1-hat2-2.wav",70
Sample,94256,0,"1-arpg-7.wav",70
Sample,94370,0,"1-arpg-35.wav",70
Sample,94483,0,"1-arpg-21.wav",70
Sample,94483,0,"1-snare-1.wav",70
Sample,94483,0,"1-kick-1.wav",70
Sample,94597,0,"1-arpg-7.wav",70
Sample,94711,0,"1-hat2-2.wav",70
Sample,94711,0,"1-arpg-35.wav",70
Sample,94824,0,"1-arpg-36.wav",70
Sample,94938,0,"1-arpg-37.wav",70
Sample,94938,0,"1-kick-1.wav",70
Sample,95052,0,"1-arpg-38.wav",70
Sample,95165,0,"1-arpg-39.wav",70
Sample,95165,0,"1-hat3-2.wav",70
Sample,95165,0,"1-hat2-2.wav",70
Sample,95279,0,"1-arpg-37.wav",70
Sample,95393,0,"1-kick-1.wav",70
Sample,95393,0,"1-snare-1.wav",70
Sample,95393,0,"1-arpg-38.wav",70
Sample,95506,0,"1-arpg-39.wav",70
Sample,95620,0,"1-arpg-37.wav",70
Sample,95620,0,"1-hat2-2.wav",70
Sample,95733,0,"1-arpg-38.wav",70
Sample,95847,0,"1-arpg-39.wav",70
Sample,95847,0,"1-hat2-4.wav",70
Sample,95961,0,"1-arpg-37.wav",70
Sample,96074,0,"1-hat2-2.wav",70
Sample,96074,0,"1-arpg-38.wav",70
Sample,96074,0,"1-kick-1.wav",70
Sample,96074,0,"1-snare-1.wav",70
Sample,96188,0,"1-arpg-39.wav",70
Sample,96302,0,"1-kick-1.wav",70
Sample,96302,0,"1-snare-1.wav",70
Sample,96302,0,"1-hat2-4.wav",70
Sample,96302,0,"1-arpg-37.wav",70
Sample,96415,0,"1-arpg-38.wav",70
Sample,96529,0,"1-hat2-2.wav",70
Sample,96529,0,"1-arpg-39.wav",70
Sample,96529,0,"1-hat3-1.wav",70
Sample,96643,0,"1-arpg-40.wav",70
Sample,96756,0,"1-arpg-41.wav",70
Sample,96756,0,"1-kick-1.wav",70
Sample,96870,0,"1-arpg-42.wav",70
Sample,96983,0,"1-hat2-2.wav",70
Sample,96983,0,"1-arpg-43.wav",70
Sample,97097,0,"1-arpg-41.wav",70
Sample,97211,0,"1-arpg-42.wav",70
Sample,97211,0,"1-snare-1.wav",70
Sample,97211,0,"1-kick-1.wav",70
Sample,97324,0,"1-arpg-43.wav",70
Sample,97438,0,"1-hat2-2.wav",70
Sample,97438,0,"1-arpg-41.wav",70
Sample,97552,0,"1-arpg-42.wav",70
Sample,97665,0,"1-kick-1.wav",70
Sample,97665,0,"1-arpg-43.wav",70
Sample,97779,0,"1-arpg-41.wav",70
Sample,97893,0,"1-hat2-2.wav",70
Sample,97893,0,"1-arpg-42.wav",70
Sample,98006,0,"1-arpg-43.wav",70
Sample,98120,0,"1-kick-1.wav",70
Sample,98120,0,"1-snare-1.wav",70
Sample,98120,0,"1-arpg-41.wav",70
Sample,98233,0,"1-arpg-42.wav",70
Sample,98347,0,"1-hat2-2.wav",70
Sample,98347,0,"1-arpg-43.wav",70
Sample,98461,0,"1-arpg-44.wav",70
Sample,98574,0,"1-kick-1.wav",70
Sample,98574,0,"1-arpg-45.wav",70
Sample,98688,0,"1-arpg-46.wav",70
Sample,98802,0,"1-hat3-2.wav",70
Sample,98802,0,"1-arpg-47.wav",70
Sample,98802,0,"1-hat2-2.wav",70
Sample,98915,0,"1-arpg-45.wav",70
Sample,99029,0,"1-snare-1.wav",70
Sample,99029,0,"1-arpg-46.wav",70
Sample,99029,0,"1-kick-1.wav",70
Sample,99143,0,"1-arpg-47.wav",70
Sample,99256,0,"1-hat2-2.wav",70
Sample,99256,0,"1-arpg-45.wav",70
Sample,99370,0,"1-arpg-46.wav",70
Sample,99483,0,"1-arpg-47.wav",70
Sample,99483,0,"1-hat2-3.wav",70
Sample,99483,0,"1-kick-1.wav",70
Sample,99597,0,"1-arpg-45.wav",70
Sample,99711,0,"1-hat2-2.wav",70
Sample,99711,0,"1-arpg-46.wav",70
Sample,99824,0,"1-arpg-47.wav",70
Sample,99938,0,"1-arpg-45.wav",70
Sample,99938,0,"1-snare-1.wav",70
Sample,99938,0,"1-kick-1.wav",70
Sample,100052,0,"1-arpg-46.wav",70
Sample,100165,0,"1-hat2-2.wav",70
Sample,100165,0,"1-arpg-47.wav",70
Sample,100165,0,"1-hat3-1.wav",70
Sample,100279,0,"1-arpg-45.wav",70

[TimingPoints]
393,454.545454545455,4,1,0,100,1,0
22211,-1000,4,1,0,100,0,0
22325,-200,4,1,0,100,0,0
22552,-50,4,1,0,100,0,0
22666,-100,4,1,0,100,0,0
24029,-1000,4,1,0,100,0,0
24143,-200,4,1,0,100,0,0
24370,-50,4,1,0,100,0,0
24483,-100,4,1,0,100,0,0
29483,-10000,4,1,0,100,0,0
29540,-100,4,1,0,100,0,0
29597,-10000,4,1,0,100,0,0
29654,-100,4,1,0,100,0,0
29711,-10000,4,1,0,100,0,0
29768,-100,4,1,0,100,0,0
29824,-10000,4,1,0,100,0,0
29881,-100,4,1,0,100,0,0
29938,-10000,4,1,0,100,0,0
29995,-100,4,1,0,100,0,0
30052,-10000,4,1,0,100,0,0
30108,-100,4,1,0,100,0,0
30165,-10000,4,1,0,100,0,0
30222,-100,4,1,0,100,0,0
30279,-10000,4,1,0,100,0,0
30336,-100,4,1,0,100,0,0
36870,-1000,4,1,0,100,0,0
36927,-200,4,1,0,100,0,0
37040,-50,4,1,0,100,0,0
37097,-100,4,1,0,100,0,0
37211,-1000,4,1,0,100,0,0
37268,-200,4,1,0,100,0,0
37381,-50,4,1,0,100,0,0
37438,-100,4,1,0,100,0,0
37665,-1000,4,1,0,100,0,0
37722,-200,4,1,0,100,0,0
37836,-50,4,1,0,100,0,0
37893,-100,4,1,0,100,0,0
38120,-1000,4,1,0,100,0,0
38177,-200,4,1,0,100,0,0
38290,-50,4,1,0,100,0,0
38347,-10000,4,1,0,100,0,0
38404,-100,4,1,0,100,0,0
38574,-1000,4,1,0,100,0,0
38631,-200,4,1,0,100,0,0
38745,-50,4,1,0,100,0,0
38802,-100,4,1,0,100,0,0
39313,-1000,4,1,0,100,0,0
39370,-100,4,1,0,100,0,0
39597,-1000,4,1,0,100,0,0
39654,-200,4,1,0,100,0,0
39768,-50,4,1,0,100,0,0
39824,-100,4,1,0,100,0,0
77665,-1000,4,1,0,100,0,0
77779,-200,4,1,0,100,0,0
78461,-50,4,1,0,100,0,0
78574,-100,4,1,0,100,0,1
100393,-1000,4,1,0,100,0,0
100506,-200,4,1,0,100,0,0
100961,-50,4,1,0,100,0,0
101074,-1000,4,1,0,100,0,0
101188,-200,4,1,0,100,0,0
101643,-50,4,1,0,100,0,0
101756,-1000,4,1,0,100,0,0
101870,-200,4,1,0,100,0,0
102324,-50,4,1,0,100,0,0
102438,-1000,4,1,0,100,0,0
102552,-200,4,1,0,100,0,0
103006,-50,4,1,0,100,0,0
103120,-1000,4,1,0,100,0,0
103461,-50,4,1,0,100,0,0
103574,-1000,4,1,0,100,0,0
103688,-200,4,1,0,100,0,0
103915,-50,4,1,0,100,0,0
104029,-100,4,1,0,100,0,0

[HitObjects]
384,192,393,5,0,0:0:0:70:1-fx6-1.wav
128,192,847,1,0,0:0:0:70:1-fx6-2.wav
320,192,1302,1,0,0:0:0:70:1-fx6-3.wav
384,192,2211,1,0,0:0:0:70:1-fx1-1.wav
128,192,2324,1,0,0:0:0:70:1-fx1-2.wav
469,192,2438,1,0,0:0:0:70:1-fx1-3.wav
42,192,2552,1,0,0:0:0:70:1-fx1-7.wav
298,192,2665,1,0,0:0:0:70:1-fx1-4.wav
213,192,2779,1,0,0:0:0:70:1-fx1-9.wav
384,192,2893,1,0,0:0:0:70:1-fx1-7.wav
128,192,3006,1,0,0:0:0:70:1-fx1-4.wav
469,192,3120,128,0,3347:0:0:0:70:1-fx3-1.wav
298,192,3120,1,0,0:0:0:70:1-fx1-9.wav
42,192,3347,128,0,3574:0:0:0:70:1-fx3-2.wav
213,192,3574,1,0,0:0:0:70:1-fx3-3.wav
448,192,3688,1,0,0:0:0:70:1-fx3-4.wav
320,192,3915,1,0,0:0:0:70:1-fx3-5.wav
128,192,4029,1,0,0:0:0:70:1-lead3-1.wav
128,192,4256,1,0,0:0:0:70:1-lead3-1.wav
384,192,4597,1,0,0:0:0:70:1-lead3-2.wav
469,192,4938,1,0,0:0:0:70:1-lead3-1.wav
469,192,5165,1,0,0:0:0:70:1-lead3-1.wav
213,192,5506,1,0,0:0:0:70:1-lead3-2.wav
320,192,5847,1,0,0:0:0:70:1-lead3-1.wav
320,192,6074,1,0,0:0:0:70:1-lead3-1.wav
128,192,6415,128,0,6756:0:0:0:70:1-lead3-3.wav
298,192,6756,1,0,0:0:0:70:1-lead3-1.wav
298,192,6983,1,0,0:0:0:70:1-lead3-1.wav
42,192,7324,1,0,0:0:0:70:1-lead3-2.wav
448,192,7665,1,0,0:0:0:70:1-lead3-4.wav
64,192,7893,1,0,0:0:0:70:1-lead3-2.wav
384,192,8233,1,0,0:0:0:70:1-lead3-4.wav
128,192,8574,1,0,0:0:0:70:1-lead3-2.wav
298,192,8802,1,0,0:0:0:70:1-lead3-4.wav
213,192,9143,1,0,0:0:0:70:1-lead3-2.wav
469,192,9370,1,0,0:0:0:70:1-lead3-5.wav
213,192,9483,1,0,0:0:0:70:1-lead3-4.wav
128,192,9711,1,0,0:0:0:70:1-lead3-2.wav
320,192,10052,128,0,10393:0:0:0:70:1-lead3-3.wav
64,192,10393,1,0,0:0:0:70:1-lead3-6.wav
448,192,10506,1,0,0:0:0:70:1-lead3-7.wav
192,192,10620,1,0,0:0:0:70:1-lead3-4.wav
320,192,10733,1,0,0:0:0:70:1-lead3-12.wav
128,192,10847,1,0,0:0:0:70:1-lead3-6.wav
384,192,10961,1,0,0:0:0:70:1-lead3-9.wav
213,192,11074,1,0,0:0:0:70:1-lead3-8.wav
384,192,11302,1,0,0:0:0:70:1-lead3-2.wav
42,192,11302,1,0,0:0:0:70:1-lead-1.wav
384,192,11529,1,0,0:0:0:70:1-lead3-4.wav
42,192,11529,1,0,0:0:0:70:1-lead-1.wav
298,192,11643,1,0,0:0:0:70:1-lead-2.wav
213,192,11756,1,0,0:0:0:70:1-snare-1.wav
469,192,11870,1,0,0:0:0:70:1-lead3-2.wav
42,192,11983,1,0,0:0:0:70:1-lead-1.wav
469,192,12097,1,0,0:0:0:70:1-lead3-11.wav
42,192,12211,1,0,0:0:0:70:1-lead-1.wav
384,192,12211,1,0,0:0:0:70:1-lead3-4.wav
384,192,12438,1,0,0:0:0:70:1-lead3-4.wav
42,192,12438,1,0,0:0:0:70:1-lead-1.wav
128,192,12438,1,0,0:0:0:70:1-hat2-1.wav
213,192,12665,1,0,0:0:0:70:1-snare-1.wav
42,192,12665,1,0,0:0:0:70:1-lead-1.wav
384,192,12779,1,0,0:0:0:70:1-lead3-2.wav
42,192,12893,1,0,0:0:0:70:1-lead-1.wav
128,192,12893,1,0,0:0:0:70:1-hat2-1.wav
42,192,13120,1,0,0:0:0:70:1-lead-1.wav
469,192,13120,1,0,0:0:0:70:1-lead3-4.wav
42,192,13347,1,0,0:0:0:70:1-lead-1.wav
469,192,13347,1,0,0:0:0:70:1-lead3-2.wav
298,192,13461,1,0,0:0:0:70:1-lead-2.wav
213,192,13574,1,0,0:0:0:70:1-snare-1.wav
384,192,13688,128,0,14029:0:0:0:70:1-lead3-3.wav
42,192,13802,1,0,0:0:0:70:1-lead-1.wav
42,192,14029,1,0,0:0:0:70:1-lead-1.wav
298,192,14029,1,0,0:0:0:70:1-lead3-4.wav
42,192,14256,1,0,0:0:0:70:1-lead-1.wav
298,192,14256,1,0,0:0:0:70:1-lead3-2.wav
128,192,14256,1,0,0:0:0:70:1-hat2-1.wav
213,192,14483,1,0,0:0:0:70:1-snare-1.wav
42,192,14483,1,0,0:0:0:70:1-lead-1.wav
384,192,14597,1,0,0:0:0:70:1-lead3-2.wav
42,192,14711,1,0,0:0:0:70:1-lead-1.wav
128,192,14711,1,0,0:0:0:70:1-hat2-1.wav
213,192,14938,1,0,0:0:0:70:1-snare-1.wav
42,192,14938,1,0,0:0:0:70:1-lead-1.wav
469,192,14938,1,0,0:0:0:70:1-lead3-2.wav
469,192,15165,1,0,0:0:0:70:1-lead3-4.wav
42,192,15165,1,0,0:0:0:70:1-lead-1.wav
213,192,15279,1,0,0:0:0:70:1-snare-2.wav
298,192,15279,1,0,0:0:0:70:1-lead-2.wav
128,192,15393,1,0,0:0:0:70:1-snare-1.wav
384,192,15506,1,0,0:0:0:70:1-lead3-2.wav
42,192,15620,1,0,0:0:0:70:1-lead-1.wav
128,192,15733,1,0,0:0:0:70:1-snare-2.wav
384,192,15733,1,0,0:0:0:70:1-lead3-11.wav
213,192,15847,1,0,0:0:0:70:1-snare-1.wav
42,192,15847,1,0,0:0:0:70:1-lead-1.wav
469,192,15847,1,0,0:0:0:70:1-lead3-4.wav
42,192,16074,1,0,0:0:0:70:1-lead-1.wav
469,192,16074,1,0,0:0:0:70:1-lead3-2.wav
213,192,16188,1,0,0:0:0:70:1-snare-2.wav
128,192,16302,1,0,0:0:0:70:1-snare-1.wav
42,192,16302,1,0,0:0:0:70:1-lead-1.wav
384,192,16415,1,0,0:0:0:70:1-lead3-2.wav
42,192,16529,1,0,0:0:0:70:1-lead-1.wav
128,192,16643,1,0,0:0:0:70:1-snare-2.wav
42,192,16756,1,0,0:0:0:70:1-lead3-13.wav
128,192,16756,1,0,0:0:0:70:1-snare-1.wav
320,192,16870,1,0,0:0:0:70:1-lead3-14.wav
128,192,16983,1,0,0:0:0:70:1-lead3-15.wav
213,192,16983,1,0,0:0:0:70:1-snare-1.wav
298,192,17097,1,0,0:0:0:70:1-lead3-16.wav
128,192,17211,1,0,0:0:0:70:1-snare-1.wav
192,192,17211,1,0,0:0:0:70:1-lead3-17.wav
384,192,17324,1,0,0:0:0:70:1-lead3-18.wav
128,192,17438,1,0,0:0:0:70:1-snare-1.wav
192,192,17438,1,0,0:0:0:70:1-lead3-19.wav
469,192,17552,1,0,0:0:0:70:1-lead3-20.wav
64,192,17665,5,0,0:0:0:70:1-fx1-11.wav
384,192,17665,1,0,0:0:0:70:1-bass4-1.wav
384,192,17817,1,0,0:0:0:70:1-bass4-1.wav
192,192,17893,1,0,0:0:0:70:1-snare-3.wav
384,192,17968,1,0,0:0:0:70:1-bass4-1.wav
128,192,18120,1,0,0:0:0:70:1-fx1-12.wav
298,192,18120,1,0,0:0:0:70:1-bass4-2.wav
298,192,18271,1,0,0:0:0:70:1-bass4-2.wav
192,192,18347,1,0,0:0:0:70:1-fx1-13.wav
298,192,18423,1,0,0:0:0:70:1-bass4-2.wav
42,192,18574,1,0,0:0:0:70:1-kick-1.wav
384,192,18574,1,0,0:0:0:70:1-lead-3.wav
469,192,18688,1,0,0:0:0:70:1-lead-4.wav
213,192,18688,1,0,0:0:0:70:1-lead3-21.wav
298,192,18802,1,0,0:0:0:70:1-lead-5.wav
213,192,18915,1,0,0:0:0:70:1-lead3-2.wav
128,192,19029,1,0,0:0:0:70:1-snare-1.wav
213,192,19143,1,0,0:0:0:70:1-lead3-2.wav
42,192,19256,1,0,0:0:0:70:1-kick-1.wav
213,192,19483,1,0,0:0:0:70:1-lead3-4.wav
64,192,19711,1,0,0:0:0:70:1-kick-1.wav
298,192,19711,1,0,0:0:0:70:1-lead3-22.wav
128,192,19938,1,0,0:0:0:70:1-snare-1.wav
469,192,19938,1,0,0:0:0:70:1-lead-6.wav
384,192,20052,1,0,0:0:0:70:1-lead-7.wav
213,192,20052,128,0,20165:0:0:0:70:1-lead3-23.wav
469,192,20165,1,0,0:0:0:70:1-lead-8.wav
42,192,20393,1,0,0:0:0:70:1-kick-1.wav
298,192,20393,1,0,0:0:0:70:1-lead-9.wav
213,192,20393,1,0,0:0:0:70:1-lead3-2.wav
384,192,20506,1,0,0:0:0:70:1-lead-10.wav
298,192,20620,1,0,0:0:0:70:1-lead-11.wav
213,192,20620,1,0,0:0:0:70:1-lead3-4.wav
128,192,20847,1,0,0:0:0:70:1-snare-1.wav
42,192,21074,1,0,0:0:0:70:1-kick-1.wav
384,192,21074,1,0,0:0:0:70:1-lead3-5.wav
213,192,21529,128,0,21756:0:0:0:70:1-lead3-3.wav
64,192,21529,1,0,0:0:0:70:1-kick-1.wav
128,192,21756,1,0,0:0:0:70:1-snare-1.wav
448,192,21756,128,0,22211:0:0:0:70:1-lead-12.wav
298,192,21983,1,0,0:0:0:70:1-lead3-5.wav
64,192,22211,1,0,0:0:0:70:1-kick-1.wav
128,192,22665,1,0,0:0:0:70:1-snare-1.wav
64,192,22893,1,0,0:0:0:70:1-kick-1.wav
298,192,22893,1,0,0:0:0:70:1-lead3-24.wav
213,192,23063,1,0,0:0:0:70:1-lead3-25.wav
213,192,23233,1,0,0:0:0:70:1-lead3-26.wav
64,192,23347,1,0,0:0:0:70:1-kick-1.wav
298,192,23347,1,0,0:0:0:70:1-lead3-27.wav
128,192,23574,1,0,0:0:0:70:1-snare-1.wav
384,192,23574,1,0,0:0:0:70:1-lead3-28.wav
469,192,23688,1,0,0:0:0:70:1-lead3-29.wav
384,192,23858,1,0,0:0:0:70:1-lead3-30.wav
298,192,24029,1,0,0:0:0:70:1-fx3-7.wav
64,192,24483,1,0,0:0:0:70:1-kick-1.wav
213,192,24483,1,0,0:0:0:70:1-snare-1.wav
469,192,24711,1,0,0:0:0:70:1-lead3-5.wav
64,192,24824,1,0,0:0:0:70:1-kick-1.wav
213,192,24938,1,0,0:0:0:70:1-snare-1.wav
64,192,25165,1,0,0:0:0:70:1-kick-1.wav
384,192,25165,128,0,25393:0:0:0:70:1-lead3-3.wav
213,192,25393,1,0,0:0:0:70:1-snare-1.wav
64,192,25620,1,0,0:0:0:70:1-kick-1.wav
469,192,25620,1,0,0:0:0:70:1-lead3-5.wav
213,192,25733,1,0,0:0:0:70:1-snare-1.wav
384,192,25847,1,0,0:0:0:70:1-lead-3.wav
64,192,25847,1,0,0:0:0:70:1-kick-1.wav
469,192,25961,1,0,0:0:0:70:1-lead-4.wav
213,192,25961,1,0,0:0:0:70:1-lead3-2.wav
384,192,26074,1,0,0:0:0:70:1-lead-5.wav
298,192,26188,1,0,0:0:0:70:1-lead-13.wav
213,192,26188,1,0,0:0:0:70:1-lead3-4.wav
128,192,26302,1,0,0:0:0:70:1-snare-1.wav
213,192,26415,1,0,0:0:0:70:1-lead3-2.wav
64,192,26529,1,0,0:0:0:70:1-kick-1.wav
213,192,26756,1,0,0:0:0:70:1-lead3-4.wav
64,192,26983,1,0,0:0:0:70:1-kick-1.wav
298,192,26983,1,0,0:0:0:70:1-lead3-5.wav
128,192,27211,1,0,0:0:0:70:1-snare-1.wav
469,192,27211,1,0,0:0:0:70:1-lead-6.wav
384,192,27324,1,0,0:0:0:70:1-lead-7.wav
213,192,27324,128,0,27438:0:0:0:70:1-lead3-23.wav
469,192,27438,1,0,0:0:0:70:1-lead-8.wav
384,192,27665,1,0,0:0:0:70:1-lead-9.wav
42,192,27665,1,0,0:0:0:70:1-kick-1.wav
213,192,27665,1,0,0:0:0:70:1-lead3-2.wav
298,192,27779,1,0,0:0:0:70:1-lead-10.wav
384,192,27893,1,0,0:0:0:70:1-lead-11.wav
213,192,27893,1,0,0:0:0:70:1-lead3-4.wav
298,192,28006,1,0,0:0:0:70:1-lead-14.wav
128,192,28120,1,0,0:0:0:70:1-snare-1.wav
42,192,28347,1,0,0:0:0:70:1-kick-2.wav
469,192,28347,1,0,0:0:0:70:1-lead3-5.wav
42,192,28461,1,0,0:0:0:70:1-kick-3.wav
384,192,28574,128,0,28802:0:0:0:70:1-lead3-31.wav
128,192,28688,1,0,0:0:0:70:1-snare-2.wav
42,192,28802,1,0,0:0:0:70:1-kick-3.wav
298,192,28802,1,0,0:0:0:70:1-lead3-4.wav
298,192,28915,1,0,0:0:0:70:1-lead3-2.wav
128,192,29029,1,0,0:0:0:70:1-snare-1.wav
298,192,29143,1,0,0:0:0:70:1-lead3-4.wav
469,192,29256,1,0,0:0:0:70:1-lead3-5.wav
384,192,29483,1,0,0:0:0:70:1-fx3-8.wav
128,192,29597,1,0,0:0:0:70:1-fx3-9.wav
298,192,29711,1,0,0:0:0:70:1-fx3-10.wav
42,192,29824,1,0,0:0:0:70:1-fx3-11.wav
384,192,29938,1,0,0:0:0:70:1-fx3-12.wav
128,192,30052,1,0,0:0:0:70:1-fx3-13.wav
469,192,30165,1,0,0:0:0:70:1-fx3-14.wav
213,192,30279,1,0,0:0:0:70:1-fx3-15.wav
64,192,30393,1,0,0:0:0:70:1-snare-1.wav
448,192,30393,1,0,0:0:0:70:1-kick-4.wav
64,192,30620,1,0,0:0:0:70:1-snare-1.wav
448,192,30620,1,0,0:0:0:70:1-kick-4.wav
64,192,30847,1,0,0:0:0:70:1-snare-1.wav
448,192,30847,1,0,0:0:0:70:1-kick-1.wav
192,192,30961,1,0,0:0:0:70:1-lead3-33.wav
320,192,31074,1,0,0:0:0:70:1-lead3-34.wav
213,192,31188,1,0,0:0:0:70:1-lead3-35.wav
42,192,31302,1,0,0:0:0:70:1-lead3-36.wav
298,192,31415,1,0,0:0:0:70:1-lead3-37.wav
128,192,31529,1,0,0:0:0:70:1-lead3-38.wav
384,192,31643,1,0,0:0:0:70:1-lead3-39.wav
192,192,31756,1,0,0:0:0:70:1-lead3-40.wav
384,192,31870,1,0,0:0:0:70:1-lead3-41.wav
213,192,31983,1,0,0:0:0:70:1-lead3-42.wav
469,192,32097,1,0,0:0:0:70:1-lead3-43.wav
128,192,32211,1,0,0:0:0:70:1-lead3-44.wav
384,192,32324,1,0,0:0:0:70:1-lead3-45.wav
192,192,32438,1,0,0:0:0:70:1-lead3-46.wav
320,192,32665,1,0,0:0:0:70:1-lead3-47.wav
320,192,32836,1,0,0:0:0:70:1-lead3-49.wav
320,192,33006,1,0,0:0:0:70:1-lead3-49.wav
384,192,33120,1,0,0:0:0:70:1-lead-15.wav
42,192,33120,1,0,0:0:0:70:1-kick-1.wav
469,192,33233,1,0,0:0:0:70:1-lead-15.wav
384,192,33347,1,0,0:0:0:70:1-lead-17.wav
128,192,33347,1,0,0:0:0:70:1-hat2-1.wav
384,192,33574,1,0,0:0:0:70:1-lead-18.wav
213,192,33574,1,0,0:0:0:70:1-snare-1.wav
42,192,33802,1,0,0:0:0:70:1-kick-3.wav
128,192,33802,1,0,0:0:0:70:1-hat2-1.wav
42,192,33915,1,0,0:0:0:70:1-kick-2.wav
384,192,33915,1,0,0:0:0:70:1-lead-19.wav
469,192,34029,1,0,0:0:0:70:1-lead-20.wav
384,192,34143,1,0,0:0:0:70:1-lead-20.wav
42,192,34256,1,0,0:0:0:70:1-kick-1.wav
298,192,34256,1,0,0:0:0:70:1-lead-22.wav
128,192,34256,1,0,0:0:0:70:1-hat2-1.wav
213,192,34483,1,0,0:0:0:70:1-snare-1.wav
298,192,34483,1,0,0:0:0:70:1-lead-23.wav
128,192,34711,1,0,0:0:0:70:1-hat2-1.wav
298,192,34824,1,0,0:0:0:70:1-lead-22.wav
384,192,34938,1,0,0:0:0:70:1-lead-25.wav
42,192,34938,1,0,0:0:0:70:1-kick-1.wav
384,192,35052,1,0,0:0:0:70:1-lead-25.wav
298,192,35165,1,0,0:0:0:70:1-lead-22.wav
128,192,35165,1,0,0:0:0:70:1-hat2-1.wav
298,192,35393,1,0,0:0:0:70:1-lead-27.wav
213,192,35393,1,0,0:0:0:70:1-snare-1.wav
128,192,35620,1,0,0:0:0:70:1-hat2-1.wav
469,192,35733,1,0,0:0:0:70:1-lead-25.wav
42,192,35733,1,0,0:0:0:70:1-kick-1.wav
384,192,35847,1,0,0:0:0:70:1-lead-29.wav
298,192,35961,1,0,0:0:0:70:1-lead-29.wav
213,192,35961,1,0,0:0:0:70:1-snare-2.wav
384,192,36074,1,0,0:0:0:70:1-lead-31.wav
64,192,36074,1,0,0:0:0:70:1-kick-1.wav
128,192,36074,1,0,0:0:0:70:1-hat2-1.wav
384,192,36302,1,0,0:0:0:70:1-lead-32.wav
213,192,36302,1,0,0:0:0:70:1-snare-1.wav
384,192,36529,1,0,0:0:0:70:1-lead-33.wav
192,192,36870,1,0,0:0:0:70:1-fx3-20.wav
192,192,37097,1,0,0:0:0:70:1-fx3-21.wav
448,192,37211,1,0,0:0:0:70:1-fx3-22.wav
448,192,37438,1,0,0:0:0:70:1-fx3-23.wav
64,192,37665,1,0,0:0:0:70:1-fx3-24.wav
64,192,37893,1,0,0:0:0:70:1-fx3-24.wav
320,192,38120,1,0,0:0:0:70:1-fx1-16.wav
320,192,38347,1,0,0:0:0:70:1-fx1-17.wav
320,192,38461,1,0,0:0:0:70:1-fx1-17.wav
128,192,38574,1,0,0:0:0:70:1-fx3-28.wav
128,192,38802,1,0,0:0:0:70:1-fx3-28.wav
384,192,39029,1,0,0:0:0:70:1-fx3-30.wav
384,192,39256,1,0,0:0:0:70:1-fx3-30.wav
384,192,39483,1,0,0:0:0:70:1-fx3-30.wav
192,192,39597,1,0,0:0:0:70:1-fx3-32.wav
192,192,39824,1,0,0:0:0:70:1-fx3-32.wav
384,192,40393,1,0,0:0:0:70:1-lead-15.wav
42,192,40393,1,0,0:0:0:70:1-kick-1.wav
469,192,40506,1,0,0:0:0:70:1-lead-15.wav
384,192,40620,1,0,0:0:0:70:1-lead-17.wav
128,192,40620,1,0,0:0:0:70:1-hat2-1.wav
384,192,40847,1,0,0:0:0:70:1-lead-18.wav
213,192,40847,1,0,0:0:0:70:1-snare-1.wav
42,192,41074,1,0,0:0:0:70:1-kick-3.wav
128,192,41074,1,0,0:0:0:70:1-hat2-1.wav
42,192,41188,1,0,0:0:0:70:1-kick-2.wav
384,192,41188,1,0,0:0:0:70:1-lead-19.wav
469,192,41302,1,0,0:0:0:70:1-lead-20.wav
384,192,41415,1,0,0:0:0:70:1-lead-20.wav
42,192,41529,1,0,0:0:0:70:1-kick-1.wav
298,192,41529,1,0,0:0:0:70:1-lead-22.wav
128,192,41529,1,0,0:0:0:70:1-hat2-1.wav
213,192,41756,1,0,0:0:0:70:1-snare-1.wav
298,192,41756,1,0,0:0:0:70:1-lead-23.wav
128,192,41983,1,0,0:0:0:70:1-hat2-1.wav
384,192,42097,1,0,0:0:0:70:1-lead-22.wav
298,192,42211,1,0,0:0:0:70:1-lead-25.wav
42,192,42211,1,0,0:0:0:70:1-kick-1.wav
384,192,42324,1,0,0:0:0:70:1-lead-25.wav
298,192,42438,1,0,0:0:0:70:1-lead-22.wav
128,192,42438,1,0,0:0:0:70:1-hat2-1.wav
298,192,42665,1,0,0:0:0:70:1-lead-27.wav
213,192,42665,1,0,0:0:0:70:1-snare-1.wav
128,192,42893,1,0,0:0:0:70:1-hat2-1.wav
469,192,43006,1,0,0:0:0:70:1-lead-25.wav
42,192,43006,1,0,0:0:0:70:1-kick-1.wav
384,192,43120,1,0,0:0:0:70:1-lead-29.wav
298,192,43233,1,0,0:0:0:70:1-lead-29.wav
213,192,43233,1,0,0:0:0:70:1-snare-2.wav
384,192,43347,1,0,0:0:0:70:1-lead-31.wav
64,192,43347,1,0,0:0:0:70:1-kick-1.wav
128,192,43347,1,0,0:0:0:70:1-hat2-1.wav
384,192,43574,1,0,0:0:0:70:1-lead-32.wav
213,192,43574,1,0,0:0:0:70:1-snare-1.wav
384,192,43802,1,0,0:0:0:70:1-lead-33.wav
64,192,44029,1,0,0:0:0:70:1-lead3-36.wav
469,192,44143,1,0,0:0:0:70:1-lead3-37.wav
128,192,44256,1,0,0:0:0:70:1-lead3-38.wav
384,192,44370,1,0,0:0:0:70:1-lead3-39.wav
213,192,44483,1,0,0:0:0:70:1-lead3-40.wav
298,192,44597,1,0,0:0:0:70:1-lead3-41.wav
213,192,44711,1,0,0:0:0:70:1-lead3-42.wav
298,192,44824,1,0,0:0:0:70:1-lead3-43.wav
64,192,44938,1,0,0:0:0:70:1-fx1-18.wav
448,192,45165,1,0,0:0:0:70:1-fx1-19.wav
298,192,45506,1,0,0:0:0:70:1-lead3-51.wav
213,192,45620,1,0,0:0:0:70:1-lead3-41.wav
298,192,45733,1,0,0:0:0:70:1-lead3-35.wav
42,192,45847,1,0,0:0:0:70:1-lead3-35.wav
298,192,45961,1,0,0:0:0:70:1-lead3-51.wav
128,192,46074,1,0,0:0:0:70:1-lead3-42.wav
384,192,46188,1,0,0:0:0:70:1-lead3-52.wav
213,192,46302,1,0,0:0:0:70:1-lead3-56.wav
469,192,46415,1,0,0:0:0:70:1-lead3-53.wav
128,192,46529,1,0,0:0:0:70:1-lead3-57.wav
384,192,46643,1,0,0:0:0:70:1-lead3-54.wav
192,192,46756,128,0,47665:0:0:0:70:1-lead3-58.wav
448,192,46983,128,0,47211:0:0:0:70:1-hat3-2.wav
320,192,47211,1,0,0:0:0:70:1-snare-1.wav
384,192,47665,1,0,0:0:0:70:1-lead-15.wav
42,192,47665,1,0,0:0:0:70:1-kick-1.wav
469,192,47779,1,0,0:0:0:70:1-lead-15.wav
298,192,47893,1,0,0:0:0:70:1-lead-17.wav
128,192,47893,128,0,48120:0:0:0:70:1-hat3-2.wav
298,192,48120,1,0,0:0:0:70:1-lead-18.wav
213,192,48120,1,0,0:0:0:70:1-snare-1.wav
42,192,48347,1,0,0:0:0:70:1-kick-3.wav
128,192,48347,1,0,0:0:0:70:1-hat2-1.wav
42,192,48461,1,0,0:0:0:70:1-kick-2.wav
469,192,48461,1,0,0:0:0:70:1-lead-19.wav
384,192,48574,1,0,0:0:0:70:1-lead-20.wav
298,192,48688,1,0,0:0:0:70:1-lead-20.wav
42,192,48802,1,0,0:0:0:70:1-kick-1.wav
298,192,48802,1,0,0:0:0:70:1-lead-22.wav
128,192,48802,1,0,0:0:0:70:1-hat2-1.wav
213,192,49029,1,0,0:0:0:70:1-snare-1.wav
298,192,49029,1,0,0:0:0:70:1-lead-23.wav
128,192,49256,128,0,49483:0:0:0:70:1-hat3-1.wav
298,192,49370,1,0,0:0:0:70:1-lead-22.wav
384,192,49483,1,0,0:0:0:70:1-lead-25.wav
42,192,49483,1,0,0:0:0:70:1-kick-1.wav
469,192,49597,1,0,0:0:0:70:1-lead-25.wav
384,192,49711,1,0,0:0:0:70:1-lead-22.wav
128,192,49711,1,0,0:0:0:70:1-hat2-1.wav
384,192,49938,1,0,0:0:0:70:1-lead-27.wav
213,192,49938,1,0,0:0:0:70:1-snare-1.wav
128,192,50165,1,0,0:0:0:70:1-hat2-1.wav
469,192,50279,1,0,0:0:0:70:1-lead-25.wav
42,192,50279,1,0,0:0:0:70:1-kick-1.wav
384,192,50393,1,0,0:0:0:70:1-lead-29.wav
298,192,50506,1,0,0:0:0:70:1-lead-29.wav
213,192,50506,1,0,0:0:0:70:1-snare-2.wav
384,192,50620,1,0,0:0:0:70:1-lead-31.wav
64,192,50620,1,0,0:0:0:70:1-kick-1.wav
128,192,50620,1,0,0:0:0:70:1-hat2-1.wav
384,192,50847,1,0,0:0:0:70:1-lead-32.wav
213,192,50847,1,0,0:0:0:70:1-snare-1.wav
384,192,51074,1,0,0:0:0:70:1-lead-33.wav
128,192,51074,1,0,0:0:0:70:1-hat2-1.wav
42,192,51302,1,0,0:0:0:70:1-kick-1.wav
469,192,51302,1,0,0:0:0:70:1-lead-15.wav
298,192,51415,1,0,0:0:0:70:1-lead-15.wav
384,192,51529,1,0,0:0:0:70:1-lead-17.wav
128,192,51529,128,0,51756:0:0:0:70:1-hat3-2.wav
213,192,51756,1,0,0:0:0:70:1-snare-1.wav
384,192,51756,1,0,0:0:0:70:1-lead-18.wav
128,192,51983,1,0,0:0:0:70:1-hat2-1.wav
42,192,51983,1,0,0:0:0:70:1-kick-3.wav
384,192,52097,1,0,0:0:0:70:1-lead-19.wav
42,192,52097,1,0,0:0:0:70:1-kick-2.wav
469,192,52211,1,0,0:0:0:70:1-lead-20.wav
384,192,52324,1,0,0:0:0:70:1-lead-20.wav
128,192,52438,1,0,0:0:0:70:1-hat2-1.wav
298,192,52438,1,0,0:0:0:70:1-lead-22.wav
42,192,52438,1,0,0:0:0:70:1-kick-1.wav
298,192,52665,1,0,0:0:0:70:1-lead-23.wav
213,192,52665,1,0,0:0:0:70:1-snare-1.wav
128,192,52893,128,0,53120:0:0:0:70:1-hat3-1.wav
384,192,53006,1,0,0:0:0:70:1-lead-22.wav
42,192,53120,1,0,0:0:0:70:1-kick-1.wav
298,192,53120,1,0,0:0:0:70:1-lead-25.wav
298,192,53233,1,0,0:0:0:70:1-lead-25.wav
128,192,53347,1,0,0:0:0:70:1-hat2-1.wav
384,192,53347,1,0,0:0:0:70:1-lead-22.wav
213,192,53574,1,0,0:0:0:70:1-snare-1.wav
384,192,53574,1,0,0:0:0:70:1-lead-27.wav
128,192,53802,1,0,0:0:0:70:1-hat2-1.wav
469,192,53915,1,0,0:0:0:70:1-lead-25.wav
42,192,53915,1,0,0:0:0:70:1-kick-1.wav
298,192,54029,1,0,0:0:0:70:1-lead-29.wav
384,192,54143,1,0,0:0:0:70:1-lead-34.wav
42,192,54256,1,0,0:0:0:70:1-kick-1.wav
469,192,54256,1,0,0:0:0:70:1-lead-35.wav
128,192,54256,1,0,0:0:0:70:1-hat2-1.wav
384,192,54370,1,0,0:0:0:70:1-lead-31.wav
213,192,54483,1,0,0:0:0:70:1-snare-1.wav
298,192,54483,1,0,0:0:0:70:1-lead-34.wav
384,192,54597,1,0,0:0:0:70:1-lead-29.wav
469,192,54711,1,0,0:0:0:70:1-lead-36.wav
128,192,54711,1,0,0:0:0:70:1-hat2-1.wav
213,192,54824,1,0,0:0:0:100:1-snare-2.wav
384,192,54938,1,0,0:0:0:70:1-lead-15.wav
298,192,54938,1,0,0:0:0:70:1-kick-1.wav
469,192,55052,1,0,0:0:0:70:1-lead-15.wav
384,192,55165,1,0,0:0:0:70:1-lead-17.wav
128,192,55165,1,0,0:0:0:100:1-snare-2.wav
298,192,55165,1,0,0:0:0:70:1-kick-1.wav
384,192,55393,1,0,0:0:0:70:1-lead-18.wav
42,192,55393,1,0,0:0:0:70:1-snare-4.wav
298,192,55393,1,0,0:0:0:70:1-kick-1.wav
128,192,55506,1,0,0:0:0:100:1-snare-2.wav
213,192,55620,1,0,0:0:0:70:1-kick-1.wav
384,192,55733,1,0,0:0:0:70:1-lead-19.wav
469,192,55847,1,0,0:0:0:70:1-lead-20.wav
128,192,55847,1,0,0:0:0:100:1-snare-2.wav
298,192,55847,1,0,0:0:0:70:1-kick-1.wav
384,192,55961,1,0,0:0:0:70:1-lead-20.wav
42,192,56074,1,0,0:0:0:70:1-snare-4.wav
298,192,56074,1,0,0:0:0:70:1-lead-22.wav
213,192,56074,1,0,0:0:0:70:1-kick-1.wav
128,192,56188,1,0,0:0:0:100:1-snare-2.wav
298,192,56302,1,0,0:0:0:70:1-lead-23.wav
213,192,56302,1,0,0:0:0:70:1-kick-1.wav
128,192,56529,1,0,0:0:0:100:1-snare-2.wav
213,192,56529,1,0,0:0:0:70:1-kick-1.wav
384,192,56643,1,0,0:0:0:70:1-lead-22.wav
298,192,56756,1,0,0:0:0:70:1-lead-25.wav
469,192,56756,1,0,0:0:0:70:1-kick-1.wav
213,192,56870,1,0,0:0:0:100:1-snare-2.wav
384,192,56870,1,0,0:0:0:70:1-lead-25.wav
384,192,56983,1,0,0:0:0:70:1-lead-22.wav
128,192,56983,1,0,0:0:0:70:1-kick-1.wav
384,192,57211,1,0,0:0:0:70:1-lead-27.wav
213,192,57211,1,0,0:0:0:100:1-snare-2.wav
42,192,57211,1,0,0:0:0:70:1-kick-1.wav
42,192,57438,1,0,0:0:0:70:1-kick-1.wav
213,192,57552,1,0,0:0:0:100:1-snare-2.wav
384,192,57552,1,0,0:0:0:70:1-lead-25.wav
469,192,57665,1,0,0:0:0:70:1-lead-29.wav
42,192,57665,1,0,0:0:0:70:1-kick-1.wav
298,192,57779,1,0,0:0:0:70:1-lead-29.wav
213,192,57893,1,0,0:0:0:100:1-snare-2.wav
384,192,57893,1,0,0:0:0:70:1-lead-31.wav
42,192,57893,1,0,0:0:0:70:1-kick-1.wav
384,192,58120,1,0,0:0:0:70:1-lead-32.wav
213,192,58120,1,0,0:0:0:100:1-snare-2.wav
42,192,58120,1,0,0:0:0:70:1-kick-1.wav
384,192,58347,1,0,0:0:0:70:1-lead-33.wav
213,192,58347,1,0,0:0:0:100:1-snare-2.wav
42,192,58347,1,0,0:0:0:70:1-kick-1.wav
384,192,58574,1,0,0:0:0:70:1-lead-19.wav
298,192,58574,1,0,0:0:0:70:1-kick-1.wav
213,192,58688,1,0,0:0:0:70:1-lead-32.wav
128,192,58688,1,0,0:0:0:70:1-kick-1.wav
298,192,58802,1,0,0:0:0:70:1-lead-19.wav
384,192,58802,1,0,0:0:0:70:1-kick-1.wav
213,192,58915,1,0,0:0:0:70:1-lead-19.wav
128,192,58915,1,0,0:0:0:70:1-kick-1.wav
384,192,59029,1,0,0:0:0:70:1-lead-33.wav
298,192,59029,1,0,0:0:0:70:1-kick-1.wav
213,192,59143,1,0,0:0:0:70:1-kick-1.wav
469,192,59256,1,0,0:0:0:70:1-lead-15.wav
384,192,59256,1,0,0:0:0:70:1-kick-1.wav
128,192,59370,1,0,0:0:0:70:1-lead-31.wav
42,192,59370,1,0,0:0:0:70:1-kick-1.wav
384,192,59483,1,0,0:0:0:70:1-lead-37.wav
298,192,59483,1,0,0:0:0:70:1-kick-1.wav
213,192,59597,1,0,0:0:0:70:1-lead-37.wav
128,192,59597,1,0,0:0:0:70:1-kick-1.wav
384,192,59711,1,0,0:0:0:70:1-lead-27.wav
298,192,59711,1,0,0:0:0:70:1-kick-1.wav
128,192,59824,1,0,0:0:0:70:1-kick-1.wav
384,192,59938,1,0,0:0:0:70:1-lead-27.wav
298,192,59938,1,0,0:0:0:70:1-kick-1.wav
128,192,60052,1,0,0:0:0:70:1-kick-1.wav
298,192,60165,1,0,0:0:0:70:1-lead-25.wav
384,192,60165,1,0,0:0:0:70:1-kick-1.wav
128,192,60279,1,0,0:0:0:70:1-lead-27.wav
213,192,60279,1,0,0:0:0:70:1-kick-1.wav
384,192,60393,1,0,0:0:0:70:1-lead-32.wav
469,192,60393,1,0,0:0:0:70:1-kick-1.wav
42,192,60506,1,0,0:0:0:70:1-lead-19.wav
128,192,60506,1,0,0:0:0:70:1-kick-1.wav
384,192,60620,1,0,0:0:0:70:1-lead-32.wav
469,192,60620,1,0,0:0:0:70:1-kick-1.wav
42,192,60733,1,0,0:0:0:70:1-lead-19.wav
128,192,60733,1,0,0:0:0:70:1-kick-1.wav
384,192,60847,1,0,0:0:0:70:1-lead-32.wav
469,192,60847,1,0,0:0:0:70:1-kick-1.wav
42,192,60961,1,0,0:0:0:70:1-lead-19.wav
128,192,60961,1,0,0:0:0:70:1-kick-1.wav
384,192,61074,1,0,0:0:0:70:1-lead-19.wav
469,192,61074,1,0,0:0:0:70:1-kick-1.wav
42,192,61188,1,0,0:0:0:70:1-lead-32.wav
128,192,61188,1,0,0:0:0:70:1-kick-1.wav
298,192,61302,1,0,0:0:0:70:1-lead-38.wav
469,192,61302,128,0,62211:0:0:0:70:1-arpg-1.wav
384,192,61302,1,0,0:0:0:70:1-snare-1.wav
128,192,61415,1,0,0:0:0:70:1-snare-1.wav
213,192,61415,1,0,0:0:0:70:1-lead-38.wav
384,192,61529,1,0,0:0:0:70:1-snare-1.wav
298,192,61529,1,0,0:0:0:70:1-lead-38.wav
213,192,61643,1,0,0:0:0:70:1-lead-38.wav
128,192,61643,1,0,0:0:0:70:1-snare-1.wav
298,192,61756,1,0,0:0:0:70:1-lead-38.wav
384,192,61756,1,0,0:0:0:70:1-snare-1.wav
213,192,61870,1,0,0:0:0:70:1-lead-38.wav
128,192,61870,1,0,0:0:0:70:1-snare-1.wav
384,192,61983,128,0,62211:0:0:0:70:1-lead-39.wav
298,192,61983,1,0,0:0:0:70:1-snare-1.wav
213,192,62097,1,0,0:0:0:70:1-snare-1.wav
42,192,62211,1,0,0:0:0:100:1-arpg-21.wav
298,192,62324,1,0,0:0:0:100:1-arpg-7.wav
192,192,62438,1,0,0:0:0:100:1-arpg-35.wav
42,192,62552,1,0,0:0:0:100:1-arpg-21.wav
298,192,62665,1,0,0:0:0:100:1-arpg-7.wav
213,192,62779,1,0,0:0:0:100:1-arpg-35.wav
42,192,62893,1,0,0:0:0:100:1-arpg-21.wav
320,192,63006,1,0,0:0:0:100:1-arpg-7.wav
213,192,63120,1,0,0:0:0:100:1-arpg-35.wav
42,192,63233,1,0,0:0:0:100:1-arpg-21.wav
298,192,63347,1,0,0:0:0:100:1-arpg-7.wav
213,192,63461,1,0,0:0:0:100:1-arpg-35.wav
64,192,63574,1,0,0:0:0:100:1-arpg-21.wav
298,192,63688,1,0,0:0:0:100:1-arpg-7.wav
192,192,63802,1,0,0:0:0:100:1-arpg-35.wav
128,192,63915,1,0,0:0:0:100:1-arpg-36.wav
42,192,64029,1,0,0:0:0:100:1-arpg-6.wav
213,192,64143,1,0,0:0:0:100:1-arpg-7.wav
298,192,64256,1,0,0:0:0:100:1-arpg-8.wav
42,192,64370,1,0,0:0:0:100:1-arpg-6.wav
213,192,64483,1,0,0:0:0:100:1-arpg-7.wav
298,192,64597,1,0,0:0:0:100:1-arpg-8.wav
42,192,64711,1,0,0:0:0:100:1-arpg-6.wav
192,192,64824,1,0,0:0:0:100:1-arpg-7.wav
298,192,64938,1,0,0:0:0:100:1-arpg-8.wav
64,192,65052,1,0,0:0:0:100:1-arpg-6.wav
213,192,65165,1,0,0:0:0:100:1-arpg-7.wav
298,192,65279,1,0,0:0:0:100:1-arpg-8.wav
42,192,65393,1,0,0:0:0:100:1-arpg-6.wav
213,192,65506,1,0,0:0:0:100:1-arpg-7.wav
298,192,65620,1,0,0:0:0:100:1-arpg-8.wav
213,192,65733,1,0,0:0:0:100:1-arpg-9.wav
128,192,65847,1,0,0:0:0:100:1-arpg-30.wav
213,192,65961,1,0,0:0:0:100:1-arpg-31.wav
384,192,66074,1,0,0:0:0:100:1-arpg-32.wav
128,192,66188,1,0,0:0:0:100:1-arpg-30.wav
213,192,66302,1,0,0:0:0:100:1-arpg-31.wav
384,192,66415,1,0,0:0:0:100:1-arpg-32.wav
128,192,66529,1,0,0:0:0:100:1-arpg-30.wav
213,192,66643,1,0,0:0:0:100:1-arpg-31.wav
384,192,66756,1,0,0:0:0:100:1-arpg-32.wav
128,192,66870,1,0,0:0:0:100:1-arpg-33.wav
213,192,66983,1,0,0:0:0:100:1-arpg-31.wav
384,192,67097,1,0,0:0:0:100:1-arpg-32.wav
128,192,67211,1,0,0:0:0:100:1-arpg-33.wav
213,192,67324,1,0,0:0:0:100:1-arpg-31.wav
384,192,67438,1,0,0:0:0:100:1-arpg-32.wav
448,192,67552,1,0,0:0:0:100:1-arpg-34.wav
128,192,67665,1,0,0:0:0:100:1-arpg-10.wav
298,192,67779,1,0,0:0:0:100:1-arpg-11.wav
448,192,67893,1,0,0:0:0:100:1-arpg-12.wav
128,192,68006,1,0,0:0:0:100:1-arpg-10.wav
298,192,68120,1,0,0:0:0:100:1-arpg-11.wav
448,192,68233,1,0,0:0:0:100:1-arpg-12.wav
128,192,68347,1,0,0:0:0:100:1-arpg-10.wav
298,192,68461,1,0,0:0:0:100:1-arpg-11.wav
448,192,68574,1,0,0:0:0:100:1-arpg-12.wav
128,192,68688,1,0,0:0:0:100:1-arpg-10.wav
298,192,68802,1,0,0:0:0:100:1-arpg-11.wav
448,192,68915,1,0,0:0:0:100:1-arpg-12.wav
128,192,69029,1,0,0:0:0:100:1-arpg-10.wav
298,192,69143,1,0,0:0:0:100:1-arpg-11.wav
448,192,69256,1,0,0:0:0:100:1-arpg-12.wav
384,192,69370,1,0,0:0:0:100:1-arpg-13.wav
128,192,69483,1,0,0:0:0:100:1-arpg-21.wav
213,192,69597,1,0,0:0:0:100:1-arpg-7.wav
320,192,69711,1,0,0:0:0:100:1-arpg-35.wav
128,192,69824,1,0,0:0:0:100:1-arpg-21.wav
213,192,69938,1,0,0:0:0:100:1-arpg-7.wav
320,192,70052,1,0,0:0:0:100:1-arpg-35.wav
128,192,70165,1,0,0:0:0:100:1-arpg-21.wav
213,192,70279,1,0,0:0:0:100:1-arpg-7.wav
320,192,70393,1,0,0:0:0:100:1-arpg-35.wav
128,192,70506,1,0,0:0:0:100:1-arpg-21.wav
213,192,70620,1,0,0:0:0:100:1-arpg-7.wav
320,192,70733,1,0,0:0:0:100:1-arpg-35.wav
128,192,70847,1,0,0:0:0:100:1-arpg-21.wav
213,192,70961,1,0,0:0:0:100:1-arpg-7.wav
320,192,71074,1,0,0:0:0:100:1-arpg-35.wav
213,192,71188,1,0,0:0:0:100:1-arpg-36.wav
64,192,71302,1,0,0:0:0:100:1-arpg-22.wav
320,192,71415,1,0,0:0:0:100:1-arpg-23.wav
384,192,71529,1,0,0:0:0:100:1-arpg-24.wav
64,192,71643,1,0,0:0:0:100:1-arpg-22.wav
320,192,71756,1,0,0:0:0:100:1-arpg-23.wav
384,192,71870,1,0,0:0:0:100:1-arpg-24.wav
64,192,71983,1,0,0:0:0:100:1-arpg-22.wav
320,192,72097,1,0,0:0:0:100:1-arpg-23.wav
384,192,72211,1,0,0:0:0:100:1-arpg-24.wav
64,192,72324,1,0,0:0:0:100:1-arpg-22.wav
320,192,72438,1,0,0:0:0:100:1-arpg-23.wav
384,192,72552,1,0,0:0:0:100:1-arpg-24.wav
64,192,72665,1,0,0:0:0:100:1-arpg-22.wav
320,192,72779,1,0,0:0:0:100:1-arpg-23.wav
384,192,72893,1,0,0:0:0:100:1-arpg-24.wav
469,192,73006,1,0,0:0:0:100:1-arpg-25.wav
128,192,73120,1,0,0:0:0:100:1-arpg-26.wav
298,192,73233,1,0,0:0:0:100:1-arpg-27.wav
213,192,73347,1,0,0:0:0:100:1-arpg-28.wav
128,192,73461,1,0,0:0:0:100:1-arpg-26.wav
298,192,73574,1,0,0:0:0:100:1-arpg-27.wav
213,192,73688,1,0,0:0:0:100:1-arpg-28.wav
128,192,73802,1,0,0:0:0:100:1-arpg-26.wav
298,192,73915,1,0,0:0:0:100:1-arpg-27.wav
213,192,74029,1,0,0:0:0:100:1-arpg-28.wav
128,192,74143,1,0,0:0:0:100:1-arpg-26.wav
298,192,74256,1,0,0:0:0:100:1-arpg-27.wav
213,192,74370,1,0,0:0:0:100:1-arpg-28.wav
128,192,74483,1,0,0:0:0:100:1-arpg-26.wav
298,192,74597,1,0,0:0:0:100:1-arpg-27.wav
213,192,74711,1,0,0:0:0:100:1-arpg-28.wav
128,192,74824,1,0,0:0:0:100:1-arpg-29.wav
320,192,74938,1,0,0:0:0:100:1-arpg-45.wav
128,192,75052,1,0,0:0:0:100:1-arpg-46.wav
64,192,75165,1,0,0:0:0:100:1-arpg-47.wav
320,192,75279,1,0,0:0:0:100:1-arpg-45.wav
128,192,75393,1,0,0:0:0:100:1-arpg-46.wav
64,192,75506,1,0,0:0:0:100:1-arpg-47.wav
320,192,75620,1,0,0:0:0:100:1-arpg-45.wav
128,192,75733,1,0,0:0:0:100:1-arpg-46.wav
64,192,75847,1,0,0:0:0:100:1-arpg-47.wav
320,192,75961,1,0,0:0:0:100:1-arpg-45.wav
128,192,76074,1,0,0:0:0:100:1-arpg-46.wav
64,192,76188,1,0,0:0:0:100:1-arpg-47.wav
320,192,76302,1,0,0:0:0:100:1-arpg-45.wav
128,192,76415,1,0,0:0:0:100:1-arpg-46.wav
64,192,76529,1,0,0:0:0:100:1-arpg-47.wav
320,192,76643,1,0,0:0:0:100:1-arpg-45.wav
192,192,77665,128,0,78574:0:0:0:70:1-arpg-1.wav
448,192,78574,1,0,0:0:0:70:1-lead2-1.wav
64,192,78574,1,0,0:0:0:70:1-kick-1.wav
448,192,78802,1,0,0:0:0:70:1-lead2-2.wav
128,192,78802,1,0,0:0:0:70:1-hat2-2.wav
448,192,78915,1,0,0:0:0:70:1-lead2-3.wav
320,192,79029,1,0,0:0:0:70:1-lead2-4.wav
64,192,79029,1,0,0:0:0:70:1-kick-1.wav
192,192,79029,1,0,0:0:0:70:1-snare-1.wav
320,192,79256,1,0,0:0:0:70:1-lead2-5.wav
128,192,79256,1,0,0:0:0:70:1-hat2-2.wav
320,192,79370,1,0,0:0:0:70:1-lead2-6.wav
213,192,79483,1,0,0:0:0:70:1-lead2-7.wav
448,192,79483,1,0,0:0:0:70:1-kick-1.wav
384,192,79711,1,0,0:0:0:70:1-hat2-2.wav
213,192,79711,1,0,0:0:0:70:1-lead2-8.wav
213,192,79824,1,0,0:0:0:70:1-lead2-9.wav
448,192,79938,1,0,0:0:0:70:1-kick-1.wav
320,192,79938,1,0,0:0:0:70:1-snare-1.wav
64,192,79938,1,0,0:0:0:70:1-lead2-10.wav
64,192,80165,1,0,0:0:0:70:1-lead2-11.wav
384,192,80165,1,0,0:0:0:70:1-hat2-2.wav
64,192,80279,1,0,0:0:0:70:1-lead2-12.wav
448,192,80393,1,0,0:0:0:70:1-lead2-1.wav
192,192,80393,1,0,0:0:0:70:1-kick-1.wav
448,192,80620,1,0,0:0:0:70:1-lead2-2.wav
128,192,80620,1,0,0:0:0:70:1-hat2-2.wav
448,192,80733,1,0,0:0:0:70:1-lead2-3.wav
384,192,80847,1,0,0:0:0:70:1-lead2-4.wav
64,192,80847,1,0,0:0:0:70:1-snare-1.wav
192,192,80847,1,0,0:0:0:70:1-kick-1.wav
384,192,81074,1,0,0:0:0:70:1-lead2-5.wav
128,192,81074,1,0,0:0:0:70:1-hat2-2.wav
384,192,81188,1,0,0:0:0:70:1-lead2-6.wav
213,192,81302,1,0,0:0:0:70:1-lead2-13.wav
448,192,81302,1,0,0:0:0:70:1-kick-1.wav
384,192,81529,1,0,0:0:0:70:1-hat2-2.wav
213,192,81529,1,0,0:0:0:70:1-lead2-14.wav
213,192,81643,1,0,0:0:0:70:1-lead2-15.wav
298,192,81756,1,0,0:0:0:70:1-lead2-16.wav
469,192,81756,1,0,0:0:0:70:1-snare-1.wav
42,192,81756,1,0,0:0:0:70:1-kick-1.wav
298,192,81983,1,0,0:0:0:70:1-lead2-17.wav
128,192,81983,1,0,0:0:0:70:1-hat2-2.wav
298,192,82097,1,0,0:0:0:70:1-lead2-18.wav
384,192,82211,1,0,0:0:0:70:1-lead2-19.wav
42,192,82211,1,0,0:0:0:70:1-kick-1.wav
384,192,82438,1,0,0:0:0:70:1-lead2-20.wav
128,192,82438,1,0,0:0:0:70:1-hat2-2.wav
384,192,82552,1,0,0:0:0:70:1-lead2-21.wav
42,192,82665,1,0,0:0:0:70:1-kick-1.wav
213,192,82665,1,0,0:0:0:70:1-snare-1.wav
298,192,82665,1,0,0:0:0:70:1-lead2-22.wav
298,192,82893,1,0,0:0:0:70:1-lead2-23.wav
128,192,82893,1,0,0:0:0:70:1-hat2-2.wav
298,192,83006,1,0,0:0:0:70:1-lead2-24.wav
213,192,83120,1,0,0:0:0:70:1-lead2-25.wav
469,192,83120,1,0,0:0:0:70:1-kick-1.wav
384,192,83347,1,0,0:0:0:70:1-hat2-2.wav
213,192,83347,1,0,0:0:0:70:1-lead2-26.wav
213,192,83461,1,0,0:0:0:70:1-lead2-27.wav
298,192,83574,1,0,0:0:0:70:1-snare-1.wav
128,192,83574,1,0,0:0:0:70:1-lead2-28.wav
448,192,83574,1,0,0:0:0:70:1-kick-1.wav
128,192,83802,1,0,0:0:0:70:1-lead2-29.wav
384,192,83802,1,0,0:0:0:70:1-hat2-2.wav
128,192,83915,1,0,0:0:0:70:1-lead2-30.wav
64,192,84029,1,0,0:0:0:70:1-kick-1.wav
448,192,84029,1,0,0:0:0:70:1-lead2-31.wav
448,192,84256,1,0,0:0:0:70:1-lead2-32.wav
128,192,84256,1,0,0:0:0:70:1-hat2-2.wav
448,192,84370,1,0,0:0:0:70:1-lead2-33.wav
192,192,84483,1,0,0:0:0:70:1-snare-1.wav
384,192,84483,1,0,0:0:0:70:1-lead2-34.wav
64,192,84483,1,0,0:0:0:70:1-kick-1.wav
384,192,84711,1,0,0:0:0:70:1-lead2-35.wav
128,192,84711,1,0,0:0:0:70:1-hat2-2.wav
384,192,84824,1,0,0:0:0:70:1-lead2-36.wav
298,192,84938,1,0,0:0:0:70:1-lead2-37.wav
42,192,84938,1,0,0:0:0:70:1-kick-1.wav
128,192,84938,1,0,0:0:0:70:1-hat2-3.wav
298,192,85165,1,0,0:0:0:70:1-lead2-38.wav
128,192,85165,1,0,0:0:0:70:1-hat2-2.wav
298,192,85279,1,0,0:0:0:70:1-lead2-39.wav
384,192,85393,1,0,0:0:0:70:1-snare-1.wav
213,192,85393,1,0,0:0:0:70:1-lead2-40.wav
448,192,85393,1,0,0:0:0:70:1-kick-1.wav
298,192,85620,1,0,0:0:0:70:1-hat2-2.wav
213,192,85620,1,0,0:0:0:70:1-lead2-41.wav
213,192,85733,1,0,0:0:0:70:1-lead2-42.wav
384,192,85847,1,0,0:0:0:70:1-lead2-1.wav
42,192,85847,1,0,0:0:0:70:1-kick-1.wav
128,192,86074,1,0,0:0:0:70:1-hat2-2.wav
384,192,86074,1,0,0:0:0:70:1-lead2-2.wav
384,192,86188,1,0,0:0:0:70:1-lead2-3.wav
320,192,86302,1,0,0:0:0:70:1-lead2-4.wav
213,192,86302,1,0,0:0:0:70:1-snare-1.wav
42,192,86302,1,0,0:0:0:70:1-kick-1.wav
320,192,86529,1,0,0:0:0:70:1-lead2-5.wav
128,192,86529,1,0,0:0:0:70:1-hat2-2.wav
320,192,86643,1,0,0:0:0:70:1-lead2-6.wav
448,192,86756,1,0,0:0:0:70:1-kick-1.wav
213,192,86756,1,0,0:0:0:70:1-lead2-7.wav
384,192,86983,1,0,0:0:0:70:1-hat2-2.wav
213,192,86983,1,0,0:0:0:70:1-lead2-8.wav
213,192,87097,1,0,0:0:0:70:1-lead2-9.wav
469,192,87211,1,0,0:0:0:70:1-snare-1.wav
42,192,87211,1,0,0:0:0:70:1-kick-1.wav
298,192,87211,1,0,0:0:0:70:1-lead2-52.wav
298,192,87438,1,0,0:0:0:70:1-lead2-53.wav
128,192,87438,1,0,0:0:0:70:1-hat2-2.wav
298,192,87552,1,0,0:0:0:70:1-lead2-54.wav
384,192,87665,1,0,0:0:0:70:1-lead2-55.wav
64,192,87665,1,0,0:0:0:70:1-kick-1.wav
128,192,87893,1,0,0:0:0:70:1-hat2-2.wav
384,192,87893,1,0,0:0:0:70:1-lead2-56.wav
384,192,88006,1,0,0:0:0:70:1-lead2-57.wav
448,192,88120,1,0,0:0:0:70:1-snare-1.wav
192,192,88120,1,0,0:0:0:70:1-lead2-58.wav
64,192,88120,1,0,0:0:0:70:1-kick-1.wav
192,192,88347,1,0,0:0:0:70:1-lead2-59.wav
298,192,88347,1,0,0:0:0:70:1-hat2-2.wav
192,192,88461,1,0,0:0:0:70:1-lead2-60.wav
448,192,88574,1,0,0:0:0:70:1-lead2-61.wav
64,192,88574,1,0,0:0:0:70:1-kick-1.wav
128,192,88574,1,0,0:0:0:70:1-hat2-3.wav
448,192,88802,1,0,0:0:0:70:1-lead2-62.wav
128,192,88802,1,0,0:0:0:70:1-hat2-2.wav
448,192,88915,1,0,0:0:0:70:1-lead2-63.wav
192,192,89029,1,0,0:0:0:70:1-snare-1.wav
384,192,89029,1,0,0:0:0:70:1-lead2-64.wav
64,192,89029,1,0,0:0:0:70:1-kick-1.wav
384,192,89256,1,0,0:0:0:70:1-lead2-65.wav
128,192,89256,1,0,0:0:0:70:1-hat2-2.wav
384,192,89370,1,0,0:0:0:70:1-lead2-66.wav
298,192,89483,1,0,0:0:0:70:1-lead2-1.wav
64,192,89483,1,0,0:0:0:70:1-kick-1.wav
298,192,89711,1,0,0:0:0:70:1-lead2-2.wav
128,192,89711,1,0,0:0:0:70:1-hat2-2.wav
298,192,89824,1,0,0:0:0:70:1-lead2-3.wav
213,192,89938,1,0,0:0:0:70:1-lead2-4.wav
469,192,89938,1,0,0:0:0:70:1-kick-1.wav
298,192,89938,1,0,0:0:0:70:1-snare-1.wav
213,192,90165,1,0,0:0:0:70:1-lead2-5.wav
384,192,90165,1,0,0:0:0:70:1-hat2-2.wav
213,192,90279,1,0,0:0:0:70:1-lead2-6.wav
448,192,90393,1,0,0:0:0:70:1-kick-1.wav
128,192,90393,1,0,0:0:0:70:1-lead2-7.wav
128,192,90620,1,0,0:0:0:70:1-lead2-8.wav
384,192,90620,1,0,0:0:0:70:1-hat2-2.wav
128,192,90733,1,0,0:0:0:70:1-lead2-9.wav
320,192,90847,1,0,0:0:0:70:1-snare-1.wav
64,192,90847,1,0,0:0:0:70:1-lead2-10.wav
448,192,90847,1,0,0:0:0:70:1-kick-1.wav
64,192,91074,1,0,0:0:0:70:1-lead2-11.wav
384,192,91074,1,0,0:0:0:70:1-hat2-2.wav
64,192,91188,1,0,0:0:0:70:1-lead2-11.wav
448,192,91302,1,0,0:0:0:70:1-lead2-31.wav
192,192,91302,1,0,0:0:0:70:1-kick-1.wav
128,192,91529,1,0,0:0:0:70:1-hat2-2.wav
448,192,91529,1,0,0:0:0:70:1-lead2-32.wav
64,192,91529,1,0,0:0:0:70:1-snare-1.wav
448,192,91643,1,0,0:0:0:70:1-lead2-33.wav
384,192,91756,1,0,0:0:0:70:1-lead2-34.wav
192,192,91756,1,0,0:0:0:70:1-kick-1.wav
64,192,91870,1,0,0:0:0:70:1-snare-1.wav
384,192,91983,1,0,0:0:0:70:1-lead2-35.wav
128,192,91983,1,0,0:0:0:70:1-hat2-2.wav
384,192,92097,1,0,0:0:0:70:1-lead2-36.wav
298,192,92211,1,0,0:0:0:70:1-lead2-37.wav
213,192,92211,1,0,0:0:0:70:1-kick-1.wav
64,192,92211,1,0,0:0:0:70:1-snare-1.wav
128,192,92211,1,0,0:0:0:70:1-hat2-4.wav
298,192,92438,1,0,0:0:0:70:1-lead2-38.wav
42,192,92438,1,0,0:0:0:70:1-snare-1.wav
128,192,92438,1,0,0:0:0:70:1-hat2-2.wav
298,192,92552,1,0,0:0:0:70:1-lead2-39.wav
213,192,92665,1,0,0:0:0:70:1-lead2-40.wav
469,192,92665,1,0,0:0:0:70:1-kick-1.wav
384,192,92665,1,0,0:0:0:70:1-snare-1.wav
128,192,92665,1,0,0:0:0:70:1-hat2-4.wav
213,192,92893,1,0,0:0:0:70:1-lead2-41.wav
384,192,92893,1,0,0:0:0:70:1-snare-1.wav
128,192,92893,1,0,0:0:0:70:1-hat2-2.wav
213,192,93006,1,0,0:0:0:70:1-lead2-42.wav
448,192,93120,1,0,0:0:0:100:1-lead4-1.wav
128,192,93233,1,0,0:0:0:100:1-lead4-2.wav
384,192,93347,1,0,0:0:0:100:1-lead4-3.wav
213,192,93461,1,0,0:0:0:100:1-lead4-4.wav
469,192,93574,1,0,0:0:0:100:1-lead4-5.wav
128,192,93688,1,0,0:0:0:100:1-lead4-2.wav
320,192,93802,1,0,0:0:0:100:1-lead4-7.wav
42,192,93915,1,0,0:0:0:100:1-lead4-12.wav
448,192,94029,1,0,0:0:0:100:1-lead4-9.wav
213,192,94143,1,0,0:0:0:100:1-lead4-10.wav
384,192,94256,1,0,0:0:0:100:1-lead4-14.wav
128,192,94370,1,0,0:0:0:100:1-lead4-12.wav
298,192,94483,1,0,0:0:0:100:1-lead4-13.wav
64,192,94597,1,0,0:0:0:100:1-lead4-14.wav
384,192,94711,1,0,0:0:0:100:1-lead4-15.wav
128,192,94824,1,0,0:0:0:100:1-lead4-16.wav
298,192,94938,1,0,0:0:0:100:1-lead4-17.wav
42,192,95052,1,0,0:0:0:100:1-lead4-18.wav
213,192,95165,1,0,0:0:0:100:1-lead4-19.wav
469,192,95279,1,0,0:0:0:100:1-lead4-20.wav
384,192,95393,1,0,0:0:0:100:1-lead4-21.wav
128,192,95506,1,0,0:0:0:100:1-lead4-22.wav
298,192,95620,1,0,0:0:0:100:1-lead4-23.wav
128,192,95733,1,0,0:0:0:100:1-lead4-24.wav
384,192,95847,1,0,0:0:0:100:1-lead4-25.wav
42,192,95961,1,0,0:0:0:100:1-lead4-26.wav
298,192,96074,1,0,0:0:0:100:1-lead4-27.wav
128,192,96188,1,0,0:0:0:100:1-lead4-28.wav
384,192,96302,1,0,0:0:0:100:1-lead4-29.wav
213,192,96415,1,0,0:0:0:100:1-lead4-30.wav
384,192,96529,1,0,0:0:0:100:1-lead4-31.wav
213,192,96643,1,0,0:0:0:100:1-lead4-32.wav
42,192,96756,1,0,0:0:0:100:1-lead4-33.wav
384,192,96870,1,0,0:0:0:100:1-lead4-34.wav
213,192,96983,1,0,0:0:0:100:1-lead4-35.wav
469,192,97097,1,0,0:0:0:100:1-lead4-36.wav
128,192,97211,1,0,0:0:0:100:1-lead4-37.wav
469,192,97324,1,0,0:0:0:100:1-lead4-38.wav
213,192,97438,1,0,0:0:0:100:1-lead4-39.wav
384,192,97552,1,0,0:0:0:100:1-lead4-40.wav
128,192,97665,1,0,0:0:0:100:1-lead4-41.wav
298,192,97779,1,0,0:0:0:100:1-lead4-42.wav
42,192,97893,1,0,0:0:0:100:1-lead4-43.wav
384,192,98006,1,0,0:0:0:100:1-lead4-44.wav
128,192,98120,1,0,0:0:0:100:1-lead4-45.wav
298,192,98233,1,0,0:0:0:100:1-lead4-46.wav
42,192,98347,1,0,0:0:0:100:1-lead4-47.wav
298,192,98461,1,0,0:0:0:100:1-lead4-48.wav
128,192,98574,1,0,0:0:0:100:1-lead4-49.wav
384,192,98688,1,0,0:0:0:100:1-lead4-50.wav
192,192,98802,1,0,0:0:0:100:1-lead4-51.wav
469,192,98915,1,0,0:0:0:100:1-lead4-52.wav
192,192,99029,1,0,0:0:0:100:1-lead4-53.wav
384,192,99143,1,0,0:0:0:100:1-lead4-54.wav
128,192,99256,5,0,0:0:0:100:1-lead4-55.wav
64,192,99370,1,0,0:0:0:100:1-lead4-56.wav
384,192,99483,1,0,0:0:0:100:1-lead4-57.wav
213,192,99597,1,0,0:0:0:100:1-lead4-58.wav
384,192,99711,1,0,0:0:0:100:1-lead4-59.wav
213,192,99824,1,0,0:0:0:100:1-lead4-60.wav
64,192,99938,1,0,0:0:0:100:1-lead4-61.wav
192,192,100052,1,0,0:0:0:100:1-lead4-62.wav
320,192,100165,1,0,0:0:0:100:1-lead4-63.wav
192,192,100279,1,0,0:0:0:100:1-lead4-64.wav
64,192,100393,5,0,0:0:0:70:1-kick-5.wav
128,192,100393,1,0,0:0:0:70:1-snare-2.wav
298,192,100393,1,0,0:0:0:70:1-hat2-2.wav
469,192,100393,1,0,0:0:0:70:1-lead2-67.wav
384,192,100393,1,0,0:0:0:70:1-arpg-48.wav
469,192,101074,5,0,0:0:0:70:1-kick-5.wav
42,192,101074,1,0,0:0:0:70:1-lead2-67.wav
128,192,101074,1,0,0:0:0:70:1-arpg-48.wav
384,192,101074,1,0,0:0:0:70:1-snare-2.wav
213,192,101074,1,0,0:0:0:70:1-hat2-2.wav
64,192,101756,5,0,0:0:0:70:1-kick-5.wav
298,192,101756,1,0,0:0:0:70:1-hat2-2.wav
128,192,101756,1,0,0:0:0:70:1-snare-2.wav
469,192,101756,1,0,0:0:0:70:1-lead2-67.wav
384,192,101756,1,0,0:0:0:70:1-arpg-48.wav
213,192,102438,1,0,0:0:0:70:1-hat2-2.wav
128,192,102438,1,0,0:0:0:70:1-snare-2.wav
64,192,102438,1,0,0:0:0:70:1-kick-5.wav
469,192,102438,1,0,0:0:0:70:1-lead2-68.wav
298,192,102438,1,0,0:0:0:70:1-arpg-49.wav
42,192,103120,1,0,0:0:0:70:1-hat2-2.wav
128,192,103120,1,0,0:0:0:70:1-kick-5.wav
384,192,103120,1,0,0:0:0:70:1-snare-2.wav
320,192,103120,1,0,0:0:0:70:1-lead2-69.wav
192,192,103120,1,0,0:0:0:70:1-arpg-50.wav
384,192,103574,1,0,0:0:0:70:1-snare-2.wav
128,192,103574,1,0,0:0:0:70:1-kick-5.wav
320,192,103574,1,0,0:0:0:70:1-lead2-70.wav
192,192,103574,1,0,0:0:0:70:1-arpg-49.wav
42,192,103574,1,0,0:0:0:70:1-hat2-2.wav
213,192,104029,1,0,0:0:0:70:1-snare-2.wav
64,192,104029,1,0,0:0:0:70:1-kick-5.wav
384,192,104029,128,0,105847:0:0:0:70:1-lead2-71.wav
298,192,104029,128,0,105847:0:0:0:70:1-arpg-51.wav
448,192,104029,128,0,105847:0:0:0:70:1-fx4-1.wav
128,192,104029,1,0,0:0:0:70:1-hat2-2.wav
128,192,105847,1,0,0:0:0:70:1-fx3-37.wav
