osu file format v14

[General]
AudioFilename: Luv flow remix.mp3
AudioLeadIn: 0
PreviewTime: 18107
Countdown: 0
SampleSet: Soft
StackLeniency: 0.7
Mode: 3
LetterboxInBreaks: 0
SpecialStyle: 0
WidescreenStoryboard: 0

[Editor]
DistanceSpacing: 1.35
BeatDivisor: 4
GridSize: 8
TimelineZoom: 0.6

[Metadata]
Title:Luv Flow (Funky House Mix)
TitleUnicode:Luv Flow (Funky House Mix)
Artist:Paul Bazooka
ArtistUnicode:Paul Bazooka
Creator:shionelove
Version:Another
Source:DJMAX TECHNIKA 2
Tags:MOSES JC So Fly yoshilove
BeatmapID:1378917
BeatmapSetID:650754

[Difficulty]
HPDrainRate:8.5
CircleSize:7
OverallDifficulty:9
ApproachRate:5
SliderMultiplier:1.4
SliderTickRate:1

[Events]
//Background and Video events
Video,0,"Luv Flow(Funky House Mix).avi"
0,0,"vector-dance-girls.jpg",0,0
//Break Periods
//Storyboard Layer 0 (Background)
//Storyboard Layer 1 (Fail)
//Storyboard Layer 2 (Pass)
//Storyboard Layer 3 (Foreground)
//Storyboard Sound Samples

[TimingPoints]
2989,472.44094488189,4,2,69,30,1,0

[HitObjects]
36,192,2988,5,2,0:0:0:20:
182,192,2988,1,0,0:0:0:20:
475,192,3225,1,0,0:0:0:40:
109,192,3933,1,0,0:0:0:40:
402,192,4170,1,0,0:0:0:40:
36,192,4878,1,0,0:0:0:40:
329,192,5114,1,0,0:0:0:40:
36,192,5823,1,0,0:0:0:40:
329,192,6059,1,0,0:0:0:40:
182,192,6768,1,0,0:0:0:40:
475,192,7004,1,0,0:0:0:40:
109,192,7713,1,0,0:0:0:40:
402,192,7949,1,0,0:0:0:40:
36,192,8658,1,0,0:0:0:40:
329,192,8894,1,0,0:0:0:40:
36,192,10548,1,2,0:0:0:20:
256,192,10548,1,0,0:0:0:20:
109,192,10784,1,8,0:0:0:13:
329,192,10784,1,0,0:0:0:13:
475,192,10784,1,0,0:0:0:13:
36,192,11020,1,2,0:0:0:20:
182,192,11020,1,0,0:0:0:20:
475,192,11138,1,0,0:0:0:20:
329,192,11138,1,0,0:0:0:20:
109,192,11256,1,8,0:0:0:40:
182,192,11374,1,8,0:0:0:40:
256,192,11492,1,0,0:0:0:13:
402,192,11492,1,0,0:0:0:13:
36,192,11492,1,2,0:0:0:13:
182,192,11729,1,8,0:0:0:40:
402,192,11847,1,0,0:0:0:20:
256,192,11847,1,0,0:0:0:20:
36,192,11965,1,2,0:0:0:20:
109,192,11965,1,0,0:0:0:20:
256,192,12201,1,0,0:0:0:13:
402,192,12201,1,0,0:0:0:13:
182,192,12201,1,8,0:0:0:13:
109,192,12319,1,8,0:0:0:40:
36,192,12437,1,2,0:0:0:40:
256,192,12674,1,0,0:0:0:13:
475,192,12674,1,0,0:0:0:13:
109,192,12674,1,8,0:0:0:13:
36,192,12910,1,2,0:0:0:20:
182,192,12910,1,0,0:0:0:20:
475,192,13028,1,0,0:0:0:20:
256,192,13028,1,0,0:0:0:20:
329,192,13146,1,8,0:0:0:40:
109,192,13264,1,8,0:0:0:40:
256,192,13382,1,0,0:0:0:13:
475,192,13382,1,0,0:0:0:13:
36,192,13382,1,2,0:0:0:13:
182,192,13618,1,8,0:0:0:40:
475,192,13737,1,0,0:0:0:20:
256,192,13737,1,0,0:0:0:20:
109,192,13855,1,0,0:0:0:20:
36,192,13855,1,2,0:0:0:20:
256,192,14091,1,0,0:0:0:13:
475,192,14091,1,0,0:0:0:13:
182,192,14091,1,8,0:0:0:13:
402,192,14209,1,8,0:0:0:40:
36,192,14327,1,2,0:0:0:40:
109,192,14563,1,8,0:0:0:13:
329,192,14563,1,0,0:0:0:13:
475,192,14563,1,0,0:0:0:13:
36,192,14800,1,2,0:0:0:20:
182,192,14800,1,0,0:0:0:20:
329,192,14918,1,0,0:0:0:20:
475,192,14918,1,0,0:0:0:20:
109,192,15036,1,8,0:0:0:40:
182,192,15154,1,8,0:0:0:40:
36,192,15272,1,2,0:0:0:13:
256,192,15272,1,0,0:0:0:13:
402,192,15272,1,0,0:0:0:13:
182,192,15508,1,8,0:0:0:40:
256,192,15626,1,0,0:0:0:20:
402,192,15626,1,0,0:0:0:20:
36,192,15744,1,2,0:0:0:20:
109,192,15744,1,0,0:0:0:20:
256,192,15981,1,0,0:0:0:20:
402,192,15981,1,0,0:0:0:20:
329,192,16217,1,0,0:0:0:13:
182,192,16217,1,8,0:0:0:13:
36,192,16217,1,2,0:0:0:13:
36,192,16453,1,2,0:0:0:20:
182,192,16453,1,8,0:0:0:20:
109,192,16689,1,2,0:0:0:13:
256,192,16689,1,8,0:0:0:13:
402,192,16689,1,0,0:0:0:13:
109,192,16926,1,2,0:0:0:20:
256,192,16926,1,8,0:0:0:20:
475,192,17162,1,0,0:0:0:13:
329,192,17162,1,8,0:0:0:13:
182,192,17162,1,2,0:0:0:13:
182,192,17398,1,2,0:0:0:20:
329,192,17398,1,8,0:0:0:20:
256,192,17634,1,0,0:0:0:13:
109,192,17634,1,2,0:0:0:13:
402,192,17634,1,8,0:0:0:13:
36,192,18107,1,2,0:0:0:20:
256,192,18107,1,0,0:0:0:20:
329,192,18343,1,0,0:0:0:13:
109,192,18343,1,8,0:0:0:13:
475,192,18343,1,0,0:0:0:13:
182,192,18579,1,0,0:0:0:20:
36,192,18579,1,2,0:0:0:20:
475,192,18697,1,0,0:0:0:20:
329,192,18697,1,0,0:0:0:20:
109,192,18815,1,8,0:0:0:40:
182,192,18933,1,8,0:0:0:40:
402,192,19051,1,0,0:0:0:13:
36,192,19051,1,2,0:0:0:13:
256,192,19051,1,0,0:0:0:13:
182,192,19288,1,8,0:0:0:40:
402,192,19406,1,0,0:0:0:20:
256,192,19406,1,0,0:0:0:20:
109,192,19524,1,0,0:0:0:20:
36,192,19524,1,2,0:0:0:20:
256,192,19760,1,0,0:0:0:13:
402,192,19760,1,0,0:0:0:13:
182,192,19760,1,8,0:0:0:13:
109,192,19878,1,8,0:0:0:40:
36,192,19996,1,2,0:0:0:40:
109,192,20233,1,8,0:0:0:13:
475,192,20233,1,0,0:0:0:13:
256,192,20233,1,0,0:0:0:13:
182,192,20469,1,0,0:0:0:20:
36,192,20469,1,2,0:0:0:20:
256,192,20587,1,0,0:0:0:20:
475,192,20587,1,0,0:0:0:20:
329,192,20705,1,8,0:0:0:40:
109,192,20823,1,8,0:0:0:40:
256,192,20941,1,0,0:0:0:13:
475,192,20941,1,0,0:0:0:13:
36,192,20941,1,2,0:0:0:13:
182,192,21177,1,8,0:0:0:40:
475,192,21296,1,0,0:0:0:20:
256,192,21296,1,0,0:0:0:20:
109,192,21414,1,0,0:0:0:20:
36,192,21414,1,2,0:0:0:20:
182,192,21650,1,8,0:0:0:13:
256,192,21650,1,0,0:0:0:13:
475,192,21650,1,0,0:0:0:13:
402,192,21768,1,8,0:0:0:40:
36,192,21886,1,0,0:0:0:40:
329,192,22122,1,0,0:0:0:13:
109,192,22122,1,8,0:0:0:13:
475,192,22122,1,0,0:0:0:13:
182,192,22359,1,0,0:0:0:20:
36,192,22359,1,2,0:0:0:20:
475,192,22477,1,0,0:0:0:20:
329,192,22477,1,0,0:0:0:20:
109,192,22595,1,8,0:0:0:40:
182,192,22713,1,8,0:0:0:40:
402,192,22831,1,0,0:0:0:13:
36,192,22831,1,2,0:0:0:13:
256,192,22831,1,0,0:0:0:13:
182,192,23067,1,8,0:0:0:40:
402,192,23185,1,0,0:0:0:20:
256,192,23185,1,0,0:0:0:20:
109,192,23303,1,0,0:0:0:20:
36,192,23303,1,2,0:0:0:20:
256,192,23540,1,0,0:0:0:13:
402,192,23540,1,0,0:0:0:13:
182,192,23540,1,8,0:0:0:13:
109,192,23658,1,8,0:0:0:40:
36,192,23776,1,2,0:0:0:40:
109,192,24012,1,8,0:0:0:13:
475,192,24012,1,0,0:0:0:13:
256,192,24012,1,0,0:0:0:13:
182,192,24248,1,0,0:0:0:20:
36,192,24248,1,2,0:0:0:20:
256,192,24366,1,0,0:0:0:20:
475,192,24366,1,0,0:0:0:20:
329,192,24485,1,8,0:0:0:40:
109,192,24603,1,8,0:0:0:40:
256,192,24721,1,0,0:0:0:13:
475,192,24721,1,0,0:0:0:13:
36,192,24721,1,2,0:0:0:13:
182,192,24957,1,8,0:0:0:40:
475,192,25075,1,0,0:0:0:20:
256,192,25075,1,0,0:0:0:20:
109,192,25193,1,0,0:0:0:20:
36,192,25193,1,2,0:0:0:20:
182,192,25429,1,8,0:0:0:13:
256,192,25429,1,0,0:0:0:13:
475,192,25429,1,0,0:0:0:13:
402,192,25548,1,8,0:0:0:40:
36,192,25666,1,2,0:0:0:40:
475,192,25784,1,0,0:0:0:40:
256,192,25902,1,0,0:0:0:13:
402,192,25902,1,0,0:0:0:13:
109,192,25902,1,8,0:0:0:13:
329,192,26138,1,0,0:0:0:20:
36,192,26138,1,2,0:0:0:20:
256,192,26256,1,0,0:0:0:20:
402,192,26256,1,0,0:0:0:20:
475,192,26374,1,0,0:0:0:20:
109,192,26374,1,8,0:0:0:20:
256,192,26492,1,8,0:0:0:40:
182,192,26611,1,0,0:0:0:10:
36,192,26611,1,2,0:0:0:10:
329,192,26611,1,0,0:0:0:10:
402,192,26611,1,0,0:0:0:10:
109,192,26847,1,8,0:0:0:40:
182,192,26965,1,0,0:0:0:13:
329,192,26965,1,0,0:0:0:13:
402,192,26965,1,0,0:0:0:13:
36,192,27083,1,2,0:0:0:40:
109,192,27319,1,8,0:0:0:13:
329,192,27319,1,0,0:0:0:13:
402,192,27319,1,0,0:0:0:13:
256,192,27437,1,8,0:0:0:40:
36,192,27555,1,2,0:0:0:40:
402,192,27674,1,0,0:0:0:40:
182,192,27792,1,8,0:0:0:13:
329,192,27792,1,0,0:0:0:13:
475,192,27792,1,0,0:0:0:13:
256,192,28028,1,0,0:0:0:20:
36,192,28028,1,2,0:0:0:20:
329,192,28146,1,0,0:0:0:20:
475,192,28146,1,0,0:0:0:20:
402,192,28264,1,0,0:0:0:20:
109,192,28264,1,8,0:0:0:20:
256,192,28382,1,8,0:0:0:40:
329,192,28500,1,0,0:0:0:10:
475,192,28500,1,0,0:0:0:10:
182,192,28500,1,0,0:0:0:10:
36,192,28500,1,2,0:0:0:10:
109,192,28737,1,8,0:0:0:40:
182,192,28855,1,0,0:0:0:13:
329,192,28855,1,0,0:0:0:13:
475,192,28855,1,0,0:0:0:13:
36,192,28973,1,2,0:0:0:40:
475,192,29209,1,0,0:0:0:13:
329,192,29209,1,0,0:0:0:13:
182,192,29209,1,8,0:0:0:13:
109,192,29327,1,8,0:0:0:40:
36,192,29445,1,2,0:0:0:40:
256,192,29563,1,0,0:0:0:40:
109,192,29681,1,8,0:0:0:13:
402,192,29681,1,0,0:0:0:13:
475,192,29681,1,0,0:0:0:13:
36,192,29918,1,2,0:0:0:20:
256,192,29918,1,0,0:0:0:20:
475,192,30036,1,0,0:0:0:20:
402,192,30036,1,0,0:0:0:20:
109,192,30154,1,8,0:0:0:20:
256,192,30154,1,0,0:0:0:20:
329,192,30272,1,8,0:0:0:40:
402,192,30390,1,0,0:0:0:13:
36,192,30390,1,2,0:0:0:13:
182,192,30390,1,0,0:0:0:13:
109,192,30626,1,8,0:0:0:40:
402,192,30744,1,0,0:0:0:13:
329,192,30744,1,0,0:0:0:13:
182,192,30744,1,0,0:0:0:13:
36,192,30863,1,2,0:0:0:40:
182,192,30981,1,0,0:0:0:40:
329,192,31099,1,0,0:0:0:13:
402,192,31099,1,0,0:0:0:13:
109,192,31099,1,8,0:0:0:13:
256,192,31217,1,8,0:0:0:40:
36,192,31335,1,0,0:0:0:10:
182,192,31335,1,8,0:0:0:10:
475,192,31335,1,2,0:0:0:10:
329,192,31335,1,0,0:0:0:10:
475,192,31571,1,2,0:0:0:13:
256,192,31571,1,0,0:0:0:13:
109,192,31571,1,0,0:0:0:13:
475,192,31807,1,2,0:0:0:10:
36,192,31807,1,0,0:0:0:10:
182,192,31807,1,8,0:0:0:10:
329,192,31807,1,0,0:0:0:10:
475,192,32044,1,2,0:0:0:13:
256,192,32044,1,0,0:0:0:13:
109,192,32044,1,0,0:0:0:13:
475,192,32280,1,2,0:0:0:10:
329,192,32280,1,8,0:0:0:10:
182,192,32280,1,0,0:0:0:10:
36,192,32280,1,0,0:0:0:10:
475,192,32516,1,2,0:0:0:10:
329,192,32516,1,8,0:0:0:10:
182,192,32516,1,0,0:0:0:10:
36,192,32516,1,0,0:0:0:10:
36,192,32752,1,0,0:0:0:10:
182,192,32752,1,0,0:0:0:10:
329,192,32752,1,8,0:0:0:10:
475,192,32752,1,2,0:0:0:10:
36,192,32989,1,0,0:0:0:10:
182,192,32989,1,0,0:0:0:10:
329,192,32989,1,8,0:0:0:10:
475,192,32989,1,2,0:0:0:10:
36,192,33225,1,2,0:0:0:10:
475,192,33225,1,0,0:0:0:10:
109,192,33225,1,0,0:0:0:10:
402,192,33225,1,0,0:0:0:10:
256,192,33461,1,8,0:0:0:40:
475,192,33579,1,0,0:0:0:40:
182,192,33697,1,2,0:0:0:20:
329,192,33697,1,0,0:0:0:20:
256,192,33933,1,8,0:0:0:20:
402,192,33933,1,0,0:0:0:20:
109,192,34051,1,8,0:0:0:40:
36,192,34170,1,2,0:0:0:40:
256,192,34406,1,8,0:0:0:40:
182,192,34642,1,2,0:0:0:20:
329,192,34642,1,0,0:0:0:20:
256,192,34878,1,8,0:0:0:40:
109,192,34996,1,8,0:0:0:40:
36,192,35114,1,2,0:0:0:20:
329,192,35114,1,0,0:0:0:20:
182,192,35351,1,8,0:0:0:40:
475,192,35469,1,0,0:0:0:40:
109,192,35587,1,2,0:0:0:20:
256,192,35587,1,0,0:0:0:20:
182,192,35823,1,8,0:0:0:20:
402,192,35823,1,0,0:0:0:20:
329,192,35941,1,8,0:0:0:40:
36,192,36059,1,2,0:0:0:40:
182,192,36296,1,8,0:0:0:40:
109,192,36532,1,2,0:0:0:20:
256,192,36532,1,0,0:0:0:20:
182,192,36768,1,8,0:0:0:40:
329,192,36886,1,8,0:0:0:40:
36,192,37004,1,2,0:0:0:20:
475,192,37004,1,0,0:0:0:20:
256,192,37240,1,8,0:0:0:40:
475,192,37359,1,0,0:0:0:40:
329,192,37477,1,0,0:0:0:20:
182,192,37477,1,2,0:0:0:20:
256,192,37713,1,8,0:0:0:20:
402,192,37713,1,0,0:0:0:20:
109,192,37831,1,8,0:0:0:40:
36,192,37949,1,2,0:0:0:40:
256,192,38185,1,8,0:0:0:40:
329,192,38422,1,0,0:0:0:20:
182,192,38422,1,2,0:0:0:20:
256,192,38658,1,8,0:0:0:40:
109,192,38776,1,8,0:0:0:40:
329,192,38894,1,0,0:0:0:20:
36,192,38894,1,2,0:0:0:20:
182,192,39130,1,8,0:0:0:40:
475,192,39248,1,0,0:0:0:40:
256,192,39366,1,0,0:0:0:20:
109,192,39366,1,2,0:0:0:20:
402,192,39603,1,0,0:0:0:20:
182,192,39603,1,8,0:0:0:20:
329,192,39721,1,8,0:0:0:40:
36,192,39839,1,2,0:0:0:40:
182,192,40075,1,8,0:0:0:40:
256,192,40311,1,0,0:0:0:20:
109,192,40311,1,2,0:0:0:20:
182,192,40548,1,8,0:0:0:40:
329,192,40666,1,8,0:0:0:40:
36,192,40784,1,2,0:0:0:13:
256,192,40784,1,0,0:0:0:13:
475,192,40784,1,0,0:0:0:13:
109,192,41020,1,8,0:0:0:40:
402,192,41138,1,0,0:0:0:40:
36,192,41256,1,2,0:0:0:20:
182,192,41256,1,0,0:0:0:20:
256,192,41492,1,8,0:0:0:20:
329,192,41492,1,0,0:0:0:20:
109,192,41611,1,8,0:0:0:40:
36,192,41729,1,2,0:0:0:40:
109,192,41965,1,8,0:0:0:20:
329,192,41965,1,0,0:0:0:20:
475,192,42083,1,0,0:0:0:40:
36,192,42201,1,2,0:0:0:13:
329,192,42201,1,0,0:0:0:13:
182,192,42201,1,0,0:0:0:13:
402,192,42319,1,0,0:0:0:40:
256,192,42437,1,8,0:0:0:40:
182,192,42555,1,8,0:0:0:40:
109,192,42674,1,2,0:0:0:13:
329,192,42674,1,0,0:0:0:13:
475,192,42674,1,0,0:0:0:13:
182,192,42910,1,8,0:0:0:40:
402,192,43028,1,0,0:0:0:40:
109,192,43146,1,2,0:0:0:20:
256,192,43146,1,0,0:0:0:20:
182,192,43382,1,8,0:0:0:20:
329,192,43382,1,0,0:0:0:20:
36,192,43500,1,8,0:0:0:40:
109,192,43618,1,2,0:0:0:40:
182,192,43855,1,8,0:0:0:20:
402,192,43855,1,0,0:0:0:20:
475,192,43973,1,0,0:0:0:40:
109,192,44091,1,2,0:0:0:13:
329,192,44091,1,0,0:0:0:13:
256,192,44091,1,0,0:0:0:13:
402,192,44209,1,0,0:0:0:40:
182,192,44327,1,8,0:0:0:40:
36,192,44445,1,8,0:0:0:40:
256,192,44563,1,0,0:0:0:13:
475,192,44563,1,0,0:0:0:13:
109,192,44563,1,2,0:0:0:13:
182,192,44918,1,0,0:0:0:20:
402,192,44918,1,0,0:0:0:20:
109,192,45272,1,0,0:0:0:20:
329,192,45272,1,0,0:0:0:20:
256,192,45744,1,0,0:0:0:40:
402,192,45863,1,0,0:0:0:40:
256,192,45981,1,0,0:0:0:40:
329,192,46099,1,0,0:0:0:40:
36,192,46217,1,0,0:0:0:40:
109,192,46453,1,0,0:0:0:20:
256,192,46453,1,0,0:0:0:20:
182,192,46689,1,0,0:0:0:20:
329,192,46689,1,0,0:0:0:20:
36,192,46807,1,0,0:0:0:40:
256,192,46926,1,0,0:0:0:40:
329,192,47162,1,0,0:0:0:20:
475,192,47162,1,0,0:0:0:20:
36,192,47398,1,0,0:0:0:40:
182,192,47634,1,0,0:0:0:20:
329,192,47634,1,0,0:0:0:20:
109,192,47870,1,0,0:0:0:13:
256,192,47870,1,2,0:0:0:13:
402,192,47870,1,0,0:0:0:13:
182,192,48107,1,0,0:0:0:40:
329,192,48225,1,0,0:0:0:40:
256,192,48343,1,2,0:0:0:13:
36,192,48343,1,0,0:0:0:13:
475,192,48343,1,0,0:0:0:13:
182,192,48461,1,0,0:0:0:40:
475,192,48579,1,0,0:0:0:40:
182,192,48815,1,0,0:0:0:40:
475,192,48933,1,0,0:0:0:40:
182,192,49051,1,0,0:0:0:40:
109,192,49288,1,0,0:0:0:20:
402,192,49288,1,0,0:0:0:20:
109,192,49642,1,0,0:0:0:20:
402,192,49642,1,0,0:0:0:20:
109,192,49996,1,0,0:0:0:20:
402,192,49996,1,0,0:0:0:20:
36,192,50351,1,0,0:0:0:40:
329,192,50469,1,0,0:0:0:40:
36,192,50705,1,0,0:0:0:40:
329,192,50823,1,0,0:0:0:40:
36,192,50941,1,0,0:0:0:40:
36,192,51177,1,0,0:0:0:20:
329,192,51177,1,0,0:0:0:20:
36,192,51532,1,0,0:0:0:20:
329,192,51532,1,0,0:0:0:20:
182,192,51768,1,0,0:0:0:40:
36,192,51886,1,0,0:0:0:20:
329,192,51886,1,0,0:0:0:20:
256,192,52240,1,0,0:0:0:40:
475,192,52359,1,0,0:0:0:40:
256,192,52595,1,0,0:0:0:40:
475,192,52713,1,0,0:0:0:40:
256,192,52831,1,0,0:0:0:40:
109,192,53067,1,0,0:0:0:20:
402,192,53067,1,0,0:0:0:20:
109,192,53422,1,0,0:0:0:20:
402,192,53422,1,0,0:0:0:20:
256,192,53658,1,0,0:0:0:40:
109,192,53776,1,0,0:0:0:20:
402,192,53776,1,0,0:0:0:20:
256,192,53894,1,0,0:0:0:40:
182,192,54012,1,0,0:0:0:40:
36,192,54130,1,0,0:0:0:40:
329,192,54248,1,0,0:0:0:40:
36,192,54485,1,0,0:0:0:40:
329,192,54603,1,0,0:0:0:40:
36,192,54721,1,0,0:0:0:40:
182,192,54957,1,0,0:0:0:20:
329,192,54957,1,0,0:0:0:20:
182,192,55311,1,0,0:0:0:20:
329,192,55311,1,0,0:0:0:20:
182,192,55666,1,0,0:0:0:20:
329,192,55666,1,0,0:0:0:20:
256,192,55784,1,0,0:0:0:40:
475,192,55902,128,0,62989:0:0:0:20:
36,192,55902,1,0,0:0:0:20:
182,192,56138,1,0,0:0:0:40:
109,192,56374,1,0,0:0:0:40:
256,192,56611,1,0,0:0:0:40:
182,192,56847,1,0,0:0:0:40:
329,192,57083,1,0,0:0:0:40:
256,192,57319,1,0,0:0:0:40:
402,192,57555,1,0,0:0:0:40:
36,192,57792,1,0,0:0:0:40:
182,192,57910,1,0,0:0:0:40:
109,192,58028,1,0,0:0:0:40:
256,192,58146,1,0,0:0:0:40:
182,192,58264,1,0,0:0:0:40:
329,192,58382,1,0,0:0:0:40:
256,192,58500,1,0,0:0:0:40:
402,192,58618,1,0,0:0:0:40:
36,192,58737,1,0,0:0:0:40:
182,192,58855,1,0,0:0:0:40:
109,192,58973,1,0,0:0:0:40:
256,192,59091,1,0,0:0:0:40:
182,192,59209,1,0,0:0:0:40:
329,192,59327,1,0,0:0:0:40:
256,192,59445,1,0,0:0:0:40:
402,192,59563,1,0,0:0:0:40:
36,192,59681,1,0,0:0:0:40:
182,192,59800,1,0,0:0:0:40:
109,192,59918,1,0,0:0:0:40:
256,192,60036,1,0,0:0:0:40:
36,192,60154,1,0,0:0:0:40:
182,192,60272,1,0,0:0:0:40:
109,192,60390,1,0,0:0:0:40:
256,192,60508,1,0,0:0:0:40:
182,192,60626,1,0,0:0:0:40:
329,192,60744,1,0,0:0:0:40:
109,192,60863,1,0,0:0:0:40:
256,192,60981,1,0,0:0:0:40:
182,192,61099,1,0,0:0:0:40:
329,192,61217,1,0,0:0:0:40:
109,192,61335,1,0,0:0:0:40:
256,192,61453,1,0,0:0:0:40:
182,192,61571,1,0,0:0:0:40:
329,192,61689,1,0,0:0:0:40:
256,192,61807,1,0,0:0:0:40:
402,192,61926,1,0,0:0:0:40:
182,192,62044,1,0,0:0:0:40:
329,192,62162,1,0,0:0:0:40:
256,192,62280,1,0,0:0:0:40:
402,192,62398,1,0,0:0:0:40:
182,192,62516,1,0,0:0:0:40:
329,192,62634,1,0,0:0:0:40:
109,192,62752,1,0,0:0:0:40:
256,192,62870,1,0,0:0:0:40:
36,192,62989,1,2,0:0:0:20:
182,192,62989,1,0,0:0:0:20:
329,192,63107,1,0,0:0:0:40:
109,192,63225,1,2,0:0:0:20:
256,192,63225,1,0,0:0:0:20:
402,192,63343,1,0,0:0:0:40:
36,192,63461,1,2,0:0:0:10:
475,192,63461,1,0,0:0:0:10:
329,192,63461,1,0,0:0:0:10:
182,192,63461,1,0,0:0:0:10:
109,192,63697,1,8,0:0:0:40:
36,192,63933,1,2,0:0:0:10:
256,192,63933,1,0,0:0:0:10:
402,192,63933,1,0,0:0:0:10:
475,192,63933,1,0,0:0:0:10:
182,192,64170,1,8,0:0:0:40:
329,192,64288,1,8,0:0:0:40:
36,192,64406,1,2,0:0:0:13:
256,192,64406,1,0,0:0:0:13:
402,192,64406,1,0,0:0:0:13:
109,192,64642,1,8,0:0:0:40:
402,192,64760,1,0,0:0:0:20:
256,192,64760,1,0,0:0:0:20:
36,192,64878,1,2,0:0:0:20:
475,192,64878,1,0,0:0:0:20:
182,192,65114,1,8,0:0:0:40:
329,192,65233,1,8,0:0:0:40:
475,192,65351,1,0,0:0:0:13:
402,192,65351,1,0,0:0:0:13:
36,192,65351,1,2,0:0:0:13:
182,192,65587,1,8,0:0:0:40:
36,192,65823,1,2,0:0:0:10:
256,192,65823,1,0,0:0:0:10:
329,192,65823,1,0,0:0:0:10:
475,192,65823,1,0,0:0:0:10:
402,192,66059,1,8,0:0:0:40:
109,192,66177,1,8,0:0:0:40:
36,192,66296,1,2,0:0:0:13:
256,192,66296,1,0,0:0:0:13:
329,192,66296,1,0,0:0:0:13:
182,192,66532,1,8,0:0:0:40:
329,192,66650,1,0,0:0:0:20:
256,192,66650,1,0,0:0:0:20:
36,192,66768,1,2,0:0:0:20:
475,192,66768,1,0,0:0:0:20:
402,192,67004,1,8,0:0:0:40:
109,192,67122,1,8,0:0:0:40:
36,192,67240,1,2,0:0:0:13:
329,192,67240,1,0,0:0:0:13:
475,192,67240,1,0,0:0:0:13:
109,192,67477,1,8,0:0:0:40:
402,192,67713,1,0,0:0:0:10:
256,192,67713,1,0,0:0:0:10:
475,192,67713,1,0,0:0:0:10:
36,192,67713,1,2,0:0:0:10:
182,192,67949,1,8,0:0:0:40:
329,192,68067,1,8,0:0:0:40:
36,192,68185,1,2,0:0:0:13:
256,192,68185,1,0,0:0:0:13:
402,192,68185,1,0,0:0:0:13:
109,192,68422,1,8,0:0:0:40:
402,192,68540,1,0,0:0:0:20:
256,192,68540,1,0,0:0:0:20:
36,192,68658,1,2,0:0:0:20:
475,192,68658,1,0,0:0:0:20:
182,192,68894,1,8,0:0:0:40:
329,192,69012,1,8,0:0:0:40:
36,192,69130,1,2,0:0:0:13:
182,192,69130,1,0,0:0:0:13:
402,192,69130,1,0,0:0:0:13:
109,192,69366,1,8,0:0:0:40:
36,192,69603,1,2,0:0:0:10:
182,192,69603,1,0,0:0:0:10:
402,192,69603,1,0,0:0:0:10:
256,192,69603,1,0,0:0:0:10:
109,192,69839,1,8,0:0:0:40:
329,192,69957,1,8,0:0:0:40:
256,192,70075,1,0,0:0:0:13:
475,192,70075,1,0,0:0:0:13:
36,192,70075,1,2,0:0:0:13:
182,192,70311,1,8,0:0:0:40:
475,192,70429,1,0,0:0:0:20:
256,192,70429,1,0,0:0:0:20:
36,192,70548,1,2,0:0:0:20:
329,192,70548,1,0,0:0:0:20:
182,192,70784,1,8,0:0:0:20:
402,192,70784,1,0,0:0:0:20:
256,192,70902,1,8,0:0:0:40:
329,192,71020,1,0,0:0:0:13:
475,192,71020,1,0,0:0:0:13:
36,192,71020,1,2,0:0:0:13:
109,192,71256,1,8,0:0:0:40:
256,192,71492,1,0,0:0:0:10:
475,192,71492,1,0,0:0:0:10:
402,192,71492,1,0,0:0:0:10:
36,192,71492,1,2,0:0:0:10:
182,192,71729,1,8,0:0:0:40:
329,192,71847,1,8,0:0:0:40:
402,192,71965,1,0,0:0:0:13:
256,192,71965,1,0,0:0:0:13:
36,192,71965,1,2,0:0:0:13:
109,192,72201,1,8,0:0:0:40:
256,192,72319,1,0,0:0:0:20:
402,192,72319,1,0,0:0:0:20:
475,192,72437,1,0,0:0:0:20:
36,192,72437,1,2,0:0:0:20:
182,192,72674,1,8,0:0:0:40:
329,192,72792,1,8,0:0:0:40:
402,192,72910,1,0,0:0:0:13:
475,192,72910,1,0,0:0:0:13:
36,192,72910,1,2,0:0:0:13:
182,192,73146,1,8,0:0:0:40:
475,192,73382,1,0,0:0:0:10:
329,192,73382,1,0,0:0:0:10:
256,192,73382,1,0,0:0:0:10:
36,192,73382,1,2,0:0:0:10:
402,192,73618,1,8,0:0:0:40:
109,192,73737,1,8,0:0:0:40:
329,192,73855,1,0,0:0:0:13:
256,192,73855,1,0,0:0:0:13:
36,192,73855,1,2,0:0:0:13:
182,192,74091,1,8,0:0:0:40:
256,192,74209,1,0,0:0:0:20:
329,192,74209,1,0,0:0:0:20:
475,192,74327,1,0,0:0:0:20:
36,192,74327,1,2,0:0:0:20:
402,192,74563,1,8,0:0:0:40:
109,192,74681,1,8,0:0:0:40:
36,192,74800,1,2,0:0:0:13:
329,192,74800,1,0,0:0:0:13:
475,192,74800,1,0,0:0:0:13:
109,192,75036,1,8,0:0:0:40:
36,192,75272,1,2,0:0:0:10:
475,192,75272,1,0,0:0:0:10:
256,192,75272,1,0,0:0:0:10:
402,192,75272,1,0,0:0:0:10:
182,192,75508,1,8,0:0:0:40:
329,192,75626,1,8,0:0:0:40:
402,192,75744,1,0,0:0:0:13:
36,192,75744,1,2,0:0:0:13:
256,192,75744,1,0,0:0:0:13:
109,192,75981,1,8,0:0:0:40:
256,192,76099,1,0,0:0:0:20:
402,192,76099,1,0,0:0:0:20:
475,192,76217,1,0,0:0:0:20:
36,192,76217,1,2,0:0:0:20:
329,192,76453,1,8,0:0:0:40:
475,192,76571,1,8,0:0:0:40:
36,192,76689,1,2,0:0:0:13:
182,192,76689,1,0,0:0:0:13:
329,192,76689,1,0,0:0:0:13:
475,192,76926,1,8,0:0:0:40:
109,192,77162,1,2,0:0:0:13:
256,192,77162,1,0,0:0:0:13:
402,192,77162,1,0,0:0:0:13:
36,192,77398,1,8,0:0:0:40:
109,192,77516,1,8,0:0:0:40:
182,192,77634,1,2,0:0:0:13:
329,192,77634,1,0,0:0:0:13:
475,192,77634,1,0,0:0:0:13:
329,192,77989,1,0,0:0:0:20:
475,192,77989,1,0,0:0:0:20:
182,192,78107,1,0,0:0:0:20:
36,192,78107,1,2,0:0:0:20:
109,192,78343,1,2,0:0:0:20:
256,192,78343,1,0,0:0:0:20:
402,192,78461,1,0,0:0:0:40:
182,192,78579,1,0,0:0:0:13:
329,192,78579,1,0,0:0:0:13:
475,192,78579,1,0,0:0:0:13:
36,192,78815,1,0,0:0:0:40:
109,192,79051,1,0,0:0:0:13:
256,192,79051,1,0,0:0:0:13:
402,192,79051,1,0,0:0:0:13:
475,192,79288,1,0,0:0:0:40:
402,192,79406,1,0,0:0:0:40:
36,192,79524,1,0,0:0:0:13:
182,192,79524,1,0,0:0:0:13:
329,192,79524,1,0,0:0:0:13:
256,192,79642,1,0,0:0:0:40:
182,192,79878,1,0,0:0:0:13:
36,192,79878,1,0,0:0:0:13:
402,192,79878,1,0,0:0:0:13:
329,192,79996,1,0,0:0:0:20:
475,192,79996,1,0,0:0:0:20:
36,192,80233,1,0,0:0:0:13:
182,192,80233,1,0,0:0:0:13:
402,192,80233,1,0,0:0:0:13:
109,192,80351,1,0,0:0:0:40:
182,192,80469,1,0,0:0:0:13:
329,192,80469,1,0,0:0:0:13:
475,192,80469,1,0,0:0:0:13:
36,192,80705,1,0,0:0:0:40:
402,192,80941,1,0,0:0:0:13:
256,192,80941,1,0,0:0:0:13:
109,192,80941,1,0,0:0:0:13:
475,192,81177,1,0,0:0:0:40:
36,192,81414,1,0,0:0:0:13:
182,192,81414,1,0,0:0:0:13:
329,192,81414,1,0,0:0:0:13:
475,192,81532,1,0,0:0:0:40:
329,192,81650,1,0,0:0:0:40:
182,192,81768,1,0,0:0:0:13:
36,192,81768,1,0,0:0:0:13:
402,192,81768,1,0,0:0:0:13:
256,192,82004,1,0,0:0:0:40:
36,192,82122,1,0,0:0:0:13:
182,192,82122,1,0,0:0:0:13:
402,192,82122,1,0,0:0:0:13:
256,192,82240,1,0,0:0:0:40:
182,192,82359,1,0,0:0:0:13:
329,192,82359,1,0,0:0:0:13:
475,192,82359,1,0,0:0:0:13:
36,192,82595,1,0,0:0:0:40:
402,192,82831,1,0,0:0:0:13:
256,192,82831,1,0,0:0:0:13:
109,192,82831,1,0,0:0:0:13:
475,192,83067,1,0,0:0:0:40:
36,192,83303,1,0,0:0:0:13:
182,192,83303,1,0,0:0:0:13:
329,192,83303,1,0,0:0:0:13:
475,192,83422,1,0,0:0:0:40:
256,192,83540,1,0,0:0:0:40:
36,192,83658,1,0,0:0:0:13:
182,192,83658,1,0,0:0:0:13:
402,192,83658,1,0,0:0:0:13:
182,192,84012,1,0,0:0:0:13:
36,192,84012,1,0,0:0:0:13:
475,192,84012,1,0,0:0:0:13:
329,192,84130,1,0,0:0:0:40:
109,192,84248,1,0,0:0:0:20:
402,192,84248,1,0,0:0:0:20:
182,192,84485,1,0,0:0:0:40:
329,192,84603,1,0,0:0:0:40:
402,192,84721,1,0,0:0:0:13:
109,192,84721,1,0,0:0:0:13:
256,192,84721,1,0,0:0:0:13:
329,192,84839,1,0,0:0:0:40:
182,192,84957,1,0,0:0:0:40:
329,192,85075,1,0,0:0:0:40:
36,192,85193,1,0,0:0:0:13:
256,192,85193,1,0,0:0:0:13:
475,192,85193,1,0,0:0:0:13:
109,192,85429,1,0,0:0:0:20:
402,192,85429,1,0,0:0:0:20:
36,192,85666,1,0,0:0:0:13:
256,192,85666,1,0,0:0:0:13:
475,192,85666,1,0,0:0:0:13:
182,192,85784,1,0,0:0:0:40:
329,192,85902,1,0,0:0:0:40:
475,192,86138,1,0,0:0:0:10:
256,192,86138,1,0,0:0:0:10:
402,192,86138,1,0,0:0:0:10:
36,192,86138,1,2,0:0:0:10:
109,192,86374,1,8,0:0:0:40:
256,192,86492,1,0,0:0:0:40:
182,192,86611,1,0,0:0:0:13:
402,192,86611,1,0,0:0:0:13:
36,192,86611,1,2,0:0:0:13:
109,192,86847,1,8,0:0:0:40:
256,192,86965,1,8,0:0:0:40:
329,192,87083,1,0,0:0:0:10:
109,192,87083,1,0,0:0:0:10:
36,192,87083,1,2,0:0:0:10:
475,192,87083,1,0,0:0:0:10:
182,192,87319,1,8,0:0:0:20:
402,192,87319,1,0,0:0:0:20:
109,192,87437,1,0,0:0:0:20:
329,192,87437,1,0,0:0:0:20:
36,192,87555,1,2,0:0:0:40:
182,192,87792,1,8,0:0:0:13:
329,192,87792,1,0,0:0:0:13:
475,192,87792,1,0,0:0:0:13:
109,192,87910,1,8,0:0:0:40:
36,192,88028,1,2,0:0:0:10:
475,192,88028,1,0,0:0:0:10:
402,192,88028,1,0,0:0:0:10:
256,192,88028,1,0,0:0:0:10:
109,192,88264,1,8,0:0:0:40:
256,192,88382,1,0,0:0:0:40:
182,192,88500,1,0,0:0:0:13:
402,192,88500,1,0,0:0:0:13:
36,192,88500,1,2,0:0:0:13:
109,192,88737,1,8,0:0:0:40:
256,192,88855,1,8,0:0:0:40:
329,192,88973,1,0,0:0:0:10:
109,192,88973,1,0,0:0:0:10:
475,192,88973,1,0,0:0:0:10:
36,192,88973,1,2,0:0:0:10:
182,192,89209,1,8,0:0:0:20:
402,192,89209,1,0,0:0:0:20:
109,192,89327,1,0,0:0:0:20:
329,192,89327,1,0,0:0:0:20:
36,192,89445,1,2,0:0:0:40:
329,192,89681,1,0,0:0:0:13:
182,192,89681,1,8,0:0:0:13:
475,192,89681,1,0,0:0:0:13:
109,192,89800,1,8,0:0:0:40:
402,192,89918,1,0,0:0:0:10:
256,192,89918,1,0,0:0:0:10:
36,192,89918,1,2,0:0:0:10:
475,192,89918,1,0,0:0:0:10:
109,192,90154,1,8,0:0:0:40:
256,192,90272,1,0,0:0:0:40:
36,192,90390,1,2,0:0:0:13:
402,192,90390,1,0,0:0:0:13:
182,192,90390,1,0,0:0:0:13:
109,192,90626,1,8,0:0:0:40:
256,192,90744,1,8,0:0:0:40:
475,192,90863,1,0,0:0:0:10:
36,192,90863,1,2,0:0:0:10:
329,192,90863,1,0,0:0:0:10:
109,192,90863,1,0,0:0:0:10:
182,192,91099,1,8,0:0:0:20:
402,192,91099,1,0,0:0:0:20:
329,192,91217,1,0,0:0:0:20:
109,192,91217,1,0,0:0:0:20:
36,192,91335,1,2,0:0:0:40:
182,192,91571,1,8,0:0:0:13:
329,192,91571,1,0,0:0:0:13:
475,192,91571,1,0,0:0:0:13:
109,192,91689,1,8,0:0:0:40:
36,192,91807,1,2,0:0:0:10:
182,192,91807,1,0,0:0:0:10:
329,192,91807,1,0,0:0:0:10:
475,192,91807,1,0,0:0:0:10:
329,192,92162,1,8,0:0:0:20:
182,192,92162,1,2,0:0:0:20:
109,192,92280,1,0,0:0:0:13:
256,192,92280,1,0,0:0:0:13:
402,192,92280,1,0,0:0:0:13:
36,192,92634,1,2,0:0:0:20:
182,192,92634,1,0,0:0:0:20:
329,192,92752,1,2,0:0:0:20:
475,192,92752,1,0,0:0:0:20:
256,192,92870,1,2,0:0:0:40:
182,192,92989,1,2,0:0:0:20:
36,192,92989,1,0,0:0:0:20:
256,192,93107,1,2,0:0:0:40:
402,192,93225,1,2,0:0:0:20:
475,192,93225,1,0,0:0:0:20:
109,192,93343,1,2,0:0:0:20:
36,192,93343,1,0,0:0:0:20:
182,192,93461,1,2,0:0:0:20:
329,192,93461,1,0,0:0:0:20:
402,192,93579,1,0,0:0:0:20:
109,192,93579,1,2,0:0:0:20:
36,192,93697,1,2,0:0:0:13:
256,192,93697,1,0,0:0:0:13:
475,192,93697,1,0,0:0:0:13:
182,192,93933,1,8,0:0:0:40:
402,192,94051,1,0,0:0:0:40:
109,192,94170,1,2,0:0:0:20:
256,192,94170,1,0,0:0:0:20:
182,192,94406,1,8,0:0:0:20:
329,192,94406,1,0,0:0:0:20:
256,192,94524,1,8,0:0:0:40:
36,192,94642,1,2,0:0:0:20:
402,192,94642,1,0,0:0:0:20:
182,192,94878,1,8,0:0:0:40:
475,192,94996,1,0,0:0:0:40:
109,192,95114,1,2,0:0:0:20:
256,192,95114,1,0,0:0:0:20:
182,192,95351,1,8,0:0:0:20:
329,192,95351,1,0,0:0:0:20:
109,192,95469,1,8,0:0:0:40:
475,192,95587,1,0,0:0:0:13:
36,192,95587,1,2,0:0:0:13:
256,192,95587,1,0,0:0:0:13:
182,192,95823,1,8,0:0:0:40:
402,192,95941,1,0,0:0:0:40:
256,192,96059,1,0,0:0:0:20:
109,192,96059,1,2,0:0:0:20:
329,192,96296,1,0,0:0:0:20:
182,192,96296,1,8,0:0:0:20:
256,192,96414,1,8,0:0:0:40:
36,192,96532,1,2,0:0:0:20:
475,192,96532,1,0,0:0:0:20:
182,192,96768,1,8,0:0:0:40:
402,192,96886,1,0,0:0:0:40:
109,192,97004,1,2,0:0:0:20:
256,192,97004,1,0,0:0:0:20:
182,192,97240,1,8,0:0:0:20:
329,192,97240,1,0,0:0:0:20:
109,192,97359,1,8,0:0:0:40:
256,192,97477,1,0,0:0:0:13:
36,192,97477,1,2,0:0:0:13:
475,192,97477,1,0,0:0:0:13:
182,192,97713,1,8,0:0:0:40:
402,192,97831,1,0,0:0:0:40:
109,192,97949,1,2,0:0:0:20:
256,192,97949,1,0,0:0:0:20:
182,192,98185,1,8,0:0:0:20:
329,192,98185,1,0,0:0:0:20:
256,192,98303,1,8,0:0:0:40:
402,192,98422,1,0,0:0:0:20:
36,192,98422,1,2,0:0:0:20:
182,192,98658,1,8,0:0:0:40:
475,192,98776,1,0,0:0:0:40:
109,192,98894,1,2,0:0:0:20:
256,192,98894,1,0,0:0:0:20:
329,192,99130,1,0,0:0:0:20:
182,192,99130,1,8,0:0:0:20:
109,192,99248,1,8,0:0:0:40:
256,192,99366,1,0,0:0:0:13:
36,192,99366,1,2,0:0:0:13:
475,192,99366,1,0,0:0:0:13:
182,192,99603,1,8,0:0:0:40:
402,192,99721,1,0,0:0:0:40:
256,192,99839,1,0,0:0:0:20:
109,192,99839,1,2,0:0:0:20:
329,192,100075,1,0,0:0:0:20:
182,192,100075,1,8,0:0:0:20:
256,192,100193,1,8,0:0:0:40:
36,192,100311,1,2,0:0:0:20:
475,192,100311,1,0,0:0:0:20:
182,192,100548,1,8,0:0:0:40:
402,192,100666,1,0,0:0:0:40:
109,192,100784,1,2,0:0:0:20:
256,192,100784,1,0,0:0:0:20:
182,192,101020,1,8,0:0:0:20:
329,192,101020,1,0,0:0:0:20:
109,192,101138,1,8,0:0:0:40:
36,192,101256,1,0,0:0:0:20:
475,192,101256,1,0,0:0:0:20:
36,192,101729,1,0,0:0:0:13:
475,192,101729,1,0,0:0:0:13:
256,192,101729,1,0,0:0:0:13:
182,192,102083,1,0,0:0:0:40:
36,192,102201,1,0,0:0:0:20:
475,192,102201,1,0,0:0:0:20:
475,192,102674,1,0,0:0:0:13:
36,192,102674,1,0,0:0:0:13:
256,192,102674,1,0,0:0:0:13:
329,192,103028,1,0,0:0:0:40:
36,192,103146,1,0,0:0:0:20:
475,192,103146,1,0,0:0:0:20:
36,192,103618,1,0,0:0:0:13:
475,192,103618,1,0,0:0:0:13:
256,192,103618,1,0,0:0:0:13:
182,192,103973,1,0,0:0:0:40:
475,192,104091,1,0,0:0:0:20:
36,192,104091,1,0,0:0:0:20:
36,192,104563,1,0,0:0:0:13:
475,192,104563,1,0,0:0:0:13:
256,192,104563,1,0,0:0:0:13:
329,192,104918,1,0,0:0:0:40:
475,192,105036,1,0,0:0:0:20:
36,192,105036,1,0,0:0:0:20:
475,192,105508,1,0,0:0:0:13:
36,192,105508,1,0,0:0:0:13:
256,192,105508,1,0,0:0:0:13:
36,192,105981,1,0,0:0:0:20:
475,192,105981,1,0,0:0:0:20:
36,192,106453,1,0,0:0:0:13:
475,192,106453,1,0,0:0:0:13:
256,192,106453,1,0,0:0:0:13:
109,192,106926,1,0,0:0:0:20:
402,192,106926,1,0,0:0:0:20:
109,192,107162,1,0,0:0:0:20:
402,192,107162,1,0,0:0:0:20:
402,192,107398,1,0,0:0:0:13:
109,192,107398,1,0,0:0:0:13:
256,192,107398,1,0,0:0:0:13:
402,192,107634,1,0,0:0:0:20:
109,192,107634,1,0,0:0:0:20:
402,192,107870,1,0,0:0:0:20:
109,192,107870,1,0,0:0:0:20:
402,192,108107,1,0,0:0:0:20:
109,192,108107,1,0,0:0:0:20:
402,192,108343,1,0,0:0:0:0:
109,192,108343,1,0,0:0:0:0:
256,192,108343,1,0,0:0:0:0:
