osu file format v14

[General]
AudioFilename: audio.mp3
AudioLeadIn: 0
PreviewTime: 1826
Countdown: 1
SampleSet: Soft
StackLeniency: 0.7
Mode: 0
LetterboxInBreaks: 0
WidescreenStoryboard: 1

[Editor]
Bookmarks: 18877,30068,48760,61885,71260,78818,93642,108760,113564,123760
DistanceSpacing: 1.1
BeatDivisor: 4
GridSize: 32
TimelineZoom: 2.7

[Metadata]
Title:DrunkenSteiN
TitleUnicode:DrunkenSteiN
Artist:Paul Bazooka
ArtistUnicode:Paul Bazooka
Creator:Nao Tomori
Version:Hard
Source:节奏大师
Tags:rhythm master irresistible big fan bor mentai ayaya syameimaru-aya shanipika
BeatmapID:1912101
BeatmapSetID:915322

[Difficulty]
HPDrainRate:4.5
CircleSize:3.9
OverallDifficulty:6.3
ApproachRate:7.9
SliderMultiplier:1.4
SliderTickRate:1

[Events]
//Background and Video events
0,0,"bg 12049.jpg",0,0
//Break Periods
2,3100,9636
//Storyboard Layer 0 (Background)
//Storyboard Layer 1 (Fail)
//Storyboard Layer 2 (Pass)
//Storyboard Layer 3 (Foreground)
//Storyboard Sound Samples

[TimingPoints]
1025,468.75,4,2,1,55,1,0
6650,-100,4,2,1,45,0,0
9462,-100,4,2,1,55,0,0
11337,-100,4,2,1,55,0,0
14150,-100,4,2,1,55,0,0
14384,-100,4,2,1,55,0,0
14853,-100,4,2,1,55,0,0
15087,-100,4,2,1,55,0,0
15556,-100,4,2,1,55,0,0
15790,-100,4,2,1,55,0,0
17431,-100,4,2,1,55,0,0
17900,-100,4,2,1,60,0,0
28212,-100,4,2,1,60,0,0
28446,-100,4,2,1,60,0,0
28681,-100,4,2,1,60,0,0
28915,-100,4,2,1,60,0,0
29150,-100,4,2,1,60,0,0
31025,-100,4,2,1,60,0,0
31962,-100,4,2,1,60,0,0
32431,-100,4,2,1,65,0,0
33017,-100,4,2,1,65,0,0
47900,-133.333333333333,4,2,1,50,0,0
55400,-100,4,2,1,50,0,0
55517,-100,4,2,1,50,0,0
55985,-133.333333333333,4,2,1,50,0,0
57275,-133.333333333333,4,2,1,50,0,0
59150,-133.333333333333,4,2,1,50,0,0
61025,-76.9230769230769,4,2,1,50,0,0
61493,-100,4,2,1,50,0,0
62900,-100,4,2,1,55,0,0
70400,-100,4,2,1,55,0,0
74150,-100,4,2,1,55,0,0
77431,-100,4,2,1,70,0,0
78368,-100,4,2,1,70,0,0
79306,-100,4,2,1,70,0,0
82587,-100,4,2,1,70,0,0
84696,-100,4,2,1,70,0,0
84931,-100,4,2,1,70,0,0
85165,-100,4,2,1,70,0,0
85400,-100,4,2,1,70,0,0
91962,-100,4,2,1,70,0,0
95712,-100,4,2,1,70,0,0
98056,-100,4,2,1,70,0,0
99462,-100,4,2,1,70,0,0
100400,-100,4,2,1,70,0,0
103212,-100,4,2,1,70,0,0
103681,-100,4,2,1,70,0,0
105087,-100,4,2,1,70,0,0
107900,-100,4,2,1,65,0,0
108368,-100,4,2,1,65,0,0
115400,-100,4,2,1,65,0,0
121493,-100,4,2,1,50,0,0
121962,-100,4,2,1,50,0,0
122900,-100,4,2,1,55,0,0
123837,-100,4,2,2,30,0,0
124716,-100,4,2,1,55,0,0

[Colours]
Combo1 : 167,139,182
Combo2 : 107,220,243
Combo3 : 237,112,115
Combo4 : 242,199,108

[HitObjects]
256,192,1025,12,10,2900,0:0:0:0:
153,104,10400,5,8,0:3:0:0:
153,104,10634,2,0,L|124:269,1,140,10|0,0:2|3:0,0:0:0:0:
211,319,11337,1,2,0:0:0:0:
211,319,11571,1,2,0:0:0:0:
300,266,11806,5,4,0:0:0:0:
364,332,12040,1,2,0:0:0:0:
446,272,12275,5,4,0:0:0:0:
384,197,12509,1,2,0:0:0:0:
384,197,12743,1,2,0:0:0:0:
458,119,12978,5,4,0:0:0:0:
380,71,13212,1,2,0:0:0:0:
380,71,13446,1,2,0:0:0:0:
298,125,13681,6,0,L|240:122,1,35,0|0,0:0|0:0,0:0:0:0:
252,154,13915,2,0,L|198:151,1,35,2|0,0:0|0:0,0:0:0:0:
194,169,14150,5,4,3:2:0:0:
110,116,14384,1,2,0:0:0:0:
110,116,14618,1,2,0:0:0:0:
62,212,14853,5,4,3:2:0:0:
129,298,15087,1,2,0:0:0:0:
129,298,15321,1,2,0:0:0:0:
225,245,15556,5,4,3:2:0:0:
271,338,15790,1,2,0:0:0:0:
369,299,16025,6,0,P|385:247|380:224,1,70,6|2,3:2|0:0,0:0:0:0:
336,162,16493,2,0,P|341:130|337:83,1,70,2|0,0:0|0:0,0:0:0:0:
413,40,16962,1,0,0:0:0:0:
488,103,17196,1,2,0:0:0:0:
488,103,17314,1,0,0:0:0:0:
488,103,17431,2,0,P|489:141|499:184,1,70,2|2,0:0|0:0,0:0:0:0:
438,255,17900,6,0,P|389:237|307:274,1,140,0|0,3:0|1:0,0:0:0:0:
215,232,18603,1,2,0:0:0:0:
140,302,18837,1,0,3:0:0:0:
48,253,19071,1,2,0:0:0:0:
48,253,19189,1,2,0:0:0:0:
48,253,19306,2,0,L|42:154,1,70,0|2,1:0|0:0,0:0:0:0:
2,73,19775,6,0,B|73:56|66:116|162:83,1,140,0|0,3:0|1:2,0:0:0:0:
228,36,20478,2,0,L|244:117,1,70,2|0,0:0|3:0,0:0:0:0:
335,89,20946,1,0,0:0:0:0:
335,89,21181,2,0,L|319:170,1,70,0|0,1:0|0:0,0:0:0:0:
319,179,21532,1,0,0:0:0:0:
319,179,21650,6,0,P|367:208|453:184,1,140,0|2,3:0|1:2,0:0:0:0:
504,282,22353,1,2,0:0:0:0:
504,282,22470,1,2,0:0:0:0:
504,282,22587,2,0,P|503:324|505:363,1,70,0|0,3:0|0:0,0:0:0:0:
402,379,23056,2,0,P|403:344|402:309,1,70,0|0,1:0|0:0,0:0:0:0:
307,252,23525,6,0,P|270:264|158:208,1,140,2|0,3:2|1:0,0:0:0:0:
220,155,24228,1,0,0:0:0:0:
141,89,24462,2,0,L|126:41,1,35,0|0,3:0|1:0,0:0:0:0:
110,103,24696,2,0,L|93:53,1,35,0|0,3:0|0:0,0:0:0:0:
38,167,24931,2,0,L|27:200,1,35,0|0,1:0|0:0,0:0:0:0:
70,182,25165,2,0,L|58:215,1,35,4|0,3:0|0:0,0:0:0:0:
118,286,25400,5,0,3:0:0:0:
118,286,25634,2,0,P|155:317|250:299,1,140,0|0,0:0|0:0,0:0:0:0:
302,219,26337,1,0,3:0:0:0:
406,271,26571,1,2,0:0:0:0:
406,271,26689,1,2,0:0:0:0:
406,271,26806,2,0,L|425:329,1,35,0|0,1:0|0:0,0:0:0:0:
347,353,27040,2,0,L|339:397,1,35,0|0,0:0|0:0,0:0:0:0:
259,304,27275,6,0,L|250:256,3,35,2|2|0|2,3:0|0:0|0:0|0:0,0:0:0:0:
226,246,27743,1,2,0:0:0:0:
69,103,28212,5,4,3:0:0:0:
150,47,28446,1,0,3:0:0:0:
243,94,28681,1,4,3:0:0:0:
336,40,28915,1,0,1:0:0:0:
454,104,29150,6,0,P|474:142|467:245,1,140,0|4,0:0|3:0,0:0:0:0:
384,298,29853,2,0,L|304:281,1,70,2|4,0:0|3:0,0:0:0:0:
226,358,30321,1,2,1:2:0:0:
226,358,30439,1,0,0:0:0:0:
226,358,30556,2,0,L|140:371,1,70,4|2,3:0|1:2,0:0:0:0:
52,312,31025,6,0,P|33:260|40:219,1,70,6|0,3:0|1:0,0:0:0:0:
116,177,31493,1,0,1:0:0:0:
116,177,31728,1,4,3:0:0:0:
217,240,31962,2,0,L|305:226,1,70,0|4,1:0|3:0,0:0:0:0:
371,160,32431,1,2,3:2:0:0:
378,144,32548,1,2,0:0:0:0:
382,127,32665,1,4,3:0:0:0:
382,110,32782,1,2,3:2:0:0:
379,93,32900,6,0,P|406:147|476:185,1,140,2|8,3:2|1:3,0:0:0:0:
441,274,33603,2,0,P|393:296|358:299,1,70,2|4,3:2|3:0,0:0:0:0:
288,252,34071,1,2,0:0:0:0:
208,315,34306,1,2,1:2:0:0:
208,315,34423,1,2,0:0:0:0:
208,315,34540,1,4,3:0:0:0:
208,315,34657,1,2,3:2:0:0:
208,315,34775,6,0,P|238:271|219:172,1,140,2|0,3:2|1:0,0:0:0:0:
139,119,35478,2,0,L|49:126,1,70,2|4,3:2|3:0,0:0:0:0:
199,41,35946,1,2,3:2:0:0:
199,41,36181,2,0,L|244:49,1,35,2|2,1:2|0:0,0:0:0:0:
300,97,36415,2,0,L|335:91,1,35,4|2,3:0|3:2,0:0:0:0:
407,38,36650,6,0,P|446:74|434:169,1,140,0|0,3:0|1:0,0:0:0:0:
358,217,37353,1,0,3:0:0:0:
271,160,37587,2,0,L|183:153,1,70,4|2,3:0|0:2,0:0:0:0:
129,233,38056,1,2,1:2:0:0:
129,233,38173,1,2,0:0:0:0:
129,233,38290,1,4,3:0:0:0:
129,233,38407,1,2,3:2:0:0:
129,233,38525,6,0,P|105:272|150:356,1,140,2|0,3:2|1:0,0:0:0:0:
224,304,39228,1,2,3:2:0:0:
305,363,39462,1,4,3:0:0:0:
305,363,39696,2,0,L|392:350,1,70,2|4,3:2|1:0,0:0:0:0:
461,274,40165,1,0,0:0:0:0:
387,193,40400,6,0,L|368:35,1,140,4|0,3:0|1:0,0:0:0:0:
272,5,41103,2,0,P|227:30|187:33,1,70,2|4,0:0|3:0,0:0:0:0:
100,12,41571,1,2,3:2:0:0:
19,89,41806,1,2,1:2:0:0:
18,97,41923,1,2,0:0:0:0:
18,106,42040,1,4,3:0:0:0:
17,115,42157,1,2,3:0:0:0:
17,125,42275,6,0,P|71:117|151:188,1,140,2|0,3:2|1:0,0:0:0:0:
97,259,42978,2,0,L|78:330,1,70,2|4,0:0|3:0,0:0:0:0:
162,376,43446,1,2,3:2:0:0:
250,312,43681,2,0,L|308:306,1,35,2|2,1:2|0:0,0:0:0:0:
350,252,43915,2,0,L|405:256,1,35,4|2,3:0|3:0,0:0:0:0:
281,194,44150,6,0,L|272:112,1,70,2|0,1:2|1:0,0:0:0:0:
178,55,44618,1,2,1:2:0:0:
178,55,44735,1,2,0:0:0:0:
178,55,44853,1,0,1:0:0:0:
178,55,44970,1,0,3:0:0:0:
178,55,45087,6,0,P|135:76|96:74,1,70,2|0,1:2|1:0,0:0:0:0:
280,19,45556,2,0,P|314:23|344:41,1,70,2|2,1:2|1:2,0:0:0:0:
464,30,46025,5,0,1:0:0:0:
464,30,46142,2,0,L|445:128,1,70,2|0,0:0|1:0,0:0:0:0:
459,129,46493,2,0,L|469:208,1,70,2|0,0:0|1:0,0:0:0:0:
400,289,46962,1,0,1:0:0:0:
400,289,47079,1,0,1:0:0:0:
400,289,47196,2,0,L|340:309,1,35,0|0,1:0|1:0,0:0:0:0:
274,269,47431,1,0,1:0:0:0:
274,269,47548,1,0,1:0:0:0:
274,269,47665,2,0,L|214:249,1,35,0|0,1:0|1:0,0:0:0:0:
158,303,47900,5,8,0:0:0:0:
311,68,48368,1,2,0:0:0:0:
381,133,48603,1,0,0:0:0:0:
381,133,48720,1,2,0:0:0:0:
381,133,48837,2,0,L|448:138,1,52.5000020027161,0|0,3:0|0:0,0:0:0:0:
316,226,49306,1,0,3:0:0:0:
316,226,49423,1,0,0:0:0:0:
316,226,49540,1,4,0:3:0:0:
316,226,49657,1,0,0:0:0:0:
316,226,49775,6,0,L|156:244,1,157.500006008148,2|0,0:0|0:0,0:0:0:0:
306,329,50712,2,0,L|190:341,1,105.000004005432,0|2,3:0|0:0,0:0:0:0:
101,373,51415,2,0,P|76:338|4:313,1,105.000004005432,4|0,0:3|0:0,0:0:0:0:
54,223,52118,2,0,L|74:141,2,78.7500030040742,2|2|0,0:0|0:0|3:0,0:0:0:0:
135,291,53056,1,4,0:3:0:0:
228,248,53290,1,0,0:0:0:0:
228,248,53407,1,2,0:0:0:0:
228,248,53525,6,0,L|254:136,1,105.000004005432,0|0,3:0|0:0,0:0:0:0:
351,91,54228,1,0,3:0:0:0:
351,91,54345,1,2,0:0:0:0:
351,91,54462,2,0,P|397:108|421:105,1,52.5000020027161,0|0,3:0|0:0,0:0:0:0:
497,69,54931,1,0,3:0:0:0:
497,69,55048,1,0,0:0:0:0:
497,69,55165,1,4,0:3:0:0:
497,69,55282,1,0,0:0:0:0:
497,69,55400,6,0,P|470:106|491:210,1,140,10|0,0:3|0:0,0:0:0:0:
493,212,55985,6,0,L|412:227,1,78.7500030040742,2|10,0:0|0:0,0:0:0:0:
403,268,56454,1,0,0:0:0:0:
403,268,56571,1,2,0:0:0:0:
403,268,56689,1,0,0:0:0:0:
403,268,56806,2,0,L|335:263,1,52.5000020027161,2|4,3:2|0:3,0:0:0:0:
277,338,57275,6,0,P|233:313|166:326,1,105.000004005432,2|0,3:1|0:0,0:0:0:0:
61,278,57978,1,0,3:0:0:0:
61,278,58212,2,0,P|88:236|93:205,1,78.7500030040742,4|0,0:3|0:0,0:0:0:0:
129,136,58681,2,0,P|151:180|188:208,1,78.7500030040742,0|0,3:0|0:0,0:0:0:0:
307,241,59150,6,0,L|424:228,3,105.000004005432,2|0|2|0,3:1|0:0|0:0|0:0,0:0:0:0:
411,229,61025,6,0,B|257:174|252:316|90:234,1,318.499985420228,2|0,0:1|0:0,0:0:0:0:
83,216,61962,6,0,L|69:115,1,70,0|2,3:0|0:0,0:0:0:0:
91,119,62314,1,0,0:0:0:0:
91,119,62431,2,0,L|97:76,3,35,8|0|2|0,0:0|0:0|0:0|0:0,0:0:0:0:
162,30,62900,6,0,P|217:8|306:55,1,140,10|0,1:2|0:0,0:0:0:0:
401,32,63603,2,0,L|387:132,1,70,2|0,0:0|0:0,0:0:0:0:
450,189,64071,1,2,0:1:0:0:
368,263,64306,2,0,L|293:251,1,70,0|0,0:0|0:0,0:0:0:0:
270,266,64657,1,0,0:0:0:0:
270,266,64775,6,0,P|225:294|123:283,1,140,2|0,0:0|0:0,0:0:0:0:
47,227,65478,2,0,L|36:134,1,70,2|0,0:0|0:0,0:0:0:0:
117,71,65946,2,0,P|164:88|265:50,1,140,2|0,0:0|0:0,0:0:0:0:
378,80,66650,6,0,L|395:246,1,140,2|0,0:0|0:0,0:0:0:0:
472,279,67353,1,2,0:0:0:0:
508,178,67587,2,0,L|499:109,1,70,0|2,0:0|0:0,0:0:0:0:
432,28,68056,1,0,0:0:0:0:
432,28,68173,1,0,0:0:0:0:
432,28,68290,1,0,0:0:0:0:
432,28,68407,1,0,0:0:0:0:
432,28,68525,6,0,P|373:68|283:51,1,140,2|0,0:0|0:0,0:0:0:0:
200,13,69228,2,0,L|181:93,1,70,2|0,0:0|0:0,0:0:0:0:
66,54,69696,1,2,0:0:0:0:
5,141,69931,2,0,L|11:182,3,35,0|0|0|0,3:0|3:0|3:0|3:0,0:0:0:0:
14,218,70400,6,0,P|68:232|112:226,1,70,0|0,1:0|1:0,0:0:0:0:
180,182,70868,1,0,1:0:0:0:
246,260,71103,1,0,1:0:0:0:
152,310,71337,6,0,P|206:296|250:302,1,70,0|0,1:0|1:0,0:0:0:0:
318,346,71805,1,0,1:0:0:0:
384,268,72040,1,0,1:0:0:0:
362,168,72275,6,0,P|357:213|370:256,1,70,0|0,1:0|1:0,0:0:0:0:
465,127,72743,1,0,1:0:0:0:
368,68,72978,1,0,1:0:0:0:
271,97,73212,6,0,P|316:102|359:89,1,70,0|0,1:0|1:0,0:0:0:0:
199,13,73680,1,0,1:0:0:0:
155,105,73915,1,0,1:0:0:0:
229,185,74150,6,0,L|306:183,1,70,0|0,1:0|1:0,0:0:0:0:
158,271,74618,2,0,L|75:271,1,70,0|0,1:0|1:0,0:0:0:0:
255,350,75087,1,0,1:0:0:0:
276,334,75204,1,0,1:0:0:0:
301,327,75321,1,0,1:0:0:0:
327,329,75438,1,0,1:0:0:0:
352,340,75556,2,0,L|401:326,1,35,0|0,1:0|1:0,0:0:0:0:
452,277,75790,2,0,L|501:263,1,35,0|0,1:0|1:0,0:0:0:0:
368,237,76025,5,0,1:0:0:0:
368,237,76962,6,0,L|358:140,1,70,0|2,0:0|0:3,0:0:0:0:
242,83,77431,1,2,3:2:0:0:
242,83,77665,1,4,3:0:0:0:
184,198,77900,6,0,L|124:203,1,35,2|0,1:2|0:0,0:0:0:0:
90,261,78134,2,0,L|30:266,1,35,2|0,0:0|0:0,0:0:0:0:
151,323,78368,2,0,P|187:302|245:305,1,70,0|4,1:0|3:0,0:0:0:0:
313,340,78837,1,4,3:3:0:0:
313,340,78954,1,0,0:0:0:0:
313,340,79071,1,2,3:2:0:0:
313,340,79189,1,0,3:0:0:0:
313,340,79306,2,0,L|400:331,1,70,0|2,1:0|0:0,0:0:0:0:
466,232,79775,6,0,L|465:175,1,35,4|0,3:0|0:0,0:0:0:0:
389,141,80009,2,0,L|382:101,1,35,2|0,3:2|0:0,0:0:0:0:
311,189,80243,6,0,L|309:235,1,35,2|0,1:2|0:0,0:0:0:0:
228,150,80478,2,0,L|220:105,1,35,2|0,3:2|3:0,0:0:0:0:
145,54,80712,6,0,P|89:42|50:55,1,70,4|2,3:0|3:0,0:0:0:0:
0,211,81181,2,0,P|34:212|67:200,1,70,4|4,1:0|1:0,0:0:0:0:
173,280,81650,5,8,1:3:0:0:
173,280,81767,1,2,0:0:0:0:
173,280,81884,2,0,L|233:277,1,35,4|2,3:0|0:0,0:0:0:0:
290,339,82118,1,2,1:2:0:0:
290,339,82235,1,0,3:0:0:0:
290,339,82353,2,0,L|350:336,1,35,4|2,3:0|0:0,0:0:0:0:
392,270,82587,6,0,P|399:237|388:186,1,70,4|2,3:0|3:2,0:0:0:0:
492,275,83056,2,0,P|487:316|495:344,1,70,0|2,1:0|3:2,0:0:0:0:
401,374,83525,1,2,3:2:0:0:
305,339,83759,1,2,0:1:0:0:
210,380,83993,2,0,L|150:373,1,35,2|2,1:2|0:0,0:0:0:0:
100,312,84228,2,0,L|51:307,1,35,4|2,3:0|3:2,0:0:0:0:
9,239,84462,6,0,P|-6:194|-3:146,1,70,6|2,3:2|0:3,0:0:0:0:
100,124,84931,2,0,P|104:83|122:49,1,70,4|2,1:2|0:3,0:0:0:0:
225,24,85400,5,2,3:2:0:0:
225,24,85517,1,2,3:2:0:0:
225,24,85634,1,4,3:0:0:0:
225,24,85751,1,2,3:2:0:0:
225,24,85868,2,0,L|232:68,1,35,2|0,1:2|3:0,0:0:0:0:
303,116,86103,2,0,L|296:160,1,35,2|0,0:0|3:0,0:0:0:0:
242,229,86337,6,0,L|188:231,2,35,2|2|2,3:2|3:2|3:1,0:0:0:0:
279,259,86689,2,0,P|299:303|285:370,1,105,2|4,1:2|3:0,0:0:0:0:
408,305,87275,5,2,3:2:0:0:
408,305,87392,1,2,0:0:0:0:
408,305,87509,2,0,L|418:237,1,35,4|2,3:0|0:0,0:0:0:0:
490,220,87743,1,2,1:2:0:0:
490,220,87860,1,0,3:0:0:0:
490,220,87977,2,0,L|500:152,1,35,2|0,0:2|3:0,0:0:0:0:
440,109,88212,6,0,P|429:68|404:47,1,70,2|2,3:2|0:0,0:0:0:0:
388,49,88564,2,0,L|313:69,2,70,2|2|2,0:0|0:3|0:3,0:0:0:0:
253,12,89150,6,0,P|233:54|237:97,1,70,2|4,3:2|3:0,0:0:0:0:
284,183,89618,1,2,1:2:0:0:
284,183,89735,1,0,0:0:0:0:
284,183,89853,1,2,3:2:0:0:
284,183,89970,1,0,3:0:0:0:
284,183,90087,6,0,P|301:237|296:277,1,70,4|2,3:0|3:2,0:0:0:0:
217,343,90556,1,0,1:0:0:0:
122,301,90790,1,2,3:2:0:0:
20,347,91025,5,4,0:0:0:0:
40,233,91259,1,4,3:0:0:0:
156,165,91493,1,4,1:2:0:0:
136,279,91727,1,4,3:0:0:0:
136,279,91845,1,0,0:0:0:0:
136,279,91962,6,0,L|232:270,1,70,0|4,1:0|0:0,0:0:0:0:
355,329,92431,1,2,1:2:0:0:
355,329,92665,2,0,L|368:244,2,70,2|6|0,0:1|3:0|3:0,0:0:0:0:
469,240,93368,5,2,1:2:0:0:
469,240,93485,1,2,0:0:0:0:
469,240,93603,1,4,3:0:0:0:
469,240,93720,1,2,0:0:0:0:
469,240,93837,2,0,L|454:152,1,70,2|0,0:3|3:0,0:0:0:0:
388,35,94306,2,0,L|377:105,1,70,0|2,1:0|3:2,0:0:0:0:
294,180,94775,6,0,L|244:191,1,35,0|2,3:2|0:0,0:0:0:0:
185,241,95009,2,0,L|130:234,1,35,4|2,3:0|0:0,0:0:0:0:
84,170,95243,2,0,L|67:124,1,35,2|0,1:2|0:0,0:0:0:0:
139,75,95478,2,0,L|157:24,1,35,2|0,3:2|3:0,0:0:0:0:
229,119,95712,6,0,P|265:84|298:69,1,70,4|2,3:0|3:0,0:0:0:0:
400,93,96181,1,0,1:0:0:0:
428,200,96415,1,0,1:0:0:0:
347,276,96650,6,0,L|300:293,1,35,2|0,3:2|0:0,0:0:0:0:
256,355,96884,1,2,0:0:0:0:
256,355,97001,1,0,0:0:0:0:
256,355,97118,2,0,L|199:350,1,35,2|0,1:2|0:0,0:0:0:0:
147,293,97353,1,2,3:2:0:0:
147,293,97470,1,0,3:0:0:0:
147,293,97587,6,0,P|135:247|148:205,1,70,4|2,3:0|3:2,0:0:0:0:
215,117,98056,2,0,P|227:71|214:29,1,70,0|2,1:0|3:2,0:0:0:0:
133,7,98525,1,2,3:0:0:0:
133,7,98642,1,2,3:0:0:0:
133,7,98759,1,4,0:0:0:0:
58,69,98993,1,0,1:0:0:0:
58,69,99110,1,0,3:0:0:0:
58,69,99228,2,0,L|64:131,1,35,4|0,3:2|0:0,0:0:0:0:
3,172,99462,6,0,P|59:157|130:224,1,140,4|4,3:0|1:2,0:0:0:0:
103,308,100165,1,2,3:2:0:0:
190,362,100400,6,0,L|254:350,1,35,4|2,3:0|0:0,0:0:0:0:
281,298,100634,2,0,L|333:290,1,35,4|2,3:0|0:0,0:0:0:0:
171,255,100868,6,0,L|235:243,1,35,2|0,1:2|0:0,0:0:0:0:
296,185,101102,2,0,L|262:191,1,35,2|2,3:2|3:2,0:0:0:0:
186,144,101337,5,4,3:0:0:0:
186,144,101454,1,2,0:0:0:0:
186,144,101571,1,2,3:3:0:0:
252,66,101806,1,2,1:2:0:0:
252,66,101923,1,0,0:0:0:0:
252,66,102040,1,2,3:3:0:0:
362,126,102275,6,0,L|416:120,1,35,2|2,3:2|3:0,0:0:0:0:
463,175,102509,2,0,L|483:221,1,35,4|2,3:0|3:2,0:0:0:0:
428,282,102743,1,2,0:2:0:0:
428,282,102860,1,0,3:2:0:0:
428,282,102978,2,0,L|421:330,1,35,2|0,3:2|0:0,0:0:0:0:
343,364,103212,5,4,3:0:0:0:
343,364,103446,1,2,3:2:0:0:
245,294,103681,1,2,1:3:0:0:
245,294,103915,1,2,3:3:0:0:
121,363,104150,5,2,3:2:0:0:
121,363,104267,1,2,0:0:0:0:
121,363,104384,1,4,3:0:0:0:
121,363,104501,1,2,3:2:0:0:
121,363,104618,2,0,L|114:308,1,35,2|0,1:2|0:0,0:0:0:0:
48,269,104853,2,0,L|44:224,1,35,2|0,3:2|0:0,0:0:0:0:
120,168,105087,5,4,3:0:0:0:
219,93,105321,2,0,P|277:102|304:128,2,70,2|0|2,3:2|1:0|3:2,0:0:0:0:
343,196,106025,5,4,3:2:0:0:
426,109,106259,1,4,3:0:0:0:
451,263,106493,1,4,1:2:0:0:
374,347,106727,1,4,3:0:0:0:
374,347,106845,1,0,0:0:0:0:
374,347,106962,6,0,L|293:323,1,70,0|0,1:0|1:0,0:0:0:0:
162,365,107431,2,0,L|78:382,1,70,2|2,3:0|3:0,0:0:0:0:
16,282,107900,2,0,P|47:244|121:264,1,105,8|0,3:0|0:0,0:0:0:0:
123,261,108368,6,0,L|214:252,1,70,0|2,1:0|0:0,0:0:0:0:
283,183,108837,1,4,3:0:0:0:
283,183,108954,1,2,0:0:0:0:
283,183,109071,2,0,L|294:121,1,35,0|2,0:0|0:0,0:0:0:0:
369,88,109306,2,0,L|351:39,1,35,2|0,1:2|0:0,0:0:0:0:
432,3,109540,1,2,0:0:0:0:
432,3,109657,1,2,0:0:0:0:
432,3,109775,6,0,P|464:45|434:147,1,140,4|2,3:0|1:2,0:0:0:0:
433,150,110360,1,0,0:0:0:0:
433,150,110478,1,2,0:0:0:0:
433,150,110595,1,2,0:0:0:0:
433,150,110712,1,4,3:0:0:0:
325,110,110946,1,0,0:0:0:0:
325,110,111064,1,2,0:0:0:0:
325,110,111181,2,0,L|245:117,1,70,2|2,1:2|0:0,0:0:0:0:
188,191,111650,5,4,3:0:0:0:
93,138,111884,1,0,0:0:0:0:
17,208,112118,1,0,1:0:0:0:
111,270,112353,1,2,0:0:0:0:
111,270,112470,1,0,0:0:0:0:
111,270,112587,6,0,L|191:258,1,70,4|0,3:0|0:0,0:0:0:0:
278,314,113056,1,2,1:2:0:0:
352,241,113290,1,2,0:0:0:0:
465,283,113525,2,0,L|477:219,1,35,4|2,3:0|0:0,0:0:0:0:
434,176,113759,2,0,L|439:137,1,35,0|2,0:0|0:0,0:0:0:0:
379,80,113993,6,0,P|328:73|298:85,1,70,2|2,1:2|0:0,0:0:0:0:
289,103,114345,1,2,0:0:0:0:
289,103,114462,2,0,L|306:240,2,105,4|2|0,3:0|1:2|1:0,0:0:0:0:
205,22,115400,5,2,1:2:0:0:
362,39,115634,1,2,1:2:0:0:
421,167,115868,1,0,1:0:0:0:
264,150,116102,1,0,1:0:0:0:
159,232,116337,6,0,L|152:298,1,35,0|2,1:2|0:0,0:0:0:0:
225,301,116571,2,0,L|220:345,1,35,0|2,1:0|0:0,0:0:0:0:
315,337,116806,2,0,L|311:302,1,35,0|2,1:0|0:0,0:0:0:0:
380,268,117040,2,0,L|376:233,1,35,2|0,1:2|0:0,0:0:0:0:
422,155,117275,5,0,1:2:0:0:
292,86,117509,1,2,1:2:0:0:
233,210,117743,1,0,1:0:0:0:
103,141,117977,1,0,1:0:0:0:
192,61,118212,5,2,1:2:0:0:
215,210,118446,1,0,1:0:0:0:
215,210,118564,1,0,1:1:0:0:
215,210,118681,2,0,L|218:293,1,70,2|0,1:2|1:0,0:0:0:0:
332,354,119150,5,2,1:2:0:0:
256,192,119267,12,8,122900,3:0:0:0:
