osu file format v14

[General]
AudioFilename: audio.mp3
AudioLeadIn: 0
PreviewTime: 8421
Countdown: 0
SampleSet: Soft
StackLeniency: 0.7
Mode: 0
LetterboxInBreaks: 0
WidescreenStoryboard: 0

[Editor]
DistanceSpacing: 0.4
BeatDivisor: 4
GridSize: 4
TimelineZoom: 3.699999

[Metadata]
Title:Inferno
TitleUnicode:インフェルノ
Artist:Patryk S. Covers
ArtistUnicode:Patryk S. Covers
Creator:- Dave -
Version:Zaglada.
Source:ベルセルク
Tags:BERSERK guts casca griffith 2016 tv size opening patryk polski cover pl berserk intro patryka berserka
BeatmapID:1543601
BeatmapSetID:731470

[Difficulty]
HPDrainRate:6.4
CircleSize:4.8
OverallDifficulty:8.4
ApproachRate:9.7
SliderMultiplier:1.4
SliderTickRate:1

[Events]
//Background and Video events
0,0,"788446.jpg",0,0
//Break Periods
//Storyboard Layer 0 (Background)
//Storyboard Layer 1 (Fail)
//Storyboard Layer 2 (Pass)
//Storyboard Layer 3 (Foreground)
//Storyboard Sound Samples

[TimingPoints]
1037,307.692307692308,4,2,0,100,1,0
8421,-200,4,2,0,100,0,0
11806,-100,4,2,0,100,0,0
63806,-76.9230769230769,4,2,0,100,0,0
74883,-100,4,2,0,100,0,0

[HitObjects]
160,128,1037,5,0,0:0:0:0:
188,120,1113,1,0,0:0:0:0:
216,112,1190,1,0,0:0:0:0:
244,100,1267,2,0,L|296:80,1,35
320,268,1498,1,0,0:0:0:0:
296,280,1575,1,0,0:0:0:0:
272,268,1652,2,0,L|244:240,2,35
80,280,1960,5,0,0:0:0:0:
108,276,2037,1,0,0:0:0:0:
136,268,2114,1,0,0:0:0:0:
160,252,2191,1,0,0:0:0:0:
180,232,2268,1,0,0:0:0:0:
196,208,2345,1,0,0:0:0:0:
204,180,2422,5,0,0:0:0:0:
232,180,2499,1,0,0:0:0:0:
260,180,2576,1,0,0:0:0:0:
288,180,2652,1,0,0:0:0:0:
316,180,2729,1,0,0:0:0:0:
344,180,2806,1,0,0:0:0:0:
372,180,2883,2,0,L|424:200,3,35
240,40,3344,2,0,L|196:68,1,35
100,204,3498,2,0,L|68:220,2,35
368,268,3806,5,0,0:0:0:0:
364,256,3883,1,0,0:0:0:0:
360,244,3960,1,0,0:0:0:0:
356,232,4037,1,0,0:0:0:0:
352,220,4114,1,0,0:0:0:0:
340,196,4191,1,0,0:0:0:0:
320,176,4268,1,0,0:0:0:0:
296,160,4345,1,0,0:0:0:0:
272,148,4422,5,0,0:0:0:0:
232,136,4498,1,0,0:0:0:0:
192,128,4575,1,0,0:0:0:0:
152,124,4652,1,0,0:0:0:0:
108,124,4729,2,0,L|68:136,3,35
268,344,5190,2,0,L|288:304,1,35
400,88,5344,2,0,L|440:104,2,35
156,44,5652,5,0,0:0:0:0:
160,72,5729,1,0,0:0:0:0:
172,100,5806,1,0,0:0:0:0:
188,124,5883,1,0,0:0:0:0:
212,140,5960,1,0,0:0:0:0:
240,148,6037,1,0,0:0:0:0:
268,148,6113,1,0,0:0:0:0:
292,160,6190,5,0,0:0:0:0:
312,176,6267,1,0,0:0:0:0:
328,196,6344,1,0,0:0:0:0:
340,220,6421,1,0,0:0:0:0:
344,248,6498,1,0,0:0:0:0:
344,276,6575,2,0,L|332:328,3,35
80,176,7037,2,0,P|96:184|128:184,1,35
408,72,7190,2,0,L|424:40,2,35
143,120,7498,6,0,P|154:106|154:89,1,35
208,240,7652,2,0,P|211:256|202:271,1,35
304,135,7806,2,0,P|316:123|330:113,1,35
416,280,7960,2,0,B|424:296|424:296|416:328,1,35
104,336,8113,2,0,P|64:320|64:320,1,35
104,48,8267,2,0,P|112:36|152:52,1,35
396,104,8421,6,0,P|424:144|380:224,1,140
116,104,9344,6,0,P|88:144|132:224,1,140
323,87,10267,6,0,P|265:54|208:88,1,140
323,296,11190,6,0,P|265:329|208:296,1,140
256,192,11883,5,0,0:0:0:0:
256,180,11960,5,0,0:0:0:0:
164,68,12113,5,0,0:0:0:0:
364,136,12267,1,0,0:0:0:0:
132,264,12421,1,0,0:0:0:0:
284,64,12575,1,0,0:0:0:0:
264,308,12729,1,0,0:0:0:0:
96,152,12883,1,0,0:0:0:0:
344,236,13037,5,0,0:0:0:0:
136,52,13190,1,0,0:0:0:0:
184,312,13344,1,0,0:0:0:0:
380,76,13498,1,0,0:0:0:0:
104,272,13652,1,0,0:0:0:0:
392,184,13806,1,0,0:0:0:0:
72,96,13960,1,0,0:0:0:0:
308,288,14113,5,0,0:0:0:0:
184,56,14267,1,0,0:0:0:0:
420,120,14421,1,0,0:0:0:0:
168,232,14575,1,0,0:0:0:0:
296,44,14729,1,0,0:0:0:0:
392,240,14883,1,0,0:0:0:0:
104,156,15037,1,0,0:0:0:0:
376,48,15190,1,0,0:0:0:0:
216,316,15344,1,0,0:0:0:0:
104,76,15498,2,0,L|132:68,1,17.5
448,144,15652,2,0,L|420:132,1,17.5
212,56,15806,5,0,0:0:0:0:
252,68,15883,1,0,0:0:0:0:
292,84,15960,1,0,0:0:0:0:
328,108,16037,1,0,0:0:0:0:
356,136,16113,1,0,0:0:0:0:
380,172,16190,1,0,0:0:0:0:
396,212,16267,1,0,0:0:0:0:
412,252,16344,5,0,0:0:0:0:
396,252,16421,1,0,0:0:0:0:
380,252,16498,1,0,0:0:0:0:
364,252,16575,1,0,0:0:0:0:
348,252,16652,1,0,0:0:0:0:
336,252,16729,1,0,0:0:0:0:
324,292,16806,5,0,0:0:0:0:
288,316,16883,1,0,0:0:0:0:
248,328,16960,1,0,0:0:0:0:
208,332,17037,1,0,0:0:0:0:
168,328,17113,1,0,0:0:0:0:
128,316,17190,1,0,0:0:0:0:
92,296,17267,1,0,0:0:0:0:
60,268,17344,5,0,0:0:0:0:
64,256,17421,1,0,0:0:0:0:
72,244,17498,1,0,0:0:0:0:
80,236,17575,1,0,0:0:0:0:
92,228,17652,1,0,0:0:0:0:
104,188,17729,5,0,0:0:0:0:
128,152,17806,1,0,0:0:0:0:
160,124,17883,1,0,0:0:0:0:
200,112,17960,1,0,0:0:0:0:
240,104,18037,1,0,0:0:0:0:
280,104,18113,1,0,0:0:0:0:
320,108,18190,1,0,0:0:0:0:
360,116,18267,5,0,0:0:0:0:
372,108,18344,1,0,0:0:0:0:
384,104,18421,1,0,0:0:0:0:
396,96,18498,1,0,0:0:0:0:
408,92,18575,1,0,0:0:0:0:
360,60,18652,5,0,0:0:0:0:
304,44,18729,1,0,0:0:0:0:
248,36,18806,1,0,0:0:0:0:
192,32,18883,1,0,0:0:0:0:
136,36,18960,1,0,0:0:0:0:
80,52,19037,1,0,0:0:0:0:
100,104,19113,1,0,0:0:0:0:
124,156,19190,1,0,0:0:0:0:
148,208,19267,1,0,0:0:0:0:
172,260,19344,1,0,0:0:0:0:
224,280,19421,1,0,0:0:0:0:
280,272,19498,5,0,0:0:0:0:
308,272,19575,1,0,0:0:0:0:
336,268,19652,1,0,0:0:0:0:
364,260,19729,1,0,0:0:0:0:
388,248,19806,5,0,0:0:0:0:
384,236,19883,1,0,0:0:0:0:
380,224,19960,1,0,0:0:0:0:
376,212,20037,1,0,0:0:0:0:
372,200,20113,1,0,0:0:0:0:
400,192,20190,5,0,0:0:0:0:
416,168,20267,1,0,0:0:0:0:
424,140,20344,1,0,0:0:0:0:
424,112,20421,5,0,0:0:0:0:
416,100,20498,1,0,0:0:0:0:
408,88,20575,1,0,0:0:0:0:
400,76,20652,1,0,0:0:0:0:
392,64,20729,1,0,0:0:0:0:
364,60,20806,5,0,0:0:0:0:
340,72,20883,1,0,0:0:0:0:
320,88,20960,1,0,0:0:0:0:
304,112,21037,1,0,0:0:0:0:
292,116,21113,5,0,0:0:0:0:
280,120,21190,1,0,0:0:0:0:
268,124,21267,1,0,0:0:0:0:
256,128,21344,1,0,0:0:0:0:
280,144,21421,5,0,0:0:0:0:
300,164,21498,1,0,0:0:0:0:
316,184,21575,1,0,0:0:0:0:
328,208,21652,5,0,0:0:0:0:
324,220,21729,1,0,0:0:0:0:
320,232,21806,1,0,0:0:0:0:
316,244,21883,1,0,0:0:0:0:
312,256,21960,1,0,0:0:0:0:
284,264,22037,1,0,0:0:0:0:
256,264,22113,1,0,0:0:0:0:
228,260,22190,1,0,0:0:0:0:
240,284,22267,1,0,0:0:0:0:
240,284,22344,1,0,0:0:0:0:
240,284,22421,1,0,0:0:0:0:
240,284,22498,1,0,0:0:0:0:
240,284,22575,1,0,0:0:0:0:
240,284,22652,1,0,0:0:0:0:
240,284,22729,1,0,0:0:0:0:
240,284,22806,1,0,0:0:0:0:
240,284,22883,1,0,0:0:0:0:
240,284,22960,1,0,0:0:0:0:
240,284,23037,1,0,0:0:0:0:
240,284,23113,1,0,0:0:0:0:
244,288,23190,5,0,0:0:0:0:
256,292,23267,1,0,0:0:0:0:
268,296,23344,1,0,0:0:0:0:
352,144,23498,5,0,0:0:0:0:
340,140,23575,1,0,0:0:0:0:
328,136,23652,1,0,0:0:0:0:
316,132,23729,1,0,0:0:0:0:
304,128,23806,1,0,0:0:0:0:
292,124,23883,1,0,0:0:0:0:
280,120,23960,1,0,0:0:0:0:
268,116,24037,1,0,0:0:0:0:
256,112,24113,1,0,0:0:0:0:
88,72,24421,1,0,0:0:0:0:
440,192,24729,1,0,0:0:0:0:
188,92,25037,6,0,L|180:128,4,35
248,100,25421,2,0,L|236:144,4,35
404,176,25960,2,0,P|276:272|156:232,1,280
256,76,26729,1,0,0:0:0:0:
400,176,26883,6,0,L|432:200,4,35
256,76,27498,1,0,0:0:0:0:
168,244,27806,2,0,L|160:280,3,35
88,76,28421,1,0,0:0:0:0:
352,120,28729,2,0,L|328:184,4,35
372,136,29113,5,0,0:0:0:0:
368,148,29190,1,0,0:0:0:0:
364,160,29267,1,0,0:0:0:0:
360,172,29344,1,0,0:0:0:0:
380,192,29421,5,0,0:0:0:0:
376,204,29498,1,0,0:0:0:0:
368,216,29575,1,0,0:0:0:0:
364,228,29652,1,0,0:0:0:0:
148,296,29806,5,0,0:0:0:0:
192,80,29960,1,0,0:0:0:0:
252,296,30113,1,0,0:0:0:0:
196,84,30267,1,0,0:0:0:0:
344,284,30421,1,0,0:0:0:0:
196,84,30575,6,0,P|224:136|264:140,1,70
124,152,30883,2,0,P|168:196|200:192,1,70
92,252,31190,2,0,P|120:272|176:260,1,70
364,80,31498,6,0,L|352:176,1,70
280,72,31806,2,0,L|272:148,1,70
268,156,32037,1,0,0:0:0:0:
264,168,32113,1,0,0:0:0:0:
132,252,32421,5,0,0:0:0:0:
280,252,32575,1,0,0:0:0:0:
204,304,32729,1,0,0:0:0:0:
208,112,32883,1,0,0:0:0:0:
344,176,33037,1,0,0:0:0:0:
100,180,33190,1,0,0:0:0:0:
304,88,33344,1,0,0:0:0:0:
304,300,33498,1,0,0:0:0:0:
316,308,33575,1,0,0:0:0:0:
328,316,33652,1,0,0:0:0:0:
388,208,33960,6,0,L|344:188,1,35
324,204,34113,2,0,L|288:188,1,35
264,196,34267,1,0,0:0:0:0:
260,184,34344,1,0,0:0:0:0:
248,188,34421,1,0,0:0:0:0:
240,176,34498,1,0,0:0:0:0:
228,180,34575,1,0,0:0:0:0:
400,60,34883,1,0,0:0:0:0:
356,284,35190,5,0,0:0:0:0:
348,296,35267,1,0,0:0:0:0:
336,296,35344,1,0,0:0:0:0:
336,308,35421,1,0,0:0:0:0:
324,312,35498,1,0,0:0:0:0:
92,252,35806,1,0,0:0:0:0:
224,84,36113,5,0,0:0:0:0:
236,80,36190,1,0,0:0:0:0:
248,84,36267,1,0,0:0:0:0:
260,80,36344,1,0,0:0:0:0:
272,84,36421,1,0,0:0:0:0:
272,100,36498,5,0,0:0:0:0:
272,116,36575,1,0,0:0:0:0:
272,132,36652,1,0,0:0:0:0:
272,148,36729,1,0,0:0:0:0:
284,148,36806,5,0,0:0:0:0:
300,148,36883,1,0,0:0:0:0:
312,144,36960,1,0,0:0:0:0:
324,140,37037,2,0,B|380:116|392:152|392:152|368:208|332:228|332:228|336:276,2,210
116,120,38267,6,0,L|124:160,1,35
136,164,38421,2,0,L|144:204,1,35
152,208,38575,2,0,L|160:248,1,35
168,252,38729,2,0,L|208:232,1,35
208,228,38883,2,0,B|236:160|284:152|284:152|284:108,1,140
360,268,39498,1,0,0:0:0:0:
360,124,39806,6,0,P|328:68|252:56,1,140
168,176,40421,1,0,0:0:0:0:
288,260,40575,1,0,0:0:0:0:
364,188,40729,2,0,P|432:224|424:304,1,140
428,288,41113,1,0,0:0:0:0:
416,296,41190,1,0,0:0:0:0:
404,304,41267,1,0,0:0:0:0:
392,312,41344,1,0,0:0:0:0:
256,56,41652,5,0,0:0:0:0:
256,328,41960,5,0,0:0:0:0:
116,88,42267,5,0,0:0:0:0:
396,296,42575,5,0,0:0:0:0:
84,192,42883,5,0,0:0:0:0:
428,192,43190,5,0,0:0:0:0:
116,296,43498,5,0,0:0:0:0:
396,88,43806,5,0,0:0:0:0:
256,328,44113,5,0,0:0:0:0:
256,56,44421,5,0,0:0:0:0:
396,296,44729,5,0,0:0:0:0:
116,88,45037,5,0,0:0:0:0:
400,188,45344,6,0,L|348:192,1,35
120,216,45498,2,0,L|80:220,2,35
216,40,45806,2,0,L|232:72,1,35
324,244,45960,2,0,L|344:280,2,35
464,180,46267,5,0,0:0:0:0:
429,174,46343,1,0,0:0:0:0:
394,176,46420,1,0,0:0:0:0:
360,180,46497,1,0,0:0:0:0:
325,185,46574,1,0,0:0:0:0:
290,186,46651,1,0,0:0:0:0:
255,183,46728,1,0,0:0:0:0:
221,176,46805,1,0,0:0:0:0:
187,167,46882,1,0,0:0:0:0:
153,161,46959,1,0,0:0:0:0:
118,161,47036,1,0,0:0:0:0:
84,170,47113,1,0,0:0:0:0:
60,184,47190,6,0,L|44:232,2,35
344,300,47498,2,0,L|368:260,1,35
416,76,47652,2,0,L|432:36,2,35
224,124,47960,5,0,0:0:0:0:
212,111,48036,1,0,0:0:0:0:
205,95,48113,1,0,0:0:0:0:
205,77,48190,1,0,0:0:0:0:
210,61,48267,1,0,0:0:0:0:
221,47,48344,1,0,0:0:0:0:
235,38,48421,1,0,0:0:0:0:
252,34,48498,1,0,0:0:0:0:
270,37,48575,1,0,0:0:0:0:
285,46,48652,1,0,0:0:0:0:
296,59,48729,1,0,0:0:0:0:
302,75,48806,1,0,0:0:0:0:
302,93,48883,1,0,0:0:0:0:
296,109,48960,1,0,0:0:0:0:
288,128,49037,6,0,L|256:180,1,35
152,312,49190,2,0,L|128:344,2,35
124,96,49498,2,0,L|160:124,1,35
336,296,49652,2,0,L|368:332,2,35
364,96,49960,5,0,0:0:0:0:
392,92,50037,1,0,0:0:0:0:
420,96,50113,1,0,0:0:0:0:
444,112,50190,1,0,0:0:0:0:
460,136,50267,1,0,0:0:0:0:
468,164,50344,1,0,0:0:0:0:
468,192,50421,1,0,0:0:0:0:
460,220,50498,1,0,0:0:0:0:
440,240,50575,1,0,0:0:0:0:
412,236,50652,1,0,0:0:0:0:
384,232,50729,1,0,0:0:0:0:
356,228,50806,1,0,0:0:0:0:
328,224,50883,6,0,L|280:212,1,35
120,144,51037,2,0,L|84:124,2,35
232,328,51344,2,0,P|224:288|224:284,1,35
160,84,51498,2,0,L|148:40,2,35
348,56,51806,1,0,0:0:0:0:
364,80,51883,1,0,0:0:0:0:
376,104,51960,1,0,0:0:0:0:
384,132,52037,1,0,0:0:0:0:
388,160,52113,1,0,0:0:0:0:
388,168,52190,1,0,0:0:0:0:
388,176,52267,1,0,0:0:0:0:
388,184,52344,1,0,0:0:0:0:
388,192,52421,1,0,0:0:0:0:
388,200,52498,1,0,0:0:0:0:
388,208,52575,1,0,0:0:0:0:
388,216,52652,1,0,0:0:0:0:
388,224,52729,1,0,0:0:0:0:
268,352,53087,5,0,0:0:0:0:
224,304,53241,1,0,0:0:0:0:
324,296,53395,5,0,0:0:0:0:
332,232,53549,1,0,0:0:0:0:
196,224,53703,5,0,0:0:0:0:
180,160,53857,1,0,0:0:0:0:
360,152,54011,5,0,0:0:0:0:
372,92,54164,1,0,0:0:0:0:
176,88,54318,5,0,0:0:0:0:
168,20,54472,1,0,0:0:0:0:
84,72,54575,5,0,0:0:0:0:
460,200,54729,5,0,0:0:0:0:
464,200,55037,5,0,0:0:0:0:
92,312,55190,5,0,0:0:0:0:
260,44,55498,5,0,0:0:0:0:
408,324,55806,5,0,0:0:0:0:
100,144,56113,5,0,0:0:0:0:
104,148,56421,6,0,P|128:236|196:128,1,280
104,152,57344,2,0,P|200:228|296:128,1,280
108,152,58267,6,0,P|208:200|352:96,1,280
112,152,59190,2,0,P|256:168|400:140,1,280
412,128,59883,5,0,0:0:0:0:
436,116,59960,5,0,0:0:0:0:
484,84,60113,1,0,0:0:0:0:
148,296,60267,1,0,0:0:0:0:
236,24,60421,1,0,0:0:0:0:
420,324,60575,1,0,0:0:0:0:
72,84,60729,1,0,0:0:0:0:
488,144,60883,1,0,0:0:0:0:
204,324,61037,5,0,0:0:0:0:
296,12,61190,1,0,0:0:0:0:
432,260,61344,1,0,0:0:0:0:
80,212,61498,1,0,0:0:0:0:
384,64,61652,1,0,0:0:0:0:
264,312,61806,1,0,0:0:0:0:
124,40,61960,5,0,0:0:0:0:
432,160,62113,1,0,0:0:0:0:
120,304,62267,1,0,0:0:0:0:
300,44,62421,1,0,0:0:0:0:
368,320,62575,1,0,0:0:0:0:
104,104,62729,1,0,0:0:0:0:
472,116,62883,5,0,0:0:0:0:
88,240,63037,1,0,0:0:0:0:
460,276,63190,1,0,0:0:0:0:
68,32,63344,1,0,0:0:0:0:
444,60,63498,1,0,0:0:0:0:
112,344,63806,6,0,P|92:292|100:248,1,90.9999958343508
180,304,64113,2,0,P|160:252|168:208,1,90.9999958343508
400,343,64421,2,0,P|418:302|415:258,1,90.9999958343508
332,304,64729,2,0,P|352:252|344:208,1,90.9999958343508
112,40,65037,6,0,P|92:92|100:136,1,90.9999958343508
179,80,65344,2,0,P|161:121|164:165,1,90.9999958343508
400,40,65652,2,0,P|418:81|415:125,1,90.9999958343508
332,80,65960,2,0,P|350:121|347:165,1,90.9999958343508
180,332,66267,6,0,L|152:224,1,90.9999958343508
388,224,66575,2,0,L|268:228,1,90.9999958343508
204,48,66883,2,0,L|184:164,1,90.9999958343508
388,104,67190,2,0,L|288:172,1,90.9999958343508
132,244,67498,6,0,L|32:216,1,90.9999958343508
244,176,67806,2,0,L|140:196,1,90.9999958343508
296,248,68113,2,0,L|200:240,1,90.9999958343508
388,168,68421,2,0,L|284:200,1,90.9999958343508
232,134,68729,6,0,L|301:194,1,90.9999958343508
184,296,69037,2,0,L|284:316,1,90.9999958343508
424,236,69344,2,0,L|440:132,1,90.9999958343508
304,48,69652,2,0,L|208:32,1,90.9999958343508
56,120,69960,2,0,L|44:216,1,90.9999958343508
424,236,70267,2,0,L|440:132,1,90.9999958343508
56,120,70575,2,0,L|44:216,1,90.9999958343508
296,60,70883,5,0,0:0:0:0:
300,76,70960,1,0,0:0:0:0:
304,96,71037,1,0,0:0:0:0:
304,112,71113,1,0,0:0:0:0:
304,132,71190,1,0,0:0:0:0:
128,80,71498,5,0,0:0:0:0:
96,280,71652,1,0,0:0:0:0:
236,68,71806,1,0,0:0:0:0:
220,316,71960,1,0,0:0:0:0:
336,68,72113,2,0,P|368:84|416:132,1,90.9999958343508
288,128,72421,2,0,P|348:144|372:184,1,90.9999958343508
96,280,72729,2,0,P|140:252|200:284,1,90.9999958343508
132,336,73037,2,0,P|56:332|48:288,1,90.9999958343508
184,48,73344,5,0,0:0:0:0:
376,320,73498,1,0,0:0:0:0:
96,152,73652,1,0,0:0:0:0:
404,128,73806,1,0,0:0:0:0:
92,276,73960,1,0,0:0:0:0:
96,260,74037,1,0,0:0:0:0:
104,244,74113,1,0,0:0:0:0:
112,228,74190,1,0,0:0:0:0:
124,216,74267,1,0,0:0:0:0:
152,192,74344,1,0,0:0:0:0:
184,172,74421,5,0,0:0:0:0:
220,160,74498,1,0,0:0:0:0:
256,156,74575,1,0,0:0:0:0:
308,164,74652,1,0,0:0:0:0:
360,184,74729,1,0,0:0:0:0:
408,212,74806,1,0,0:0:0:0:
444,252,74883,1,0,0:0:0:0:
124,56,75190,5,0,0:0:0:0:
456,96,75498,5,0,0:0:0:0:
108,132,75806,5,0,0:0:0:0:
276,136,75960,1,0,0:0:0:0:
440,184,76113,1,0,0:0:0:0:
316,336,76421,1,0,0:0:0:0:
212,40,76729,5,0,0:0:0:0:
248,32,76806,1,0,0:0:0:0:
280,44,76883,1,0,0:0:0:0:
308,68,76960,1,0,0:0:0:0:
328,100,77037,1,0,0:0:0:0:
328,136,77113,1,0,0:0:0:0:
316,172,77190,1,0,0:0:0:0:
292,200,77267,1,0,0:0:0:0:
112,340,77344,6,0,L|164:328,1,35
448,296,77498,2,0,L|412:280,1,35
80,188,77652,2,0,L|124:176,1,35
436,148,77806,2,0,L|400:140,1,35
96,32,77960,1,0,0:0:0:0:
324,52,78267,5,0,0:0:0:0:
324,52,78344,1,0,0:0:0:0:
324,52,78421,1,0,0:0:0:0:
324,52,78498,1,0,0:0:0:0:
360,52,78575,1,0,0:0:0:0:
400,76,78652,1,0,0:0:0:0:
412,120,78729,1,0,0:0:0:0:
392,160,78806,1,0,0:0:0:0:
348,168,78883,1,0,0:0:0:0:
304,152,78960,1,0,0:0:0:0:
348,148,79037,5,0,0:0:0:0:
384,176,79113,1,0,0:0:0:0:
400,220,79190,1,0,0:0:0:0:
372,256,79267,1,0,0:0:0:0:
328,272,79344,1,0,0:0:0:0:
284,264,79421,1,0,0:0:0:0:
320,240,79498,5,0,0:0:0:0:
344,200,79575,1,0,0:0:0:0:
348,156,79652,1,0,0:0:0:0:
328,116,79729,1,0,0:0:0:0:
296,84,79806,1,0,0:0:0:0:
340,68,79883,5,0,0:0:0:0:
384,64,79960,1,0,0:0:0:0:
420,92,80037,1,0,0:0:0:0:
440,132,80113,1,0,0:0:0:0:
436,176,80190,1,0,0:0:0:0:
420,220,80267,1,0,0:0:0:0:
388,252,80344,1,0,0:0:0:0:
344,268,80421,1,0,0:0:0:0:
376,300,80498,5,0,0:0:0:0:
388,344,80575,1,0,0:0:0:0:
352,372,80652,1,0,0:0:0:0:
308,364,80729,1,0,0:0:0:0:
272,340,80806,1,0,0:0:0:0:
248,300,80883,1,0,0:0:0:0:
216,268,80960,1,0,0:0:0:0:
172,256,81037,1,0,0:0:0:0:
128,264,81113,1,0,0:0:0:0:
88,284,81190,1,0,0:0:0:0:
60,320,81267,1,0,0:0:0:0:
32,356,81344,5,0,0:0:0:0:
32,296,81421,1,0,0:0:0:0:
32,236,81498,1,0,0:0:0:0:
32,176,81575,1,0,0:0:0:0:
32,116,81652,1,0,0:0:0:0:
32,56,81729,1,0,0:0:0:0:
84,28,81806,1,0,0:0:0:0:
144,36,81883,1,0,0:0:0:0:
196,64,81960,1,0,0:0:0:0:
212,120,82037,1,0,0:0:0:0:
200,176,82113,1,0,0:0:0:0:
156,216,82190,1,0,0:0:0:0:
96,220,82267,1,0,0:0:0:0:
108,176,82344,5,0,0:0:0:0:
144,152,82421,1,0,0:0:0:0:
188,156,82498,1,0,0:0:0:0:
224,188,82575,1,0,0:0:0:0:
212,144,82652,5,0,0:0:0:0:
248,116,82729,1,0,0:0:0:0:
292,108,82806,1,0,0:0:0:0:
336,124,82883,1,0,0:0:0:0:
344,80,82960,5,0,0:0:0:0:
380,52,83037,1,0,0:0:0:0:
424,60,83113,1,0,0:0:0:0:
460,92,83190,1,0,0:0:0:0:
472,136,83267,1,0,0:0:0:0:
472,180,83344,1,0,0:0:0:0:
460,224,83421,1,0,0:0:0:0:
456,268,83498,1,0,0:0:0:0:
440,228,83575,5,0,0:0:0:0:
396,220,83652,1,0,0:0:0:0:
352,228,83729,1,0,0:0:0:0:
324,264,83806,1,0,0:0:0:0:
312,272,83883,1,0,0:0:0:0:
300,280,83960,1,0,0:0:0:0:
288,288,84037,1,0,0:0:0:0:
276,296,84113,1,0,0:0:0:0:
296,256,84190,5,0,0:0:0:0:
268,220,84267,1,0,0:0:0:0:
224,220,84344,1,0,0:0:0:0:
192,252,84421,1,0,0:0:0:0:
188,240,84498,1,0,0:0:0:0:
184,228,84575,1,0,0:0:0:0:
180,216,84652,1,0,0:0:0:0:
176,204,84729,1,0,0:0:0:0:
152,244,84806,5,0,0:0:0:0:
108,256,84883,1,0,0:0:0:0:
72,228,84960,1,0,0:0:0:0:
84,184,85037,1,0,0:0:0:0:
96,176,85113,1,0,0:0:0:0:
108,168,85190,1,0,0:0:0:0:
120,160,85267,1,0,0:0:0:0:
132,152,85344,1,0,0:0:0:0:
88,144,85421,5,0,0:0:0:0:
64,108,85498,1,0,0:0:0:0:
84,68,85575,1,0,0:0:0:0:
128,52,85652,1,0,0:0:0:0:
140,48,85729,1,0,0:0:0:0:
152,44,85806,1,0,0:0:0:0:
164,40,85883,1,0,0:0:0:0:
176,36,85960,2,0,L|220:48,1,35
404,208,86113,2,0,L|448:232,2,35
320,40,86421,2,0,L|300:76,1,35
244,296,86575,2,0,L|228:336,2,35
96,344,86883,5,0,0:0:0:0:
120,304,86960,1,0,0:0:0:0:
116,260,87037,1,0,0:0:0:0:
100,220,87113,1,0,0:0:0:0:
88,176,87190,1,0,0:0:0:0:
100,132,87267,1,0,0:0:0:0:
124,92,87344,1,0,0:0:0:0:
160,68,87421,1,0,0:0:0:0:
204,60,87498,5,0,0:0:0:0:
212,72,87575,1,0,0:0:0:0:
220,84,87652,1,0,0:0:0:0:
228,96,87729,1,0,0:0:0:0:
236,108,87806,1,0,0:0:0:0:
384,316,87960,5,0,0:0:0:0:
260,36,88113,5,0,0:0:0:0:
124,312,88267,5,0,0:0:0:0:
400,120,88421,5,0,0:0:0:0:
92,120,88575,5,0,0:0:0:0:
384,316,88729,5,0,0:0:0:0:
