osu file format v14

[General]
AudioFilename: audio.ogg
AudioLeadIn: 0
PreviewTime: 63576
Countdown: 0
SampleSet: Normal
StackLeniency: 0.7
Mode: 3
LetterboxInBreaks: 0
SpecialStyle: 0
WidescreenStoryboard: 0

[Editor]
Bookmarks: 456,3816,19176,34536,63336,65256,95976,103656,132456,134856,165096,180456,194856,195816,211176,226536
DistanceSpacing: 2.2
BeatDivisor: 12
GridSize: 4
TimelineZoom: 4.399998

[Metadata]
Title:Drawing Shapes (catch me if you can)
TitleUnicode:Drawing Shapes (catch me if you can)
Artist:Patrick O'Neill
ArtistUnicode:Patrick O'Neill
Creator:Relae
Version:Conflicted Whispers
Source:
Tags:experimental rock english pop I Am Having So Much Fun hip hop alternative
BeatmapID:4229239
BeatmapSetID:2029599

[Difficulty]
HPDrainRate:7.9
CircleSize:4
OverallDifficulty:7.9
ApproachRate:5
SliderMultiplier:3
SliderTickRate:1

[Events]
//Background and Video events
0,0,"blueandyellow.jpg",0,0
//Break Periods
//Storyboard Layer 0 (Background)
//Storyboard Layer 1 (Fail)
//Storyboard Layer 2 (Pass)
//Storyboard Layer 3 (Foreground)
//Storyboard Layer 4 (Overlay)
//Storyboard Sound Samples

[TimingPoints]
3816,480,4,1,1,30,1,0
65256,-100,4,1,1,30,0,1
95976,-100,4,1,1,30,0,0
134856,-100,4,1,1,30,0,1
165096,-100,4,1,1,30,0,0
195816,-100,4,1,1,30,0,1
199416,-100,4,1,1,30,0,0
199896,-100,4,1,1,30,0,1
226536,-100,4,1,1,30,0,0

[HitObjects]
64,192,3816,5,0,0:0:0:0:
320,192,3876,1,0,0:0:0:0:
64,192,4056,1,0,0:0:0:0:
320,192,4116,1,0,0:0:0:0:
192,192,4296,1,0,0:0:0:0:
192,192,4536,1,0,0:0:0:0:
320,192,4776,1,0,0:0:0:0:
64,192,4836,1,0,0:0:0:0:
192,192,5016,1,0,0:0:0:0:
192,192,5256,1,0,0:0:0:0:
64,192,5496,1,0,0:0:0:0:
320,192,5556,1,0,0:0:0:0:
448,192,6216,1,0,0:0:0:0:
192,192,6276,1,0,0:0:0:0:
320,192,6696,1,0,0:0:0:0:
64,192,6936,128,0,7056:0:0:0:0:
192,192,6976,128,0,7056:0:0:0:0:
64,192,7176,128,0,7296:0:0:0:0:
192,192,7176,128,0,7296:0:0:0:0:
192,192,7416,128,0,7536:0:0:0:0:
64,192,7456,128,0,7536:0:0:0:0:
448,192,7656,5,0,0:0:0:0:
192,192,7716,1,0,0:0:0:0:
448,192,7896,1,0,0:0:0:0:
192,192,7956,1,0,0:0:0:0:
320,192,8136,1,0,0:0:0:0:
320,192,8376,1,0,0:0:0:0:
192,192,8616,1,0,0:0:0:0:
448,192,8676,1,0,0:0:0:0:
320,192,8856,1,0,0:0:0:0:
320,192,9096,1,0,0:0:0:0:
448,192,9336,1,0,0:0:0:0:
192,192,9396,1,0,0:0:0:0:
64,192,10056,1,0,0:0:0:0:
320,192,10116,1,0,0:0:0:0:
192,192,10536,1,0,0:0:0:0:
448,192,10776,128,0,10936:0:0:0:0:
64,192,10856,128,0,11016:0:0:0:0:
192,192,10936,128,0,11096:0:0:0:0:
320,192,11016,128,0,11176:0:0:0:0:
448,192,11096,128,0,11256:0:0:0:0:
192,192,11196,128,0,11256:0:0:0:0:
320,192,11256,128,0,11316:0:0:0:0:
64,192,11316,1,0,0:0:0:0:
448,192,11376,1,0,0:0:0:0:
64,192,11496,5,0,0:0:0:0:
320,192,11556,1,0,0:0:0:0:
64,192,11736,1,0,0:0:0:0:
320,192,11796,1,0,0:0:0:0:
192,192,11976,1,0,0:0:0:0:
192,192,12216,1,0,0:0:0:0:
320,192,12456,1,0,0:0:0:0:
64,192,12516,1,0,0:0:0:0:
192,192,12696,1,0,0:0:0:0:
192,192,12936,1,0,0:0:0:0:
64,192,13176,1,0,0:0:0:0:
320,192,13236,1,0,0:0:0:0:
448,192,13896,1,0,0:0:0:0:
192,192,13956,1,0,0:0:0:0:
320,192,14376,1,0,0:0:0:0:
64,192,14616,128,0,14736:0:0:0:0:
64,192,14856,128,0,14976:0:0:0:0:
320,192,15096,128,0,15216:0:0:0:0:
448,192,15336,5,0,0:0:0:0:
192,192,15396,1,0,0:0:0:0:
448,192,15576,1,0,0:0:0:0:
192,192,15636,1,0,0:0:0:0:
320,192,15816,1,0,0:0:0:0:
320,192,16056,1,0,0:0:0:0:
192,192,16296,1,0,0:0:0:0:
448,192,16356,1,0,0:0:0:0:
320,192,16536,1,0,0:0:0:0:
192,192,16776,1,0,0:0:0:0:
320,192,17016,1,0,0:0:0:0:
64,192,17076,1,0,0:0:0:0:
192,192,17736,1,0,0:0:0:0:
448,192,17796,1,0,0:0:0:0:
192,192,18216,1,0,0:0:0:0:
448,192,18456,128,0,18516:0:0:0:0:
64,192,18516,128,0,18576:0:0:0:0:
320,192,18576,128,0,18636:0:0:0:0:
192,192,18636,128,0,18696:0:0:0:0:
448,192,18696,128,0,18756:0:0:0:0:
320,192,18756,128,0,18816:0:0:0:0:
192,192,18816,128,0,18936:0:0:0:0:
64,192,18936,128,0,19016:0:0:0:0:
448,192,19016,128,0,19096:0:0:0:0:
320,192,19096,128,0,19176:0:0:0:0:
64,192,19176,5,0,0:0:0:0:
448,192,19236,1,0,0:0:0:0:
64,192,19416,1,0,0:0:0:0:
448,192,19476,1,0,0:0:0:0:
192,192,19656,1,0,0:0:0:0:
192,192,19896,1,0,0:0:0:0:
448,192,20136,1,0,0:0:0:0:
64,192,20196,1,0,0:0:0:0:
320,192,20376,1,0,0:0:0:0:
320,192,20616,1,0,0:0:0:0:
64,192,20856,1,0,0:0:0:0:
320,192,20916,1,0,0:0:0:0:
192,192,21096,128,0,21216:0:0:0:0:
192,192,21336,128,0,21456:0:0:0:0:
448,192,21576,128,0,21816:0:0:0:0:
192,192,21636,1,0,0:0:0:0:
64,192,21816,128,0,22056:0:0:0:0:
320,192,22056,1,0,0:0:0:0:
192,192,22296,128,0,22536:0:0:0:0:
320,192,22776,128,0,22896:0:0:0:0:
448,192,23016,5,0,0:0:0:0:
192,192,23076,1,0,0:0:0:0:
448,192,23256,1,0,0:0:0:0:
192,192,23316,1,0,0:0:0:0:
320,192,23496,1,0,0:0:0:0:
320,192,23736,1,0,0:0:0:0:
64,192,23976,1,0,0:0:0:0:
320,192,24036,1,0,0:0:0:0:
192,192,24216,1,0,0:0:0:0:
192,192,24456,1,0,0:0:0:0:
448,192,24696,1,0,0:0:0:0:
192,192,24756,1,0,0:0:0:0:
448,192,24936,128,0,25176:0:0:0:0:
192,192,25176,128,0,25296:0:0:0:0:
64,192,25416,128,0,25656:0:0:0:0:
448,192,25476,1,0,0:0:0:0:
320,192,25656,128,0,25896:0:0:0:0:
64,192,25896,128,0,26136:0:0:0:0:
320,192,26136,128,0,26196:0:0:0:0:
192,192,26256,128,0,26316:0:0:0:0:
320,192,26376,128,0,26436:0:0:0:0:
64,192,26616,128,0,26676:0:0:0:0:
448,192,26856,5,0,0:0:0:0:
192,192,26916,1,0,0:0:0:0:
448,192,27096,1,0,0:0:0:0:
192,192,27156,1,0,0:0:0:0:
320,192,27336,1,0,0:0:0:0:
192,192,27576,1,0,0:0:0:0:
64,192,27816,1,0,0:0:0:0:
320,192,27876,1,0,0:0:0:0:
192,192,28056,1,0,0:0:0:0:
192,192,28296,1,0,0:0:0:0:
320,192,28536,1,0,0:0:0:0:
64,192,28596,1,0,0:0:0:0:
320,192,28776,128,0,28896:0:0:0:0:
320,192,29016,128,0,29136:0:0:0:0:
64,192,29256,128,0,29496:0:0:0:0:
320,192,29316,1,0,0:0:0:0:
448,192,29496,128,0,29736:0:0:0:0:
192,192,29736,1,0,0:0:0:0:
448,192,29976,128,0,30096:0:0:0:0:
320,192,30016,128,0,30096:0:0:0:0:
448,192,30216,128,0,30336:0:0:0:0:
320,192,30216,128,0,30336:0:0:0:0:
320,192,30456,128,0,30576:0:0:0:0:
448,192,30496,128,0,30576:0:0:0:0:
64,192,30696,5,0,0:0:0:0:
320,192,30756,1,0,0:0:0:0:
64,192,30936,1,0,0:0:0:0:
320,192,30996,1,0,0:0:0:0:
192,192,31176,1,0,0:0:0:0:
192,192,31416,1,0,0:0:0:0:
448,192,31656,1,0,0:0:0:0:
192,192,31716,1,0,0:0:0:0:
320,192,31896,1,0,0:0:0:0:
320,192,32136,1,0,0:0:0:0:
192,192,32376,1,0,0:0:0:0:
448,192,32436,1,0,0:0:0:0:
320,192,32616,128,0,32856:0:0:0:0:
64,192,32856,128,0,32976:0:0:0:0:
320,192,33096,128,0,33336:0:0:0:0:
64,192,33156,1,0,0:0:0:0:
192,192,33336,128,0,33576:0:0:0:0:
448,192,33576,128,0,33816:0:0:0:0:
64,192,33816,128,0,33936:0:0:0:0:
448,192,33936,128,0,33996:0:0:0:0:
192,192,33996,128,0,34056:0:0:0:0:
320,192,34056,128,0,34116:0:0:0:0:
64,192,34116,128,0,34176:0:0:0:0:
448,192,34176,128,0,34296:0:0:0:0:
320,192,34236,128,0,34296:0:0:0:0:
192,192,34296,128,0,34376:0:0:0:0:
64,192,34376,128,0,34456:0:0:0:0:
448,192,34456,128,0,34536:0:0:0:0:
320,192,34536,1,0,0:0:0:0:
64,192,34776,128,0,34856:0:0:0:0:
448,192,34856,128,0,35016:0:0:0:0:
64,192,35016,1,0,0:0:0:0:
192,192,35016,1,0,0:0:0:0:
192,192,35496,1,0,0:0:0:0:
64,192,35556,1,0,0:0:0:0:
448,192,35616,1,0,0:0:0:0:
192,192,35676,1,0,0:0:0:0:
320,192,35736,1,0,0:0:0:0:
64,192,35796,1,0,0:0:0:0:
448,192,35976,1,0,0:0:0:0:
320,192,35976,1,0,0:0:0:0:
64,192,36216,1,0,0:0:0:0:
320,192,36276,1,0,0:0:0:0:
192,192,36456,128,0,36576:0:0:0:0:
64,192,36936,1,0,0:0:0:0:
192,192,36936,1,0,0:0:0:0:
448,192,37176,128,0,37296:0:0:0:0:
320,192,37416,128,0,37536:0:0:0:0:
64,192,37476,1,0,0:0:0:0:
448,192,37656,1,0,0:0:0:0:
192,192,37716,1,0,0:0:0:0:
448,192,37896,1,0,0:0:0:0:
320,192,37896,1,0,0:0:0:0:
64,192,37896,1,0,0:0:0:0:
64,192,38136,1,0,0:0:0:0:
192,192,38136,1,0,0:0:0:0:
448,192,38136,1,0,0:0:0:0:
320,192,38316,1,0,0:0:0:0:
192,192,38376,1,0,0:0:0:0:
64,192,38436,1,0,0:0:0:0:
448,192,38496,1,0,0:0:0:0:
320,192,38556,1,0,0:0:0:0:
192,192,38616,1,0,0:0:0:0:
320,192,38856,1,0,0:0:0:0:
448,192,38856,1,0,0:0:0:0:
320,192,39336,1,0,0:0:0:0:
64,192,39456,1,0,0:0:0:0:
192,192,39456,1,0,0:0:0:0:
448,192,39576,1,0,0:0:0:0:
192,192,39636,1,0,0:0:0:0:
320,192,39816,1,0,0:0:0:0:
448,192,39816,1,0,0:0:0:0:
64,192,40056,1,0,0:0:0:0:
320,192,40116,1,0,0:0:0:0:
64,192,40776,1,0,0:0:0:0:
192,192,40776,1,0,0:0:0:0:
448,192,40836,1,0,0:0:0:0:
320,192,41016,1,0,0:0:0:0:
192,192,41076,1,0,0:0:0:0:
448,192,41256,1,0,0:0:0:0:
192,192,41496,1,0,0:0:0:0:
320,192,41736,128,0,42216:0:0:0:0:
448,192,41736,1,0,0:0:0:0:
64,192,42216,1,0,0:0:0:0:
448,192,42216,1,0,0:0:0:0:
192,192,42396,1,0,0:0:0:0:
448,192,42456,128,0,42576:0:0:0:0:
64,192,42576,128,0,42696:0:0:0:0:
320,192,42696,1,0,0:0:0:0:
192,192,42756,1,0,0:0:0:0:
64,192,43176,1,0,0:0:0:0:
192,192,43236,1,0,0:0:0:0:
320,192,43296,1,0,0:0:0:0:
448,192,43356,1,0,0:0:0:0:
64,192,43416,1,0,0:0:0:0:
192,192,43416,1,0,0:0:0:0:
64,192,43656,1,0,0:0:0:0:
448,192,43656,1,0,0:0:0:0:
320,192,43896,1,0,0:0:0:0:
192,192,43956,1,0,0:0:0:0:
320,192,44136,1,0,0:0:0:0:
192,192,44256,1,0,0:0:0:0:
448,192,44616,1,0,0:0:0:0:
320,192,44616,1,0,0:0:0:0:
64,192,45096,1,0,0:0:0:0:
192,192,45096,1,0,0:0:0:0:
64,192,45336,1,0,0:0:0:0:
192,192,45336,1,0,0:0:0:0:
448,192,45576,1,0,0:0:0:0:
320,192,45576,1,0,0:0:0:0:
192,192,45816,1,0,0:0:0:0:
448,192,45936,128,0,46056:0:0:0:0:
64,192,46056,1,0,0:0:0:0:
192,192,46056,1,0,0:0:0:0:
320,192,46116,1,0,0:0:0:0:
448,192,46176,1,0,0:0:0:0:
64,192,46236,1,0,0:0:0:0:
192,192,46296,1,0,0:0:0:0:
320,192,46356,1,0,0:0:0:0:
64,192,46536,1,0,0:0:0:0:
192,192,46536,1,0,0:0:0:0:
320,192,47016,1,0,0:0:0:0:
192,192,47136,1,0,0:0:0:0:
64,192,47136,1,0,0:0:0:0:
448,192,47256,1,0,0:0:0:0:
320,192,47256,1,0,0:0:0:0:
64,192,47496,1,0,0:0:0:0:
192,192,47496,1,0,0:0:0:0:
448,192,47496,1,0,0:0:0:0:
448,192,47736,1,0,0:0:0:0:
64,192,47736,1,0,0:0:0:0:
320,192,47736,1,0,0:0:0:0:
64,192,48456,1,0,0:0:0:0:
192,192,48456,1,0,0:0:0:0:
320,192,48696,1,0,0:0:0:0:
192,192,48756,1,0,0:0:0:0:
448,192,48936,128,0,49296:0:0:0:0:
192,192,49176,128,0,49416:0:0:0:0:
64,192,49176,128,0,49416:0:0:0:0:
320,192,49416,1,0,0:0:0:0:
448,192,49416,1,0,0:0:0:0:
448,192,49656,1,0,0:0:0:0:
192,192,49656,1,0,0:0:0:0:
64,192,49896,1,0,0:0:0:0:
320,192,49956,1,0,0:0:0:0:
320,192,50176,128,0,50216:0:0:0:0:
448,192,50376,1,0,0:0:0:0:
64,192,50376,1,0,0:0:0:0:
192,192,50616,1,0,0:0:0:0:
320,192,50616,1,0,0:0:0:0:
448,192,50856,1,0,0:0:0:0:
64,192,50916,1,0,0:0:0:0:
320,192,50976,1,0,0:0:0:0:
192,192,51036,1,0,0:0:0:0:
448,192,51096,1,0,0:0:0:0:
64,192,51156,1,0,0:0:0:0:
320,192,51336,1,0,0:0:0:0:
192,192,51336,1,0,0:0:0:0:
448,192,51576,1,0,0:0:0:0:
64,192,51636,1,0,0:0:0:0:
448,192,51816,1,0,0:0:0:0:
64,192,51936,1,0,0:0:0:0:
192,192,52296,1,0,0:0:0:0:
320,192,52296,1,0,0:0:0:0:
448,192,52536,1,0,0:0:0:0:
64,192,52776,1,0,0:0:0:0:
320,192,52836,1,0,0:0:0:0:
64,192,53016,1,0,0:0:0:0:
320,192,53076,1,0,0:0:0:0:
448,192,53256,1,0,0:0:0:0:
192,192,53256,1,0,0:0:0:0:
64,192,53256,1,0,0:0:0:0:
448,192,53496,1,0,0:0:0:0:
320,192,53496,1,0,0:0:0:0:
192,192,53496,1,0,0:0:0:0:
64,192,53676,1,0,0:0:0:0:
192,192,53736,1,0,0:0:0:0:
320,192,53796,1,0,0:0:0:0:
448,192,53856,1,0,0:0:0:0:
64,192,53916,1,0,0:0:0:0:
192,192,53976,1,0,0:0:0:0:
448,192,54216,1,0,0:0:0:0:
320,192,54216,1,0,0:0:0:0:
192,192,54696,1,0,0:0:0:0:
64,192,54816,1,0,0:0:0:0:
448,192,54816,1,0,0:0:0:0:
320,192,54936,1,0,0:0:0:0:
192,192,54996,1,0,0:0:0:0:
448,192,55176,1,0,0:0:0:0:
64,192,55176,1,0,0:0:0:0:
192,192,55416,1,0,0:0:0:0:
320,192,55476,1,0,0:0:0:0:
192,192,56136,1,0,0:0:0:0:
64,192,56136,1,0,0:0:0:0:
448,192,56196,1,0,0:0:0:0:
192,192,56376,1,0,0:0:0:0:
448,192,56436,1,0,0:0:0:0:
320,192,56616,1,0,0:0:0:0:
64,192,56856,1,0,0:0:0:0:
320,192,56916,1,0,0:0:0:0:
192,192,57096,1,0,0:0:0:0:
64,192,57096,1,0,0:0:0:0:
448,192,57576,1,0,0:0:0:0:
320,192,57576,1,0,0:0:0:0:
320,192,58056,1,0,0:0:0:0:
448,192,58056,1,0,0:0:0:0:
64,192,58116,1,0,0:0:0:0:
192,192,58296,1,0,0:0:0:0:
64,192,58296,1,0,0:0:0:0:
448,192,58536,1,0,0:0:0:0:
320,192,58596,1,0,0:0:0:0:
64,192,58656,1,0,0:0:0:0:
192,192,58716,1,0,0:0:0:0:
448,192,58776,1,0,0:0:0:0:
320,192,58776,1,0,0:0:0:0:
64,192,58836,1,0,0:0:0:0:
192,192,59016,1,0,0:0:0:0:
320,192,59016,1,0,0:0:0:0:
448,192,59256,1,0,0:0:0:0:
64,192,59316,1,0,0:0:0:0:
448,192,59496,1,0,0:0:0:0:
64,192,59616,1,0,0:0:0:0:
192,192,59976,1,0,0:0:0:0:
64,192,59976,1,0,0:0:0:0:
192,192,60216,1,0,0:0:0:0:
448,192,60456,1,0,0:0:0:0:
320,192,60456,1,0,0:0:0:0:
320,192,60696,1,0,0:0:0:0:
448,192,60696,1,0,0:0:0:0:
64,192,60936,1,0,0:0:0:0:
192,192,60936,1,0,0:0:0:0:
192,192,61176,1,0,0:0:0:0:
448,192,61176,1,0,0:0:0:0:
64,192,61296,128,0,61416:0:0:0:0:
448,192,61416,1,0,0:0:0:0:
320,192,61416,1,0,0:0:0:0:
192,192,61476,1,0,0:0:0:0:
64,192,61536,1,0,0:0:0:0:
320,192,61596,1,0,0:0:0:0:
448,192,61656,1,0,0:0:0:0:
64,192,61896,1,0,0:0:0:0:
192,192,61896,1,0,0:0:0:0:
192,192,62376,1,0,0:0:0:0:
320,192,62496,1,0,0:0:0:0:
448,192,62496,1,0,0:0:0:0:
64,192,62616,1,0,0:0:0:0:
192,192,62616,1,0,0:0:0:0:
448,192,62856,1,0,0:0:0:0:
320,192,62856,1,0,0:0:0:0:
64,192,62856,1,0,0:0:0:0:
64,192,63096,1,0,0:0:0:0:
192,192,63096,1,0,0:0:0:0:
320,192,63096,1,0,0:0:0:0:
192,192,63816,1,0,0:0:0:0:
64,192,63876,1,0,0:0:0:0:
320,192,63876,1,0,0:0:0:0:
64,192,65256,1,0,0:0:0:0:
192,192,65256,1,0,0:0:0:0:
64,192,65496,1,0,0:0:0:0:
320,192,65556,1,0,0:0:0:0:
448,192,65736,1,0,0:0:0:0:
192,192,65736,1,0,0:0:0:0:
64,192,65736,1,0,0:0:0:0:
320,192,65976,1,0,0:0:0:0:
448,192,65976,1,0,0:0:0:0:
192,192,66216,1,0,0:0:0:0:
448,192,66276,1,0,0:0:0:0:
64,192,66456,1,0,0:0:0:0:
192,192,66456,1,0,0:0:0:0:
448,192,66696,1,0,0:0:0:0:
320,192,66696,1,0,0:0:0:0:
64,192,66696,1,0,0:0:0:0:
64,192,66936,1,0,0:0:0:0:
320,192,66996,1,0,0:0:0:0:
192,192,67176,1,0,0:0:0:0:
448,192,67656,1,0,0:0:0:0:
320,192,67656,1,0,0:0:0:0:
64,192,67656,1,0,0:0:0:0:
64,192,67896,1,0,0:0:0:0:
192,192,67896,1,0,0:0:0:0:
320,192,68136,1,0,0:0:0:0:
64,192,68376,128,0,68436:0:0:0:0:
448,192,68376,128,0,68436:0:0:0:0:
320,192,68616,1,0,0:0:0:0:
64,192,68616,128,0,68676:0:0:0:0:
448,192,68616,128,0,68676:0:0:0:0:
192,192,68856,1,0,0:0:0:0:
64,192,68856,1,0,0:0:0:0:
448,192,69096,1,0,0:0:0:0:
320,192,69096,1,0,0:0:0:0:
448,192,69336,1,0,0:0:0:0:
192,192,69396,1,0,0:0:0:0:
64,192,69576,1,0,0:0:0:0:
320,192,69576,1,0,0:0:0:0:
448,192,69576,1,0,0:0:0:0:
64,192,69816,1,0,0:0:0:0:
320,192,70056,1,0,0:0:0:0:
64,192,70116,1,0,0:0:0:0:
448,192,70296,1,0,0:0:0:0:
320,192,70296,1,0,0:0:0:0:
64,192,70536,1,0,0:0:0:0:
192,192,70536,1,0,0:0:0:0:
448,192,70536,1,0,0:0:0:0:
448,192,70776,1,0,0:0:0:0:
192,192,70836,1,0,0:0:0:0:
320,192,71016,1,0,0:0:0:0:
192,192,71256,1,0,0:0:0:0:
320,192,71256,1,0,0:0:0:0:
64,192,71496,1,0,0:0:0:0:
192,192,71496,1,0,0:0:0:0:
448,192,71496,1,0,0:0:0:0:
320,192,71736,1,0,0:0:0:0:
192,192,71976,1,0,0:0:0:0:
192,192,72216,1,0,0:0:0:0:
64,192,72216,1,0,0:0:0:0:
320,192,72296,1,0,0:0:0:0:
192,192,72376,1,0,0:0:0:0:
448,192,72456,1,0,0:0:0:0:
64,192,72456,1,0,0:0:0:0:
320,192,72536,1,0,0:0:0:0:
192,192,72616,1,0,0:0:0:0:
320,192,72696,1,0,0:0:0:0:
448,192,72696,1,0,0:0:0:0:
64,192,72776,1,0,0:0:0:0:
448,192,72936,1,0,0:0:0:0:
320,192,72936,1,0,0:0:0:0:
448,192,73176,1,0,0:0:0:0:
192,192,73236,1,0,0:0:0:0:
64,192,73416,1,0,0:0:0:0:
320,192,73416,1,0,0:0:0:0:
448,192,73416,1,0,0:0:0:0:
192,192,73656,1,0,0:0:0:0:
64,192,73656,1,0,0:0:0:0:
320,192,73896,1,0,0:0:0:0:
64,192,73956,1,0,0:0:0:0:
448,192,74136,1,0,0:0:0:0:
320,192,74136,1,0,0:0:0:0:
64,192,74376,1,0,0:0:0:0:
192,192,74376,1,0,0:0:0:0:
448,192,74376,1,0,0:0:0:0:
448,192,74616,1,0,0:0:0:0:
192,192,74676,1,0,0:0:0:0:
320,192,74856,1,0,0:0:0:0:
64,192,75336,1,0,0:0:0:0:
192,192,75336,1,0,0:0:0:0:
448,192,75336,1,0,0:0:0:0:
448,192,75576,1,0,0:0:0:0:
320,192,75576,1,0,0:0:0:0:
192,192,75816,1,0,0:0:0:0:
64,192,76056,128,0,76116:0:0:0:0:
448,192,76056,1,0,0:0:0:0:
192,192,76296,1,0,0:0:0:0:
448,192,76296,128,0,76356:0:0:0:0:
64,192,76296,1,0,0:0:0:0:
448,192,76536,1,0,0:0:0:0:
320,192,76536,128,0,76596:0:0:0:0:
64,192,76776,1,0,0:0:0:0:
192,192,76776,1,0,0:0:0:0:
64,192,77016,1,0,0:0:0:0:
320,192,77076,1,0,0:0:0:0:
448,192,77256,1,0,0:0:0:0:
64,192,77256,1,0,0:0:0:0:
192,192,77256,128,0,77316:0:0:0:0:
448,192,77496,1,0,0:0:0:0:
192,192,77736,1,0,0:0:0:0:
448,192,77796,1,0,0:0:0:0:
64,192,77976,1,0,0:0:0:0:
192,192,77976,1,0,0:0:0:0:
320,192,78216,1,0,0:0:0:0:
64,192,78216,1,0,0:0:0:0:
448,192,78216,128,0,78276:0:0:0:0:
64,192,78456,1,0,0:0:0:0:
320,192,78516,1,0,0:0:0:0:
192,192,78696,1,0,0:0:0:0:
320,192,78936,1,0,0:0:0:0:
192,192,78936,1,0,0:0:0:0:
448,192,79176,1,0,0:0:0:0:
320,192,79176,1,0,0:0:0:0:
64,192,79176,128,0,79236:0:0:0:0:
64,192,79416,1,0,0:0:0:0:
320,192,79656,1,0,0:0:0:0:
192,192,79896,1,0,0:0:0:0:
64,192,79896,128,0,79956:0:0:0:0:
448,192,80016,128,0,80076:0:0:0:0:
320,192,80076,128,0,80136:0:0:0:0:
192,192,80136,128,0,80196:0:0:0:0:
64,192,80136,1,0,0:0:0:0:
448,192,80196,128,0,80256:0:0:0:0:
320,192,80256,128,0,80316:0:0:0:0:
64,192,80376,1,0,0:0:0:0:
192,192,80376,128,0,80456:0:0:0:0:
448,192,80456,128,0,80536:0:0:0:0:
64,192,80536,128,0,80616:0:0:0:0:
320,192,80616,1,0,0:0:0:0:
448,192,80616,1,0,0:0:0:0:
448,192,80856,1,0,0:0:0:0:
192,192,80916,1,0,0:0:0:0:
448,192,81096,1,0,0:0:0:0:
320,192,81096,1,0,0:0:0:0:
64,192,81096,1,0,0:0:0:0:
64,192,81336,1,0,0:0:0:0:
192,192,81336,1,0,0:0:0:0:
320,192,81576,1,0,0:0:0:0:
64,192,81636,1,0,0:0:0:0:
320,192,81816,1,0,0:0:0:0:
448,192,81816,1,0,0:0:0:0:
448,192,82056,1,0,0:0:0:0:
192,192,82056,1,0,0:0:0:0:
64,192,82056,1,0,0:0:0:0:
448,192,82296,1,0,0:0:0:0:
192,192,82356,1,0,0:0:0:0:
320,192,82536,128,0,82596:0:0:0:0:
320,192,82776,128,0,82836:0:0:0:0:
448,192,83016,1,0,0:0:0:0:
192,192,83016,1,0,0:0:0:0:
64,192,83016,128,0,83256:0:0:0:0:
320,192,83256,1,0,0:0:0:0:
448,192,83256,128,0,83496:0:0:0:0:
192,192,83496,1,0,0:0:0:0:
64,192,83736,128,0,83796:0:0:0:0:
320,192,83736,128,0,83976:0:0:0:0:
192,192,83976,1,0,0:0:0:0:
64,192,83976,1,0,0:0:0:0:
448,192,83976,1,0,0:0:0:0:
448,192,84216,1,0,0:0:0:0:
320,192,84216,128,0,84276:0:0:0:0:
192,192,84456,1,0,0:0:0:0:
64,192,84456,1,0,0:0:0:0:
64,192,84696,1,0,0:0:0:0:
320,192,84756,1,0,0:0:0:0:
64,192,84936,1,0,0:0:0:0:
192,192,84936,1,0,0:0:0:0:
448,192,84936,1,0,0:0:0:0:
448,192,85176,1,0,0:0:0:0:
192,192,85416,1,0,0:0:0:0:
448,192,85476,1,0,0:0:0:0:
192,192,85656,1,0,0:0:0:0:
64,192,85656,1,0,0:0:0:0:
64,192,85896,1,0,0:0:0:0:
320,192,85896,1,0,0:0:0:0:
448,192,85896,1,0,0:0:0:0:
64,192,86136,1,0,0:0:0:0:
320,192,86196,1,0,0:0:0:0:
192,192,86376,128,0,86616:0:0:0:0:
320,192,86616,1,0,0:0:0:0:
448,192,86616,128,0,86736:0:0:0:0:
64,192,86856,1,0,0:0:0:0:
448,192,86856,1,0,0:0:0:0:
320,192,86856,128,0,87096:0:0:0:0:
64,192,87096,128,0,87336:0:0:0:0:
192,192,87096,1,0,0:0:0:0:
320,192,87336,128,0,87576:0:0:0:0:
448,192,87576,1,0,0:0:0:0:
192,192,87576,128,0,87636:0:0:0:0:
320,192,87696,128,0,87756:0:0:0:0:
448,192,87816,1,0,0:0:0:0:
64,192,87816,1,0,0:0:0:0:
192,192,87816,128,0,87876:0:0:0:0:
320,192,88056,128,0,88116:0:0:0:0:
448,192,88056,1,0,0:0:0:0:
192,192,88296,1,0,0:0:0:0:
64,192,88296,1,0,0:0:0:0:
64,192,88536,1,0,0:0:0:0:
320,192,88596,1,0,0:0:0:0:
64,192,88776,1,0,0:0:0:0:
192,192,88776,1,0,0:0:0:0:
448,192,88776,1,0,0:0:0:0:
448,192,89016,1,0,0:0:0:0:
320,192,89016,1,0,0:0:0:0:
192,192,89256,1,0,0:0:0:0:
448,192,89316,1,0,0:0:0:0:
192,192,89496,1,0,0:0:0:0:
64,192,89496,1,0,0:0:0:0:
64,192,89736,1,0,0:0:0:0:
320,192,89736,1,0,0:0:0:0:
448,192,89736,1,0,0:0:0:0:
64,192,89976,1,0,0:0:0:0:
320,192,90036,1,0,0:0:0:0:
192,192,90216,128,0,90276:0:0:0:0:
192,192,90456,128,0,90516:0:0:0:0:
64,192,90696,1,0,0:0:0:0:
320,192,90696,1,0,0:0:0:0:
448,192,90696,128,0,90936:0:0:0:0:
64,192,90936,1,0,0:0:0:0:
192,192,90936,128,0,91176:0:0:0:0:
320,192,91176,1,0,0:0:0:0:
448,192,91416,128,0,91476:0:0:0:0:
192,192,91416,128,0,91656:0:0:0:0:
64,192,91416,1,0,0:0:0:0:
64,192,91656,128,0,91716:0:0:0:0:
320,192,91656,1,0,0:0:0:0:
448,192,91656,128,0,91716:0:0:0:0:
192,192,91896,128,0,91956:0:0:0:0:
64,192,91896,1,0,0:0:0:0:
320,192,92136,1,0,0:0:0:0:
448,192,92136,1,0,0:0:0:0:
448,192,92376,1,0,0:0:0:0:
192,192,92436,1,0,0:0:0:0:
448,192,92616,1,0,0:0:0:0:
64,192,92616,1,0,0:0:0:0:
320,192,92616,1,0,0:0:0:0:
64,192,92856,1,0,0:0:0:0:
320,192,93096,1,0,0:0:0:0:
64,192,93156,1,0,0:0:0:0:
320,192,93336,1,0,0:0:0:0:
448,192,93336,1,0,0:0:0:0:
448,192,93576,1,0,0:0:0:0:
192,192,93576,1,0,0:0:0:0:
64,192,93576,1,0,0:0:0:0:
448,192,93816,1,0,0:0:0:0:
192,192,93876,1,0,0:0:0:0:
448,192,94056,128,0,94296:0:0:0:0:
64,192,94296,1,0,0:0:0:0:
320,192,94296,128,0,94416:0:0:0:0:
64,192,94536,1,0,0:0:0:0:
192,192,94536,128,0,94776:0:0:0:0:
448,192,94536,1,0,0:0:0:0:
320,192,94776,128,0,95016:0:0:0:0:
64,192,95016,128,0,95256:0:0:0:0:
320,192,95256,1,0,0:0:0:0:
448,192,95256,128,0,95336:0:0:0:0:
64,192,95336,128,0,95416:0:0:0:0:
192,192,95416,128,0,95496:0:0:0:0:
448,192,95496,1,0,0:0:0:0:
320,192,95496,128,0,95556:0:0:0:0:
64,192,95556,128,0,95616:0:0:0:0:
192,192,95616,128,0,95676:0:0:0:0:
320,192,95676,1,0,0:0:0:0:
448,192,95736,128,0,95816:0:0:0:0:
64,192,95736,1,0,0:0:0:0:
192,192,95816,128,0,95896:0:0:0:0:
320,192,95896,128,0,95976:0:0:0:0:
64,192,95976,5,0,0:0:0:0:
448,192,96036,1,0,0:0:0:0:
64,192,96216,1,0,0:0:0:0:
448,192,96276,1,0,0:0:0:0:
192,192,96456,1,0,0:0:0:0:
192,192,96696,1,0,0:0:0:0:
448,192,96936,1,0,0:0:0:0:
64,192,96996,1,0,0:0:0:0:
320,192,97176,1,0,0:0:0:0:
320,192,97416,1,0,0:0:0:0:
64,192,97656,1,0,0:0:0:0:
448,192,97716,1,0,0:0:0:0:
320,192,98376,1,0,0:0:0:0:
192,192,98436,1,0,0:0:0:0:
192,192,98856,1,0,0:0:0:0:
192,192,99096,1,0,0:0:0:0:
320,192,99816,5,0,0:0:0:0:
192,192,99876,1,0,0:0:0:0:
320,192,100056,1,0,0:0:0:0:
192,192,100116,1,0,0:0:0:0:
448,192,100296,1,0,0:0:0:0:
448,192,100536,1,0,0:0:0:0:
192,192,100776,1,0,0:0:0:0:
320,192,100836,1,0,0:0:0:0:
64,192,101016,1,0,0:0:0:0:
64,192,101256,1,0,0:0:0:0:
320,192,101496,1,0,0:0:0:0:
192,192,101556,1,0,0:0:0:0:
448,192,102216,1,0,0:0:0:0:
64,192,102276,1,0,0:0:0:0:
448,192,102696,1,0,0:0:0:0:
64,192,102936,1,0,0:0:0:0:
320,192,102996,1,0,0:0:0:0:
448,192,103176,1,0,0:0:0:0:
192,192,103236,1,0,0:0:0:0:
320,192,103416,1,0,0:0:0:0:
64,192,103656,1,0,0:0:0:0:
192,192,103936,128,0,103976:0:0:0:0:
320,192,104136,1,0,0:0:0:0:
448,192,104136,1,0,0:0:0:0:
320,192,104616,1,0,0:0:0:0:
192,192,104676,1,0,0:0:0:0:
448,192,104736,1,0,0:0:0:0:
64,192,104796,1,0,0:0:0:0:
320,192,104856,1,0,0:0:0:0:
192,192,104916,1,0,0:0:0:0:
64,192,105096,1,0,0:0:0:0:
448,192,105096,1,0,0:0:0:0:
320,192,105336,1,0,0:0:0:0:
64,192,105396,1,0,0:0:0:0:
320,192,105576,1,0,0:0:0:0:
64,192,105696,1,0,0:0:0:0:
64,192,106056,1,0,0:0:0:0:
192,192,106056,1,0,0:0:0:0:
448,192,106536,1,0,0:0:0:0:
192,192,106596,1,0,0:0:0:0:
64,192,106776,1,0,0:0:0:0:
320,192,106836,1,0,0:0:0:0:
64,192,107016,1,0,0:0:0:0:
448,192,107016,1,0,0:0:0:0:
320,192,107256,1,0,0:0:0:0:
64,192,107316,1,0,0:0:0:0:
448,192,107436,1,0,0:0:0:0:
320,192,107496,1,0,0:0:0:0:
192,192,107556,1,0,0:0:0:0:
64,192,107616,1,0,0:0:0:0:
448,192,107676,1,0,0:0:0:0:
320,192,107736,1,0,0:0:0:0:
192,192,107796,1,0,0:0:0:0:
448,192,107976,1,0,0:0:0:0:
320,192,107976,1,0,0:0:0:0:
192,192,108456,1,0,0:0:0:0:
320,192,108576,1,0,0:0:0:0:
448,192,108576,1,0,0:0:0:0:
64,192,108696,1,0,0:0:0:0:
320,192,108756,1,0,0:0:0:0:
64,192,108936,1,0,0:0:0:0:
448,192,108936,1,0,0:0:0:0:
192,192,109176,1,0,0:0:0:0:
448,192,109236,1,0,0:0:0:0:
64,192,109896,1,0,0:0:0:0:
192,192,109896,1,0,0:0:0:0:
320,192,110136,1,0,0:0:0:0:
64,192,110196,1,0,0:0:0:0:
320,192,110616,1,0,0:0:0:0:
64,192,110736,1,0,0:0:0:0:
192,192,110856,1,0,0:0:0:0:
448,192,110856,128,0,111336:0:0:0:0:
320,192,111096,1,0,0:0:0:0:
64,192,111336,1,0,0:0:0:0:
192,192,111336,1,0,0:0:0:0:
192,192,111516,1,0,0:0:0:0:
448,192,111576,128,0,111696:0:0:0:0:
64,192,111696,128,0,111816:0:0:0:0:
320,192,111816,1,0,0:0:0:0:
192,192,111876,1,0,0:0:0:0:
64,192,112296,1,0,0:0:0:0:
192,192,112356,1,0,0:0:0:0:
320,192,112416,1,0,0:0:0:0:
448,192,112476,1,0,0:0:0:0:
64,192,112536,1,0,0:0:0:0:
192,192,112536,1,0,0:0:0:0:
64,192,112776,1,0,0:0:0:0:
448,192,112776,1,0,0:0:0:0:
320,192,113016,1,0,0:0:0:0:
192,192,113076,1,0,0:0:0:0:
320,192,113256,1,0,0:0:0:0:
192,192,113376,1,0,0:0:0:0:
448,192,113736,1,0,0:0:0:0:
320,192,113736,1,0,0:0:0:0:
64,192,114216,1,0,0:0:0:0:
192,192,114216,1,0,0:0:0:0:
64,192,114456,1,0,0:0:0:0:
192,192,114456,1,0,0:0:0:0:
448,192,114696,1,0,0:0:0:0:
320,192,114696,1,0,0:0:0:0:
192,192,114936,1,0,0:0:0:0:
448,192,115056,128,0,115176:0:0:0:0:
64,192,115176,1,0,0:0:0:0:
192,192,115176,1,0,0:0:0:0:
320,192,115236,1,0,0:0:0:0:
448,192,115296,1,0,0:0:0:0:
64,192,115356,1,0,0:0:0:0:
192,192,115416,1,0,0:0:0:0:
320,192,115476,1,0,0:0:0:0:
64,192,115656,1,0,0:0:0:0:
192,192,115656,1,0,0:0:0:0:
320,192,116136,1,0,0:0:0:0:
192,192,116256,1,0,0:0:0:0:
64,192,116256,1,0,0:0:0:0:
448,192,116376,1,0,0:0:0:0:
320,192,116376,1,0,0:0:0:0:
64,192,116616,1,0,0:0:0:0:
192,192,116616,1,0,0:0:0:0:
448,192,116616,1,0,0:0:0:0:
448,192,116856,1,0,0:0:0:0:
64,192,116856,1,0,0:0:0:0:
320,192,116856,1,0,0:0:0:0:
64,192,117576,1,0,0:0:0:0:
192,192,117576,1,0,0:0:0:0:
320,192,117816,1,0,0:0:0:0:
192,192,117876,1,0,0:0:0:0:
448,192,118056,128,0,118416:0:0:0:0:
192,192,118296,128,0,118536:0:0:0:0:
64,192,118296,128,0,118536:0:0:0:0:
320,192,118536,1,0,0:0:0:0:
448,192,118536,1,0,0:0:0:0:
448,192,118776,1,0,0:0:0:0:
192,192,118776,1,0,0:0:0:0:
64,192,119016,1,0,0:0:0:0:
320,192,119076,1,0,0:0:0:0:
320,192,119296,128,0,119336:0:0:0:0:
448,192,119496,1,0,0:0:0:0:
64,192,119496,1,0,0:0:0:0:
192,192,119736,1,0,0:0:0:0:
320,192,119736,1,0,0:0:0:0:
448,192,119976,1,0,0:0:0:0:
64,192,120036,1,0,0:0:0:0:
320,192,120096,1,0,0:0:0:0:
192,192,120156,1,0,0:0:0:0:
448,192,120216,1,0,0:0:0:0:
64,192,120276,1,0,0:0:0:0:
320,192,120456,1,0,0:0:0:0:
192,192,120456,1,0,0:0:0:0:
448,192,120696,1,0,0:0:0:0:
64,192,120756,1,0,0:0:0:0:
448,192,120936,1,0,0:0:0:0:
64,192,121056,1,0,0:0:0:0:
192,192,121416,1,0,0:0:0:0:
320,192,121416,1,0,0:0:0:0:
448,192,121656,1,0,0:0:0:0:
64,192,121896,1,0,0:0:0:0:
320,192,121956,1,0,0:0:0:0:
64,192,122136,1,0,0:0:0:0:
320,192,122196,1,0,0:0:0:0:
192,192,122376,1,0,0:0:0:0:
64,192,122376,1,0,0:0:0:0:
448,192,122616,1,0,0:0:0:0:
320,192,122616,1,0,0:0:0:0:
64,192,122796,1,0,0:0:0:0:
192,192,122856,1,0,0:0:0:0:
320,192,122916,1,0,0:0:0:0:
448,192,122976,1,0,0:0:0:0:
64,192,123036,1,0,0:0:0:0:
192,192,123096,1,0,0:0:0:0:
448,192,123336,1,0,0:0:0:0:
320,192,123336,1,0,0:0:0:0:
192,192,123816,1,0,0:0:0:0:
64,192,123936,1,0,0:0:0:0:
448,192,123936,1,0,0:0:0:0:
320,192,124056,1,0,0:0:0:0:
192,192,124116,1,0,0:0:0:0:
448,192,124296,1,0,0:0:0:0:
64,192,124296,1,0,0:0:0:0:
320,192,124536,1,0,0:0:0:0:
192,192,124596,1,0,0:0:0:0:
448,192,125256,1,0,0:0:0:0:
320,192,125256,1,0,0:0:0:0:
64,192,125316,1,0,0:0:0:0:
192,192,125496,1,0,0:0:0:0:
448,192,125556,1,0,0:0:0:0:
320,192,125736,1,0,0:0:0:0:
64,192,125976,1,0,0:0:0:0:
320,192,126036,1,0,0:0:0:0:
192,192,126216,1,0,0:0:0:0:
64,192,126216,1,0,0:0:0:0:
320,192,126456,1,0,0:0:0:0:
448,192,126696,1,0,0:0:0:0:
320,192,126696,1,0,0:0:0:0:
64,192,127176,1,0,0:0:0:0:
192,192,127176,1,0,0:0:0:0:
448,192,127236,1,0,0:0:0:0:
192,192,127416,1,0,0:0:0:0:
64,192,127416,1,0,0:0:0:0:
448,192,127656,1,0,0:0:0:0:
320,192,127716,1,0,0:0:0:0:
64,192,127776,1,0,0:0:0:0:
192,192,127836,1,0,0:0:0:0:
448,192,127896,1,0,0:0:0:0:
320,192,127896,1,0,0:0:0:0:
64,192,127956,1,0,0:0:0:0:
192,192,128136,1,0,0:0:0:0:
320,192,128136,1,0,0:0:0:0:
448,192,128376,1,0,0:0:0:0:
64,192,128436,1,0,0:0:0:0:
448,192,128616,1,0,0:0:0:0:
64,192,128736,1,0,0:0:0:0:
192,192,129096,1,0,0:0:0:0:
448,192,129096,1,0,0:0:0:0:
448,192,129336,1,0,0:0:0:0:
320,192,129576,1,0,0:0:0:0:
192,192,129576,1,0,0:0:0:0:
320,192,129816,1,0,0:0:0:0:
192,192,129816,1,0,0:0:0:0:
64,192,130056,1,0,0:0:0:0:
448,192,130056,1,0,0:0:0:0:
192,192,130296,1,0,0:0:0:0:
448,192,130296,1,0,0:0:0:0:
64,192,130416,128,0,130536:0:0:0:0:
448,192,130536,1,0,0:0:0:0:
320,192,130536,1,0,0:0:0:0:
192,192,130596,1,0,0:0:0:0:
64,192,130656,1,0,0:0:0:0:
320,192,130716,1,0,0:0:0:0:
448,192,130776,1,0,0:0:0:0:
64,192,131016,1,0,0:0:0:0:
192,192,131016,1,0,0:0:0:0:
192,192,131496,1,0,0:0:0:0:
320,192,131616,1,0,0:0:0:0:
448,192,131616,1,0,0:0:0:0:
64,192,131736,1,0,0:0:0:0:
192,192,131736,1,0,0:0:0:0:
448,192,131976,1,0,0:0:0:0:
320,192,131976,1,0,0:0:0:0:
64,192,131976,1,0,0:0:0:0:
64,192,132216,1,0,0:0:0:0:
192,192,132216,1,0,0:0:0:0:
320,192,132216,1,0,0:0:0:0:
448,192,132936,1,0,0:0:0:0:
320,192,132996,1,0,0:0:0:0:
192,192,132996,1,0,0:0:0:0:
448,192,133896,1,0,0:0:0:0:
320,192,133896,1,0,0:0:0:0:
64,192,133896,1,0,0:0:0:0:
64,192,134136,1,0,0:0:0:0:
192,192,134136,1,0,0:0:0:0:
448,192,134136,1,0,0:0:0:0:
64,192,134856,1,0,0:0:0:0:
320,192,134856,1,0,0:0:0:0:
448,192,134856,1,0,0:0:0:0:
192,192,135096,1,0,0:0:0:0:
64,192,135096,1,0,0:0:0:0:
320,192,135336,1,0,0:0:0:0:
64,192,135396,1,0,0:0:0:0:
448,192,135576,1,0,0:0:0:0:
320,192,135576,1,0,0:0:0:0:
64,192,135816,1,0,0:0:0:0:
192,192,135816,1,0,0:0:0:0:
448,192,135816,1,0,0:0:0:0:
448,192,136056,1,0,0:0:0:0:
192,192,136116,1,0,0:0:0:0:
320,192,136296,1,0,0:0:0:0:
64,192,136776,1,0,0:0:0:0:
192,192,136776,1,0,0:0:0:0:
448,192,136776,1,0,0:0:0:0:
448,192,137016,1,0,0:0:0:0:
320,192,137016,1,0,0:0:0:0:
192,192,137256,1,0,0:0:0:0:
64,192,137496,1,0,0:0:0:0:
448,192,137496,1,0,0:0:0:0:
192,192,137736,1,0,0:0:0:0:
64,192,137736,1,0,0:0:0:0:
448,192,137736,1,0,0:0:0:0:
320,192,137976,1,0,0:0:0:0:
448,192,137976,1,0,0:0:0:0:
64,192,138216,1,0,0:0:0:0:
192,192,138216,1,0,0:0:0:0:
64,192,138456,1,0,0:0:0:0:
320,192,138516,1,0,0:0:0:0:
448,192,138696,1,0,0:0:0:0:
192,192,138696,1,0,0:0:0:0:
64,192,138696,1,0,0:0:0:0:
448,192,138936,1,0,0:0:0:0:
192,192,139176,1,0,0:0:0:0:
448,192,139236,1,0,0:0:0:0:
64,192,139416,1,0,0:0:0:0:
192,192,139416,1,0,0:0:0:0:
448,192,139656,1,0,0:0:0:0:
320,192,139656,1,0,0:0:0:0:
64,192,139656,1,0,0:0:0:0:
64,192,139896,1,0,0:0:0:0:
320,192,139956,1,0,0:0:0:0:
192,192,140136,1,0,0:0:0:0:
320,192,140376,1,0,0:0:0:0:
192,192,140376,1,0,0:0:0:0:
448,192,140616,1,0,0:0:0:0:
320,192,140616,1,0,0:0:0:0:
64,192,140616,1,0,0:0:0:0:
64,192,140856,1,0,0:0:0:0:
320,192,141096,1,0,0:0:0:0:
320,192,141336,1,0,0:0:0:0:
448,192,141336,1,0,0:0:0:0:
192,192,141416,1,0,0:0:0:0:
320,192,141496,1,0,0:0:0:0:
448,192,141576,1,0,0:0:0:0:
64,192,141576,1,0,0:0:0:0:
192,192,141636,1,0,0:0:0:0:
320,192,141696,1,0,0:0:0:0:
448,192,141756,1,0,0:0:0:0:
64,192,141816,1,0,0:0:0:0:
192,192,141816,1,0,0:0:0:0:
448,192,141896,1,0,0:0:0:0:
192,192,142056,1,0,0:0:0:0:
448,192,142536,1,0,0:0:0:0:
192,192,142536,1,0,0:0:0:0:
64,192,142536,1,0,0:0:0:0:
320,192,142776,1,0,0:0:0:0:
448,192,142776,1,0,0:0:0:0:
192,192,143016,1,0,0:0:0:0:
448,192,143076,1,0,0:0:0:0:
64,192,143256,1,0,0:0:0:0:
192,192,143256,1,0,0:0:0:0:
448,192,143496,1,0,0:0:0:0:
320,192,143496,1,0,0:0:0:0:
64,192,143496,1,0,0:0:0:0:
64,192,143736,1,0,0:0:0:0:
320,192,143796,1,0,0:0:0:0:
192,192,143976,1,0,0:0:0:0:
448,192,144456,1,0,0:0:0:0:
320,192,144456,1,0,0:0:0:0:
64,192,144456,1,0,0:0:0:0:
64,192,144696,1,0,0:0:0:0:
192,192,144696,1,0,0:0:0:0:
320,192,144936,1,0,0:0:0:0:
448,192,145176,128,0,145236:0:0:0:0:
64,192,145176,1,0,0:0:0:0:
320,192,145416,1,0,0:0:0:0:
64,192,145416,128,0,145476:0:0:0:0:
448,192,145416,1,0,0:0:0:0:
64,192,145656,1,0,0:0:0:0:
192,192,145656,128,0,145716:0:0:0:0:
448,192,145896,1,0,0:0:0:0:
320,192,145896,1,0,0:0:0:0:
448,192,146136,1,0,0:0:0:0:
192,192,146196,1,0,0:0:0:0:
64,192,146376,1,0,0:0:0:0:
448,192,146376,1,0,0:0:0:0:
320,192,146376,128,0,146436:0:0:0:0:
64,192,146616,1,0,0:0:0:0:
320,192,146856,1,0,0:0:0:0:
64,192,146916,1,0,0:0:0:0:
448,192,147096,1,0,0:0:0:0:
320,192,147096,1,0,0:0:0:0:
192,192,147336,1,0,0:0:0:0:
448,192,147336,1,0,0:0:0:0:
64,192,147336,128,0,147396:0:0:0:0:
448,192,147576,1,0,0:0:0:0:
192,192,147636,1,0,0:0:0:0:
320,192,147816,1,0,0:0:0:0:
192,192,148056,1,0,0:0:0:0:
320,192,148056,1,0,0:0:0:0:
64,192,148296,1,0,0:0:0:0:
192,192,148296,1,0,0:0:0:0:
448,192,148296,128,0,148356:0:0:0:0:
448,192,148536,1,0,0:0:0:0:
192,192,148776,1,0,0:0:0:0:
320,192,149016,1,0,0:0:0:0:
448,192,149016,128,0,149076:0:0:0:0:
64,192,149136,128,0,149196:0:0:0:0:
192,192,149196,128,0,149256:0:0:0:0:
320,192,149256,128,0,149316:0:0:0:0:
448,192,149256,1,0,0:0:0:0:
64,192,149316,128,0,149376:0:0:0:0:
192,192,149376,128,0,149436:0:0:0:0:
448,192,149496,1,0,0:0:0:0:
320,192,149496,128,0,149576:0:0:0:0:
64,192,149576,128,0,149656:0:0:0:0:
448,192,149656,128,0,149736:0:0:0:0:
192,192,149736,1,0,0:0:0:0:
64,192,149736,1,0,0:0:0:0:
64,192,149976,1,0,0:0:0:0:
320,192,150036,1,0,0:0:0:0:
64,192,150216,1,0,0:0:0:0:
192,192,150216,1,0,0:0:0:0:
448,192,150216,1,0,0:0:0:0:
448,192,150456,1,0,0:0:0:0:
320,192,150456,1,0,0:0:0:0:
192,192,150696,1,0,0:0:0:0:
448,192,150756,1,0,0:0:0:0:
192,192,150936,1,0,0:0:0:0:
64,192,150936,1,0,0:0:0:0:
64,192,151176,1,0,0:0:0:0:
320,192,151176,1,0,0:0:0:0:
448,192,151176,1,0,0:0:0:0:
64,192,151416,1,0,0:0:0:0:
320,192,151476,1,0,0:0:0:0:
192,192,151656,128,0,151716:0:0:0:0:
192,192,151896,128,0,151956:0:0:0:0:
64,192,152136,1,0,0:0:0:0:
320,192,152136,1,0,0:0:0:0:
448,192,152136,128,0,152376:0:0:0:0:
192,192,152376,1,0,0:0:0:0:
64,192,152376,128,0,152616:0:0:0:0:
320,192,152616,1,0,0:0:0:0:
448,192,152856,128,0,152916:0:0:0:0:
192,192,152856,128,0,153096:0:0:0:0:
320,192,153096,1,0,0:0:0:0:
448,192,153096,1,0,0:0:0:0:
64,192,153096,1,0,0:0:0:0:
64,192,153336,1,0,0:0:0:0:
192,192,153336,128,0,153396:0:0:0:0:
320,192,153576,1,0,0:0:0:0:
448,192,153576,1,0,0:0:0:0:
448,192,153816,1,0,0:0:0:0:
192,192,153876,1,0,0:0:0:0:
448,192,154056,1,0,0:0:0:0:
320,192,154056,1,0,0:0:0:0:
64,192,154056,1,0,0:0:0:0:
64,192,154296,1,0,0:0:0:0:
320,192,154536,1,0,0:0:0:0:
64,192,154596,1,0,0:0:0:0:
320,192,154776,1,0,0:0:0:0:
448,192,154776,1,0,0:0:0:0:
448,192,155016,1,0,0:0:0:0:
192,192,155016,1,0,0:0:0:0:
64,192,155016,1,0,0:0:0:0:
448,192,155256,1,0,0:0:0:0:
192,192,155316,1,0,0:0:0:0:
320,192,155496,128,0,155736:0:0:0:0:
192,192,155736,1,0,0:0:0:0:
64,192,155736,128,0,155856:0:0:0:0:
448,192,155976,1,0,0:0:0:0:
64,192,155976,1,0,0:0:0:0:
192,192,155976,128,0,156216:0:0:0:0:
448,192,156216,128,0,156456:0:0:0:0:
192,192,156456,128,0,156696:0:0:0:0:
64,192,156696,1,0,0:0:0:0:
320,192,156696,128,0,156756:0:0:0:0:
192,192,156816,128,0,156876:0:0:0:0:
64,192,156936,1,0,0:0:0:0:
448,192,156936,1,0,0:0:0:0:
320,192,156936,128,0,156996:0:0:0:0:
192,192,157176,128,0,157236:0:0:0:0:
64,192,157176,1,0,0:0:0:0:
320,192,157416,1,0,0:0:0:0:
448,192,157416,1,0,0:0:0:0:
448,192,157656,1,0,0:0:0:0:
192,192,157716,1,0,0:0:0:0:
448,192,157896,1,0,0:0:0:0:
320,192,157896,1,0,0:0:0:0:
64,192,157896,1,0,0:0:0:0:
64,192,158136,1,0,0:0:0:0:
192,192,158136,1,0,0:0:0:0:
320,192,158376,1,0,0:0:0:0:
64,192,158436,1,0,0:0:0:0:
320,192,158616,1,0,0:0:0:0:
448,192,158616,1,0,0:0:0:0:
448,192,158856,1,0,0:0:0:0:
192,192,158856,1,0,0:0:0:0:
64,192,158856,1,0,0:0:0:0:
448,192,159096,1,0,0:0:0:0:
192,192,159156,1,0,0:0:0:0:
320,192,159336,128,0,159396:0:0:0:0:
320,192,159576,128,0,159636:0:0:0:0:
448,192,159816,1,0,0:0:0:0:
192,192,159816,1,0,0:0:0:0:
64,192,159816,128,0,160056:0:0:0:0:
448,192,160056,1,0,0:0:0:0:
320,192,160056,128,0,160296:0:0:0:0:
192,192,160296,1,0,0:0:0:0:
64,192,160536,128,0,160596:0:0:0:0:
320,192,160536,128,0,160776:0:0:0:0:
448,192,160776,128,0,160836:0:0:0:0:
192,192,160776,1,0,0:0:0:0:
64,192,160776,128,0,160836:0:0:0:0:
320,192,161016,128,0,161076:0:0:0:0:
448,192,161016,1,0,0:0:0:0:
192,192,161256,1,0,0:0:0:0:
64,192,161256,1,0,0:0:0:0:
64,192,161496,1,0,0:0:0:0:
320,192,161556,1,0,0:0:0:0:
64,192,161736,1,0,0:0:0:0:
448,192,161736,1,0,0:0:0:0:
192,192,161736,1,0,0:0:0:0:
448,192,161976,1,0,0:0:0:0:
192,192,162216,1,0,0:0:0:0:
448,192,162276,1,0,0:0:0:0:
192,192,162456,1,0,0:0:0:0:
64,192,162456,1,0,0:0:0:0:
64,192,162696,1,0,0:0:0:0:
320,192,162696,1,0,0:0:0:0:
448,192,162696,1,0,0:0:0:0:
64,192,162936,1,0,0:0:0:0:
320,192,162996,1,0,0:0:0:0:
64,192,163176,128,0,163416:0:0:0:0:
448,192,163416,1,0,0:0:0:0:
192,192,163416,128,0,163536:0:0:0:0:
448,192,163656,1,0,0:0:0:0:
320,192,163656,128,0,163896:0:0:0:0:
64,192,163656,1,0,0:0:0:0:
192,192,163896,128,0,164136:0:0:0:0:
448,192,164136,128,0,164376:0:0:0:0:
192,192,164376,1,0,0:0:0:0:
64,192,164376,128,0,164456:0:0:0:0:
448,192,164456,128,0,164536:0:0:0:0:
192,192,164536,128,0,164616:0:0:0:0:
64,192,164616,1,0,0:0:0:0:
320,192,164616,128,0,164676:0:0:0:0:
448,192,164676,128,0,164736:0:0:0:0:
192,192,164736,128,0,164796:0:0:0:0:
64,192,164796,1,0,0:0:0:0:
448,192,164856,128,0,164936:0:0:0:0:
320,192,164856,1,0,0:0:0:0:
192,192,164936,128,0,165016:0:0:0:0:
320,192,165016,128,0,165096:0:0:0:0:
64,192,165096,5,0,0:0:0:0:
192,192,165136,1,0,0:0:0:0:
64,192,165336,1,0,0:0:0:0:
192,192,165376,1,0,0:0:0:0:
320,192,165576,1,0,0:0:0:0:
448,192,165576,1,0,0:0:0:0:
320,192,165816,1,0,0:0:0:0:
64,192,165936,1,0,0:0:0:0:
448,192,166056,1,0,0:0:0:0:
320,192,166096,1,0,0:0:0:0:
320,192,166296,1,0,0:0:0:0:
448,192,166296,1,0,0:0:0:0:
192,192,166536,1,0,0:0:0:0:
320,192,166776,1,0,0:0:0:0:
192,192,166816,1,0,0:0:0:0:
64,192,166856,1,0,0:0:0:0:
192,192,167496,1,0,0:0:0:0:
320,192,167536,1,0,0:0:0:0:
448,192,167576,1,0,0:0:0:0:
64,192,167736,1,0,0:0:0:0:
448,192,168016,128,0,168096:0:0:0:0:
320,192,168156,1,0,0:0:0:0:
448,192,168216,1,0,0:0:0:0:
320,192,168696,1,0,0:0:0:0:
64,192,168936,5,0,0:0:0:0:
192,192,168976,1,0,0:0:0:0:
64,192,169176,1,0,0:0:0:0:
192,192,169216,1,0,0:0:0:0:
448,192,169416,1,0,0:0:0:0:
320,192,169416,1,0,0:0:0:0:
192,192,169656,1,0,0:0:0:0:
64,192,169776,1,0,0:0:0:0:
448,192,169896,1,0,0:0:0:0:
320,192,169936,1,0,0:0:0:0:
192,192,170136,1,0,0:0:0:0:
64,192,170136,1,0,0:0:0:0:
192,192,170376,1,0,0:0:0:0:
320,192,170616,1,0,0:0:0:0:
192,192,170656,1,0,0:0:0:0:
64,192,170696,1,0,0:0:0:0:
192,192,171336,1,0,0:0:0:0:
320,192,171376,1,0,0:0:0:0:
448,192,171416,1,0,0:0:0:0:
64,192,171576,1,0,0:0:0:0:
64,192,171856,128,0,171936:0:0:0:0:
448,192,171996,1,0,0:0:0:0:
192,192,172056,1,0,0:0:0:0:
320,192,172096,1,0,0:0:0:0:
64,192,172296,1,0,0:0:0:0:
192,192,172336,1,0,0:0:0:0:
320,192,172536,1,0,0:0:0:0:
192,192,172656,1,0,0:0:0:0:
448,192,172776,5,0,0:0:0:0:
320,192,172816,1,0,0:0:0:0:
448,192,173016,1,0,0:0:0:0:
320,192,173056,1,0,0:0:0:0:
192,192,173256,1,0,0:0:0:0:
64,192,173256,1,0,0:0:0:0:
192,192,173496,1,0,0:0:0:0:
448,192,173616,1,0,0:0:0:0:
64,192,173736,1,0,0:0:0:0:
192,192,173776,1,0,0:0:0:0:
192,192,173976,1,0,0:0:0:0:
64,192,173976,1,0,0:0:0:0:
320,192,174216,1,0,0:0:0:0:
192,192,174456,1,0,0:0:0:0:
320,192,174496,1,0,0:0:0:0:
448,192,174536,1,0,0:0:0:0:
320,192,175176,1,0,0:0:0:0:
192,192,175216,1,0,0:0:0:0:
64,192,175256,1,0,0:0:0:0:
64,192,175696,128,0,175776:0:0:0:0:
192,192,175836,1,0,0:0:0:0:
64,192,175896,1,0,0:0:0:0:
448,192,176616,5,0,0:0:0:0:
320,192,176656,1,0,0:0:0:0:
448,192,176856,1,0,0:0:0:0:
320,192,176896,1,0,0:0:0:0:
64,192,177096,1,0,0:0:0:0:
192,192,177096,1,0,0:0:0:0:
320,192,177336,1,0,0:0:0:0:
448,192,177456,1,0,0:0:0:0:
64,192,177576,1,0,0:0:0:0:
192,192,177616,1,0,0:0:0:0:
320,192,177816,1,0,0:0:0:0:
448,192,177816,1,0,0:0:0:0:
320,192,178056,1,0,0:0:0:0:
192,192,178296,1,0,0:0:0:0:
320,192,178336,1,0,0:0:0:0:
448,192,178376,1,0,0:0:0:0:
64,192,178776,1,0,0:0:0:0:
320,192,179016,1,0,0:0:0:0:
192,192,179056,1,0,0:0:0:0:
64,192,179096,1,0,0:0:0:0:
448,192,179256,1,0,0:0:0:0:
448,192,179536,128,0,179616:0:0:0:0:
64,192,179676,1,0,0:0:0:0:
320,192,179736,1,0,0:0:0:0:
320,192,179976,128,0,180216:0:0:0:0:
64,192,180216,128,0,180296:0:0:0:0:
448,192,180296,128,0,180376:0:0:0:0:
192,192,180376,128,0,180456:0:0:0:0:
320,192,180456,128,0,180696:0:0:0:0:
64,192,180696,128,0,180936:0:0:0:0:
448,192,180936,128,0,181056:0:0:0:0:
192,192,181056,128,0,181176:0:0:0:0:
320,192,181176,128,0,181296:0:0:0:0:
64,192,181296,128,0,181416:0:0:0:0:
448,192,181416,128,0,181656:0:0:0:0:
192,192,181656,128,0,181896:0:0:0:0:
448,192,181896,128,0,182016:0:0:0:0:
64,192,182016,128,0,182136:0:0:0:0:
320,192,182136,128,0,182256:0:0:0:0:
192,192,182256,128,0,182376:0:0:0:0:
448,192,182376,128,0,182616:0:0:0:0:
64,192,182616,128,0,182856:0:0:0:0:
320,192,182856,128,0,182976:0:0:0:0:
448,192,182976,128,0,183096:0:0:0:0:
192,192,183096,128,0,183216:0:0:0:0:
64,192,183216,128,0,183336:0:0:0:0:
448,192,183336,128,0,183576:0:0:0:0:
64,192,183576,128,0,183816:0:0:0:0:
320,192,183816,128,0,183876:0:0:0:0:
448,192,183936,128,0,183996:0:0:0:0:
320,192,184056,128,0,184116:0:0:0:0:
448,192,184176,128,0,184236:0:0:0:0:
192,192,184296,128,0,184536:0:0:0:0:
448,192,184536,128,0,184776:0:0:0:0:
64,192,184776,128,0,184896:0:0:0:0:
320,192,184896,128,0,185016:0:0:0:0:
192,192,185016,128,0,185136:0:0:0:0:
448,192,185136,128,0,185256:0:0:0:0:
64,192,185256,128,0,185496:0:0:0:0:
320,192,185496,128,0,185736:0:0:0:0:
64,192,185736,128,0,185856:0:0:0:0:
448,192,185856,128,0,185976:0:0:0:0:
192,192,185976,128,0,186096:0:0:0:0:
320,192,186096,128,0,186216:0:0:0:0:
64,192,186216,128,0,186456:0:0:0:0:
448,192,186456,128,0,186696:0:0:0:0:
192,192,186696,128,0,186816:0:0:0:0:
64,192,186816,128,0,186936:0:0:0:0:
320,192,186936,128,0,187056:0:0:0:0:
448,192,187056,128,0,187176:0:0:0:0:
64,192,187176,128,0,187416:0:0:0:0:
448,192,187416,128,0,187656:0:0:0:0:
192,192,187656,128,0,187716:0:0:0:0:
64,192,187776,128,0,187836:0:0:0:0:
192,192,187896,128,0,187956:0:0:0:0:
64,192,188016,128,0,188076:0:0:0:0:
320,192,188136,128,0,188376:0:0:0:0:
64,192,188376,128,0,188616:0:0:0:0:
448,192,188616,128,0,188736:0:0:0:0:
192,192,188736,128,0,188856:0:0:0:0:
320,192,188856,128,0,188976:0:0:0:0:
64,192,188976,128,0,189096:0:0:0:0:
448,192,189096,128,0,189336:0:0:0:0:
192,192,189336,128,0,189576:0:0:0:0:
448,192,189576,128,0,189696:0:0:0:0:
64,192,189696,128,0,189816:0:0:0:0:
320,192,189816,128,0,189936:0:0:0:0:
192,192,189936,128,0,190056:0:0:0:0:
448,192,190056,128,0,190296:0:0:0:0:
64,192,190296,128,0,190536:0:0:0:0:
320,192,190536,128,0,190656:0:0:0:0:
448,192,190656,128,0,190776:0:0:0:0:
192,192,190776,128,0,190896:0:0:0:0:
64,192,190896,128,0,191016:0:0:0:0:
448,192,191016,128,0,191256:0:0:0:0:
64,192,191256,128,0,191496:0:0:0:0:
320,192,191496,128,0,191556:0:0:0:0:
448,192,191616,128,0,191676:0:0:0:0:
320,192,191736,128,0,191796:0:0:0:0:
448,192,191856,128,0,191916:0:0:0:0:
192,192,191976,128,0,192216:0:0:0:0:
448,192,192216,128,0,192456:0:0:0:0:
64,192,192456,128,0,192576:0:0:0:0:
320,192,192576,128,0,192696:0:0:0:0:
192,192,192696,128,0,192816:0:0:0:0:
448,192,192816,128,0,192936:0:0:0:0:
64,192,192936,128,0,193176:0:0:0:0:
320,192,193176,128,0,193416:0:0:0:0:
64,192,193416,128,0,193536:0:0:0:0:
448,192,193536,128,0,193656:0:0:0:0:
192,192,193656,128,0,193776:0:0:0:0:
320,192,193776,128,0,193896:0:0:0:0:
64,192,193896,128,0,194136:0:0:0:0:
448,192,194136,128,0,194376:0:0:0:0:
192,192,194376,128,0,194496:0:0:0:0:
64,192,194496,128,0,194616:0:0:0:0:
448,192,194616,128,0,194736:0:0:0:0:
192,192,194736,128,0,194856:0:0:0:0:
448,192,194856,1,0,0:0:0:0:
64,192,194856,1,0,0:0:0:0:
320,192,194856,1,0,0:0:0:0:
192,192,194976,1,0,0:0:0:0:
448,192,195096,1,0,0:0:0:0:
64,192,195096,1,0,0:0:0:0:
320,192,195216,1,0,0:0:0:0:
192,192,195336,1,0,0:0:0:0:
64,192,195336,1,0,0:0:0:0:
192,192,195456,1,0,0:0:0:0:
320,192,195576,1,0,0:0:0:0:
448,192,195576,1,0,0:0:0:0:
320,192,195696,1,0,0:0:0:0:
192,192,195816,1,0,0:0:0:0:
64,192,195816,1,0,0:0:0:0:
448,192,195816,1,0,0:0:0:0:
192,192,196056,1,0,0:0:0:0:
448,192,196056,1,0,0:0:0:0:
320,192,196056,1,0,0:0:0:0:
192,192,196296,1,0,0:0:0:0:
320,192,196416,1,0,0:0:0:0:
192,192,196536,1,0,0:0:0:0:
64,192,196536,1,0,0:0:0:0:
448,192,196776,1,0,0:0:0:0:
64,192,196776,1,0,0:0:0:0:
448,192,197016,1,0,0:0:0:0:
192,192,197016,1,0,0:0:0:0:
320,192,197016,1,0,0:0:0:0:
320,192,197256,1,0,0:0:0:0:
320,192,197376,1,0,0:0:0:0:
192,192,197496,1,0,0:0:0:0:
64,192,197496,1,0,0:0:0:0:
448,192,197736,1,0,0:0:0:0:
320,192,197736,1,0,0:0:0:0:
64,192,197976,1,0,0:0:0:0:
192,192,197976,1,0,0:0:0:0:
448,192,197976,1,0,0:0:0:0:
320,192,198216,1,0,0:0:0:0:
64,192,198336,1,0,0:0:0:0:
320,192,198456,1,0,0:0:0:0:
192,192,198456,1,0,0:0:0:0:
320,192,198696,1,0,0:0:0:0:
448,192,198696,1,0,0:0:0:0:
64,192,198936,1,0,0:0:0:0:
448,192,198996,1,0,0:0:0:0:
192,192,199056,1,0,0:0:0:0:
64,192,199116,1,0,0:0:0:0:
320,192,199176,1,0,0:0:0:0:
448,192,199176,1,0,0:0:0:0:
192,192,199296,1,0,0:0:0:0:
64,192,199296,1,0,0:0:0:0:
192,192,199416,1,0,0:0:0:0:
64,192,199416,1,0,0:0:0:0:
448,192,199896,1,0,0:0:0:0:
320,192,199896,1,0,0:0:0:0:
64,192,199896,1,0,0:0:0:0:
192,192,200136,1,0,0:0:0:0:
192,192,200256,1,0,0:0:0:0:
64,192,200376,1,0,0:0:0:0:
448,192,200376,1,0,0:0:0:0:
448,192,200616,1,0,0:0:0:0:
320,192,200616,1,0,0:0:0:0:
64,192,200856,1,0,0:0:0:0:
192,192,200856,1,0,0:0:0:0:
448,192,200856,1,0,0:0:0:0:
192,192,201096,1,0,0:0:0:0:
320,192,201216,1,0,0:0:0:0:
64,192,201336,1,0,0:0:0:0:
192,192,201336,1,0,0:0:0:0:
192,192,201576,1,0,0:0:0:0:
320,192,201576,1,0,0:0:0:0:
448,192,201816,1,0,0:0:0:0:
320,192,201816,1,0,0:0:0:0:
64,192,201816,1,0,0:0:0:0:
192,192,202056,1,0,0:0:0:0:
192,192,202176,1,0,0:0:0:0:
320,192,202296,1,0,0:0:0:0:
448,192,202296,1,0,0:0:0:0:
64,192,202536,1,0,0:0:0:0:
192,192,202536,1,0,0:0:0:0:
448,192,202536,1,0,0:0:0:0:
448,192,202776,1,0,0:0:0:0:
192,192,202776,1,0,0:0:0:0:
64,192,202776,1,0,0:0:0:0:
448,192,203016,1,0,0:0:0:0:
320,192,203016,1,0,0:0:0:0:
64,192,203016,1,0,0:0:0:0:
448,192,203256,1,0,0:0:0:0:
320,192,203256,1,0,0:0:0:0:
64,192,203256,1,0,0:0:0:0:
192,192,203496,1,0,0:0:0:0:
320,192,203496,1,0,0:0:0:0:
64,192,203736,1,0,0:0:0:0:
192,192,203736,1,0,0:0:0:0:
448,192,203736,1,0,0:0:0:0:
320,192,203976,1,0,0:0:0:0:
192,192,204096,1,0,0:0:0:0:
320,192,204216,1,0,0:0:0:0:
448,192,204216,1,0,0:0:0:0:
64,192,204456,1,0,0:0:0:0:
448,192,204456,1,0,0:0:0:0:
64,192,204696,1,0,0:0:0:0:
320,192,204696,1,0,0:0:0:0:
192,192,204696,1,0,0:0:0:0:
192,192,204936,1,0,0:0:0:0:
192,192,205056,1,0,0:0:0:0:
320,192,205176,1,0,0:0:0:0:
448,192,205176,1,0,0:0:0:0:
64,192,205416,1,0,0:0:0:0:
192,192,205416,1,0,0:0:0:0:
448,192,205656,1,0,0:0:0:0:
320,192,205656,1,0,0:0:0:0:
64,192,205656,1,0,0:0:0:0:
192,192,205896,1,0,0:0:0:0:
448,192,206016,1,0,0:0:0:0:
192,192,206136,1,0,0:0:0:0:
320,192,206136,1,0,0:0:0:0:
192,192,206376,1,0,0:0:0:0:
64,192,206376,1,0,0:0:0:0:
64,192,206616,1,0,0:0:0:0:
320,192,206616,1,0,0:0:0:0:
448,192,206616,1,0,0:0:0:0:
192,192,206856,1,0,0:0:0:0:
192,192,206976,1,0,0:0:0:0:
320,192,207096,1,0,0:0:0:0:
448,192,207096,1,0,0:0:0:0:
64,192,207336,1,0,0:0:0:0:
320,192,207336,1,0,0:0:0:0:
64,192,207576,1,0,0:0:0:0:
192,192,207576,1,0,0:0:0:0:
448,192,207576,1,0,0:0:0:0:
320,192,207816,1,0,0:0:0:0:
192,192,207936,1,0,0:0:0:0:
448,192,208056,1,0,0:0:0:0:
320,192,208056,1,0,0:0:0:0:
64,192,208296,1,0,0:0:0:0:
192,192,208296,1,0,0:0:0:0:
448,192,208536,1,0,0:0:0:0:
320,192,208536,1,0,0:0:0:0:
64,192,208536,1,0,0:0:0:0:
192,192,208776,1,0,0:0:0:0:
192,192,208896,1,0,0:0:0:0:
64,192,209016,1,0,0:0:0:0:
448,192,209016,1,0,0:0:0:0:
320,192,209256,1,0,0:0:0:0:
192,192,209256,1,0,0:0:0:0:
64,192,209496,1,0,0:0:0:0:
192,192,209496,1,0,0:0:0:0:
448,192,209496,1,0,0:0:0:0:
320,192,209736,1,0,0:0:0:0:
448,192,209856,1,0,0:0:0:0:
64,192,209976,1,0,0:0:0:0:
320,192,209976,1,0,0:0:0:0:
448,192,210216,1,0,0:0:0:0:
192,192,210216,1,0,0:0:0:0:
64,192,210456,1,0,0:0:0:0:
320,192,210456,1,0,0:0:0:0:
448,192,210456,1,0,0:0:0:0:
192,192,210576,1,0,0:0:0:0:
448,192,210696,1,0,0:0:0:0:
320,192,210696,1,0,0:0:0:0:
320,192,210816,1,0,0:0:0:0:
64,192,210936,1,0,0:0:0:0:
192,192,210936,1,0,0:0:0:0:
320,192,211056,1,0,0:0:0:0:
448,192,211056,1,0,0:0:0:0:
64,192,211176,1,0,0:0:0:0:
192,192,211176,1,0,0:0:0:0:
448,192,211416,1,0,0:0:0:0:
320,192,211416,1,0,0:0:0:0:
192,192,211536,1,0,0:0:0:0:
192,192,211656,1,0,0:0:0:0:
320,192,211776,1,0,0:0:0:0:
192,192,211896,1,0,0:0:0:0:
64,192,211896,1,0,0:0:0:0:
192,192,212136,1,0,0:0:0:0:
320,192,212136,1,0,0:0:0:0:
64,192,212376,1,0,0:0:0:0:
192,192,212376,1,0,0:0:0:0:
448,192,212376,1,0,0:0:0:0:
320,192,212496,1,0,0:0:0:0:
64,192,212616,1,0,0:0:0:0:
320,192,212736,1,0,0:0:0:0:
192,192,212856,1,0,0:0:0:0:
64,192,212856,1,0,0:0:0:0:
320,192,213096,1,0,0:0:0:0:
448,192,213096,1,0,0:0:0:0:
64,192,213336,1,0,0:0:0:0:
192,192,213336,1,0,0:0:0:0:
448,192,213336,1,0,0:0:0:0:
320,192,213576,1,0,0:0:0:0:
320,192,213696,1,0,0:0:0:0:
192,192,213816,1,0,0:0:0:0:
64,192,213816,1,0,0:0:0:0:
192,192,214056,1,0,0:0:0:0:
448,192,214176,1,0,0:0:0:0:
320,192,214296,1,0,0:0:0:0:
192,192,214296,1,0,0:0:0:0:
64,192,214296,1,0,0:0:0:0:
448,192,214416,1,0,0:0:0:0:
64,192,214536,1,0,0:0:0:0:
320,192,214656,1,0,0:0:0:0:
64,192,214776,1,0,0:0:0:0:
192,192,214776,1,0,0:0:0:0:
448,192,214896,1,0,0:0:0:0:
320,192,214896,1,0,0:0:0:0:
192,192,215016,1,0,0:0:0:0:
64,192,215016,1,0,0:0:0:0:
64,192,215256,1,0,0:0:0:0:
192,192,215256,1,0,0:0:0:0:
448,192,215256,1,0,0:0:0:0:
320,192,215496,1,0,0:0:0:0:
192,192,215616,1,0,0:0:0:0:
320,192,215736,1,0,0:0:0:0:
448,192,215736,1,0,0:0:0:0:
64,192,215976,1,0,0:0:0:0:
192,192,215976,1,0,0:0:0:0:
448,192,216216,1,0,0:0:0:0:
320,192,216216,1,0,0:0:0:0:
64,192,216216,1,0,0:0:0:0:
192,192,216456,1,0,0:0:0:0:
320,192,216576,1,0,0:0:0:0:
192,192,216696,1,0,0:0:0:0:
64,192,216696,1,0,0:0:0:0:
448,192,216936,1,0,0:0:0:0:
320,192,216936,1,0,0:0:0:0:
64,192,217176,1,0,0:0:0:0:
192,192,217176,1,0,0:0:0:0:
448,192,217176,1,0,0:0:0:0:
320,192,217416,1,0,0:0:0:0:
320,192,217536,1,0,0:0:0:0:
192,192,217656,1,0,0:0:0:0:
64,192,217656,1,0,0:0:0:0:
448,192,217896,1,0,0:0:0:0:
320,192,217896,1,0,0:0:0:0:
192,192,217896,1,0,0:0:0:0:
192,192,218136,1,0,0:0:0:0:
320,192,218136,1,0,0:0:0:0:
448,192,218136,1,0,0:0:0:0:
64,192,218376,1,0,0:0:0:0:
192,192,218376,1,0,0:0:0:0:
320,192,218376,1,0,0:0:0:0:
64,192,218616,1,0,0:0:0:0:
192,192,218616,1,0,0:0:0:0:
320,192,218616,1,0,0:0:0:0:
448,192,218856,1,0,0:0:0:0:
320,192,218976,1,0,0:0:0:0:
192,192,219096,1,0,0:0:0:0:
64,192,219096,1,0,0:0:0:0:
448,192,219096,1,0,0:0:0:0:
320,192,219336,1,0,0:0:0:0:
192,192,219456,1,0,0:0:0:0:
448,192,219576,1,0,0:0:0:0:
320,192,219576,1,0,0:0:0:0:
64,192,219816,1,0,0:0:0:0:
192,192,219816,1,0,0:0:0:0:
448,192,220056,1,0,0:0:0:0:
320,192,220056,1,0,0:0:0:0:
192,192,220056,1,0,0:0:0:0:
64,192,220176,1,0,0:0:0:0:
448,192,220296,1,0,0:0:0:0:
192,192,220416,1,0,0:0:0:0:
64,192,220536,1,0,0:0:0:0:
320,192,220536,1,0,0:0:0:0:
448,192,220776,1,0,0:0:0:0:
192,192,220776,1,0,0:0:0:0:
64,192,221016,1,0,0:0:0:0:
448,192,221016,1,0,0:0:0:0:
320,192,221016,1,0,0:0:0:0:
192,192,221256,1,0,0:0:0:0:
192,192,221376,1,0,0:0:0:0:
448,192,221496,1,0,0:0:0:0:
320,192,221496,1,0,0:0:0:0:
64,192,221496,1,0,0:0:0:0:
448,192,221736,1,0,0:0:0:0:
192,192,221736,1,0,0:0:0:0:
64,192,221976,1,0,0:0:0:0:
192,192,221976,1,0,0:0:0:0:
320,192,221976,1,0,0:0:0:0:
192,192,222216,1,0,0:0:0:0:
192,192,222456,1,0,0:0:0:0:
64,192,222456,1,0,0:0:0:0:
320,192,222456,1,0,0:0:0:0:
448,192,222696,1,0,0:0:0:0:
320,192,222696,1,0,0:0:0:0:
192,192,222936,1,0,0:0:0:0:
64,192,222936,1,0,0:0:0:0:
448,192,222936,1,0,0:0:0:0:
320,192,223176,1,0,0:0:0:0:
448,192,223296,1,0,0:0:0:0:
192,192,223416,1,0,0:0:0:0:
64,192,223416,1,0,0:0:0:0:
320,192,223656,1,0,0:0:0:0:
448,192,223656,1,0,0:0:0:0:
192,192,223896,1,0,0:0:0:0:
64,192,223896,1,0,0:0:0:0:
320,192,223896,1,0,0:0:0:0:
448,192,224016,1,0,0:0:0:0:
192,192,224256,1,0,0:0:0:0:
320,192,224376,1,0,0:0:0:0:
448,192,224376,1,0,0:0:0:0:
192,192,224616,1,0,0:0:0:0:
64,192,224616,1,0,0:0:0:0:
64,192,224856,1,0,0:0:0:0:
320,192,224856,1,0,0:0:0:0:
448,192,224856,1,0,0:0:0:0:
192,192,225096,1,0,0:0:0:0:
320,192,225216,1,0,0:0:0:0:
192,192,225336,1,0,0:0:0:0:
64,192,225336,1,0,0:0:0:0:
320,192,225576,5,0,0:0:0:0:
448,192,225576,1,0,0:0:0:0:
64,192,225816,1,0,0:0:0:0:
192,192,225816,1,0,0:0:0:0:
448,192,225816,1,0,0:0:0:0:
320,192,226056,1,0,0:0:0:0:
320,192,226176,1,0,0:0:0:0:
192,192,226296,1,0,0:0:0:0:
64,192,226296,1,0,0:0:0:0:
320,192,226536,1,0,0:0:0:0:
