osu file format v14

[General]
AudioFilename: audio.mp3
AudioLeadIn: 0
PreviewTime: -1
Countdown: 1
SampleSet: Soft
StackLeniency: 0.7
Mode: 0
LetterboxInBreaks: 0
WidescreenStoryboard: 0

[Editor]
Bookmarks: 58050
DistanceSpacing: 1.1
BeatDivisor: 4
GridSize: 8
TimelineZoom: 3.299999

[Metadata]
Title:Holiday
TitleUnicode:Holiday
Artist:Patrick Jumpen
ArtistUnicode:Patrick Jumpen
Creator:Timpai
Version:Jumpen
Source:
Tags:
BeatmapID:1851418
BeatmapSetID:885841

[Difficulty]
HPDrainRate:0
CircleSize:3
OverallDifficulty:10
ApproachRate:9.5
SliderMultiplier:1.4
SliderTickRate:1

[Events]
//Background and Video events
0,0,"21014160 (1).png",0,0
//Break Periods
2,88058,120364
//Storyboard Layer 0 (Background)
//Storyboard Layer 1 (Fail)
//Storyboard Layer 2 (Pass)
//Storyboard Layer 3 (Foreground)
//Storyboard Sound Samples

[TimingPoints]
44,402.81973816717,4,2,0,100,1,0
38311,-200,4,2,0,100,0,0
45159,-10,4,2,0,100,0,1
57647,-100,4,2,0,100,0,1
57949,-100,4,2,0,100,0,0
58050,-10,4,2,0,100,0,1
69328,-100,4,2,0,100,0,0
70940,-10,4,2,0,100,0,1
70940,-10,4,2,0,100,0,1
83427,-100,4,2,0,100,0,1
83828,-100,4,2,0,100,0,0
86650,-200,4,2,0,100,0,0
109610,-10,4,2,0,100,0,1
120889,-100,4,2,0,100,0,0
122501,-10,4,2,0,100,0,1
135391,-100,4,2,0,100,0,0
164394,-100,4,2,0,100,0,1
190174,-100,4,2,0,100,0,0

[HitObjects]
71,111,44,6,0,B|86:57|86:57|158:27,2,105
164,152,1655,1,0,0:0:0:0:
248,202,1957,1,0,0:0:0:0:
273,304,2260,1,0,0:0:0:0:
273,304,2461,1,0,0:0:0:0:
438,341,3267,6,0,B|488:324|488:324|503:252,2,105
415,261,4879,1,0,0:0:0:0:
331,216,5181,1,0,0:0:0:0:
313,118,5483,1,0,0:0:0:0:
313,118,5684,1,0,0:0:0:0:
233,89,6490,6,0,P|196:49|134:45,2,105
45,207,8102,1,0,0:0:0:0:
135,177,8404,1,0,0:0:0:0:
116,270,8706,1,0,0:0:0:0:
116,270,8908,1,0,0:0:0:0:
94,374,9714,6,0,P|153:365|204:328,2,105
316,348,11325,5,0,0:0:0:0:
227,248,11627,1,0,0:0:0:0:
356,186,11930,1,0,0:0:0:0:
356,186,12131,1,0,0:0:0:0:
136,40,12531,6,0,P|72:112|72:136,1,105
40,216,12934,1,0,0:0:0:0:
160,296,13236,1,0,0:0:0:0:
192,168,13538,1,0,0:0:0:0:
192,168,13739,2,0,P|272:208|328:208,1,140
416,96,14545,5,0,0:0:0:0:
408,256,14847,1,0,0:0:0:0:
296,296,15149,1,0,0:0:0:0:
296,296,15351,2,0,P|228:309|160:288,1,140
192,104,16156,5,0,0:0:0:0:
88,248,16458,1,0,0:0:0:0:
248,248,16761,1,0,0:0:0:0:
248,248,16962,2,0,P|312:232|376:272,1,140
242,83,17768,5,0,0:0:0:0:
417,118,18070,1,0,0:0:0:0:
300,227,18373,1,0,0:0:0:0:
300,227,18574,2,0,P|240:261|222:327,1,140
168,200,19379,5,0,0:0:0:0:
81,355,19681,1,0,0:0:0:0:
13,210,19984,1,0,0:0:0:0:
13,210,20185,2,0,P|0:143|56:88,1,140
152,64,20990,5,0,0:0:0:0:
296,80,21292,1,0,0:0:0:0:
192,208,21595,1,0,0:0:0:0:
192,208,21796,2,0,P|256:192|320:232,1,140
368,120,22601,5,0,0:0:0:0:
480,192,22903,1,0,0:0:0:0:
360,256,23206,1,0,0:0:0:0:
360,256,23407,2,0,P|416:288|472:352,1,140
224,288,24213,5,0,0:0:0:0:
112,344,24515,1,0,0:0:0:0:
112,192,24818,1,0,0:0:0:0:
112,192,25019,2,0,P|176:176|224:112,1,140
176,40,25824,5,0,0:0:0:0:
384,48,26126,1,0,0:0:0:0:
32,128,26429,1,0,0:0:0:0:
32,128,26630,2,0,P|71:180|59:255,1,140
208,336,27435,5,0,0:0:0:0:
136,208,27737,1,0,0:0:0:0:
296,216,28040,1,0,0:0:0:0:
296,216,28241,2,0,P|296:152|264:80,1,140
80,40,29047,5,0,0:0:0:0:
72,168,29349,1,0,0:0:0:0:
72,320,29652,1,0,0:0:0:0:
72,320,29853,2,0,P|136:304|200:344,1,140
250,300,30658,5,0,0:0:0:0:
421,254,30960,1,0,0:0:0:0:
297,153,31263,1,0,0:0:0:0:
297,153,31464,2,0,P|237:125|213:54,1,140
328,72,32269,5,0,0:0:0:0:
456,40,32571,1,0,0:0:0:0:
360,200,32874,1,0,0:0:0:0:
360,200,33075,2,0,P|424:184|488:224,1,140
192,104,33880,5,0,0:0:0:0:
88,248,34182,1,0,0:0:0:0:
248,248,34485,1,0,0:0:0:0:
248,248,34686,2,0,P|312:232|376:272,1,140
304,328,35492,5,0,0:0:0:0:
96,288,35794,1,0,0:0:0:0:
0,128,36097,1,0,0:0:0:0:
0,128,36298,2,0,P|64:120|120:168,1,140
344,40,37103,5,0,0:0:0:0:
240,184,37405,1,0,0:0:0:0:
296,120,37708,1,0,0:0:0:0:
296,120,37909,2,0,P|352:153|363:210,1,105
376,296,38321,6,0,L|432:241,13,70
230,330,43660,5,0,0:0:0:0:
179,327,43760,1,0,0:0:0:0:
141,291,43861,1,0,0:0:0:0:
133,240,43962,1,0,0:0:0:0:
170,204,44062,1,0,0:0:0:0:
120,189,44163,5,0,0:0:0:0:
84,150,44264,1,0,0:0:0:0:
83,98,44365,1,0,0:0:0:0:
113,57,44465,1,0,0:0:0:0:
166,57,44566,1,0,0:0:0:0:
194,103,44667,5,0,0:0:0:0:
229,142,44768,1,0,0:0:0:0:
281,148,44868,1,0,0:0:0:0:
324,122,44969,1,0,0:0:0:0:
330,69,45070,1,0,0:0:0:0:
466,76,45171,6,0,B|411:216|268:-9|268:-9|115:212|-40:25|-40:25|-147:310|114:428,1,1050
466,76,45573,6,0,B|397:426|397:426|106:120|476:186|476:186|18:421,1,1050
56,32,45976,6,0,B|-8:465|343:291|343:291|212:-3|213:-4|-136:406|-135:407,1,1050
56,352,46379,6,0,B|426:351|424:351|423:351|425:351|425:351|70:175|70:175|434:119,1,1050
488,304,46782,6,0,B|183:516|185:514|186:514|184:515|184:515|374:168|374:168|119:293,1,1050
405,41,47185,6,0,B|251:386|251:386|130:21|122:15|122:13|205:244|205:244|345:241,1,1050,0|0,0:0|0:0,0:3:0:0:
38,94,47588,6,0,B|414:54|414:54|158:342|156:352|156:352|313:165|313:165|241:45,1,1050
46,348,47991,6,0,B|48:0|48:0|190:16|243:121|179:220|69:219|43:196|43:196|174:377|188:376|188:376|285:365,1,1050
449,334,48394,6,0,B|199:64|280:-11|516:-43|670:-57|804:153|705:320|448:347|415:352|367:350,1,1050
415,47,48797,6,0,B|350:412|350:409|351:409|350:411|350:411|239:31|239:31|148:301,1,1050
59,32,49200,6,0,B|151:302|151:302|262:-78|262:-78|263:-76|262:-77|262:-79|327:286,1,1050
14,345,49603,6,0,B|495:327|495:327|299:38|-4:277,1,1050
461,350,50006,6,0,B|182:83|-41:381|-41:381|-66:119|-66:119|365:3,1,1050
438,34,50408,6,0,B|500:389|500:389|126:111|-27:379|-27:379|46:359,1,1050
40,28,50811,6,0,B|22:444|22:444|331:77|199:14|199:14|-14:206|-14:206|-8:213,1,1050
67,376,51214,6,0,B|387:191|387:191|-27:236|-27:236|471:182,1,1050
472,330,51617,6,0,B|62:299|62:299|309:80|309:80|473:353|454:394,1,1050
410,36,52020,6,0,B|280:390|5:129|5:129|520:140,1,1050
75,29,52423,6,0,B|443:309|244:-88|78:-191|78:-191|413:113,1,1050
67,323,52826,6,0,B|482:180|482:180|315:-85|316:-84|224:368,1,1050
442,348,53229,6,0,B|214:57|214:57|457:366|457:366|219:65,1,1050
471,42,53632,6,0,B|68:332|68:332|486:27|486:27|457:47,1,1050
0,39,54035,6,0,B|-116:391|-116:391|203:-7|203:-7|116:468,1,1050
146,370,54438,6,0,B|393:103|-1:37|-1:37|1:333|1:333|264:234,1,1050
466,332,54841,6,0,B|505:359|505:359|250:183|250:183|-15:352|-15:352|-33:138|357:202,1,1050
488,66,55244,6,0,B|478:194|333:-33|20:177|334:220|-16:370|-16:370|169:-15,1,1050
65,42,55646,6,0,B|324:356|324:356|19:174|283:99|490:18|64:-39|-3:-55,1,1050
57,320,56049,6,0,B|303:347|303:347|87:622|298:299|-279:290|-263:562|200:266,1,1050
442,370,56452,6,0,B|51:262|381:327|51:356|379:128|383:133|538:353|538:353|144:289|-32:310,1,1050
409,40,56855,6,0,B|737:148|125:269|125:269|189:58|323:263|734:170,1,1050
64,25,57258,6,0,B|46:377|46:377|-16:-11|-16:-11|216:97|299:278|-22:254|-77:74,1,1050
256,112,57661,6,0,L|256:232,1,105
466,76,58064,6,0,B|411:216|268:-9|268:-9|115:212|-40:25|-40:25|-147:310|114:428,1,1050
466,76,58467,6,0,B|397:426|397:426|106:120|476:186|476:186|18:421,1,1050
56,32,58870,6,0,B|-8:465|343:291|343:291|212:-3|213:-4|-136:406|-135:407,1,1050
56,352,59273,6,0,B|426:351|424:351|423:351|425:351|425:351|70:175|70:175|434:119,1,1050
488,304,59676,6,0,B|183:516|185:514|186:514|184:515|184:515|374:168|374:168|119:293,1,1050
405,41,60079,6,0,B|251:386|251:386|130:21|122:15|122:13|205:244|205:244|345:241,1,1050,0|0,0:0|0:0,0:3:0:0:
38,94,60481,6,0,B|414:54|414:54|158:342|156:352|156:352|313:165|313:165|241:45,1,1050
46,348,60884,6,0,B|48:0|48:0|190:16|243:121|179:220|69:219|43:196|43:196|174:377|188:376|188:376|285:365,1,1050
449,334,61287,6,0,B|199:64|280:-11|516:-43|670:-57|804:153|705:320|448:347|415:352|367:350,1,1050
415,47,61690,6,0,B|350:412|350:409|351:409|350:411|350:411|239:31|239:31|148:301,1,1050
59,32,62093,6,0,B|151:302|151:302|262:-78|262:-78|263:-76|262:-77|262:-79|327:286,1,1050
14,345,62496,6,0,B|495:327|495:327|299:38|-4:277,1,1050
461,350,62899,6,0,B|182:83|-41:381|-41:381|-66:119|-66:119|365:3,1,1050
438,34,63302,6,0,B|500:389|500:389|126:111|-27:379|-27:379|46:359,1,1050
40,28,63705,6,0,B|22:444|22:444|331:77|199:14|199:14|-14:206|-14:206|-8:213,1,1050
67,376,64108,6,0,B|387:191|387:191|-27:236|-27:236|471:182,1,1050
472,330,64511,6,0,B|62:299|62:299|309:80|309:80|473:353|454:394,1,1050
410,36,64914,6,0,B|280:390|5:129|5:129|520:140,1,1050
75,29,65316,6,0,B|443:309|244:-88|78:-191|78:-191|413:113,1,1050
67,323,65719,6,0,B|482:180|482:180|315:-85|316:-84|224:368,1,1050
442,348,66122,6,0,B|214:57|214:57|457:366|457:366|219:65,1,1050
471,42,66525,6,0,B|68:332|68:332|486:27|486:27|457:47,1,1050
0,39,66928,6,0,B|-116:391|-116:391|203:-7|203:-7|116:468,1,1050
146,370,67331,6,0,B|393:103|-1:37|-1:37|1:333|1:333|264:234,1,1050
466,332,67734,6,0,B|505:359|505:359|250:183|250:183|-15:352|-15:352|-33:138|357:202,1,1050
488,66,68137,6,0,B|478:194|333:-33|20:177|334:220|-16:370|-16:370|169:-15,1,1050
65,42,68540,6,0,B|324:356|324:356|19:174|283:99|490:18|64:-39|-3:-55,1,1050
57,320,68943,6,0,B|303:347|303:347|87:622|298:299|-279:290|-263:562|200:266,1,1050
512,384,69346,5,0,0:0:0:0:
512,0,69648,1,0,0:0:0:0:
0,0,69950,1,0,0:0:0:0:
0,384,70152,1,0,0:0:0:0:
448,80,70554,2,0,L|384:168,1,105
466,76,70940,6,0,B|411:216|268:-9|268:-9|115:212|-40:25|-40:25|-147:310|114:428,1,1050
466,76,71342,6,0,B|397:426|397:426|106:120|476:186|476:186|18:421,1,1050
56,32,71745,6,0,B|-8:465|343:291|343:291|212:-3|213:-4|-136:406|-135:407,1,1050
56,352,72148,6,0,B|426:351|424:351|423:351|425:351|425:351|70:175|70:175|434:119,1,1050
488,304,72551,6,0,B|183:516|185:514|186:514|184:515|184:515|374:168|374:168|119:293,1,1050
405,41,72954,6,0,B|251:386|251:386|130:21|122:15|122:13|205:244|205:244|345:241,1,1050,0|0,0:0|0:0,0:3:0:0:
38,94,73357,6,0,B|414:54|414:54|158:342|156:352|156:352|313:165|313:165|241:45,1,1050
46,348,73760,6,0,B|48:0|48:0|190:16|243:121|179:220|69:219|43:196|43:196|174:377|188:376|188:376|285:365,1,1050
449,334,74163,6,0,B|199:64|280:-11|516:-43|670:-57|804:153|705:320|448:347|415:352|367:350,1,1050
415,47,74566,6,0,B|350:412|350:409|351:409|350:411|350:411|239:31|239:31|148:301,1,1050
59,32,74969,6,0,B|151:302|151:302|262:-78|262:-78|263:-76|262:-77|262:-79|327:286,1,1050
14,345,75372,6,0,B|495:327|495:327|299:38|-4:277,1,1050
461,350,75775,6,0,B|182:83|-41:381|-41:381|-66:119|-66:119|365:3,1,1050
438,34,76177,6,0,B|500:389|500:389|126:111|-27:379|-27:379|46:359,1,1050
40,28,76580,6,0,B|22:444|22:444|331:77|199:14|199:14|-14:206|-14:206|-8:213,1,1050
67,376,76983,6,0,B|387:191|387:191|-27:236|-27:236|471:182,1,1050
472,330,77386,6,0,B|62:299|62:299|309:80|309:80|473:353|454:394,1,1050
410,36,77789,6,0,B|280:390|5:129|5:129|520:140,1,1050
75,29,78192,6,0,B|443:309|244:-88|78:-191|78:-191|413:113,1,1050
67,323,78595,6,0,B|482:180|482:180|315:-85|316:-84|224:368,1,1050
442,348,78998,6,0,B|214:57|214:57|457:366|457:366|219:65,1,1050
471,42,79401,6,0,B|68:332|68:332|486:27|486:27|457:47,1,1050
0,39,79804,6,0,B|-116:391|-116:391|203:-7|203:-7|116:468,1,1050
146,370,80207,6,0,B|393:103|-1:37|-1:37|1:333|1:333|264:234,1,1050
466,332,80610,6,0,B|505:359|505:359|250:183|250:183|-15:352|-15:352|-33:138|357:202,1,1050
488,66,81013,6,0,B|478:194|333:-33|20:177|334:220|-16:370|-16:370|169:-15,1,1050
65,42,81415,6,0,B|324:356|324:356|19:174|283:99|490:18|64:-39|-3:-55,1,1050
57,320,81818,6,0,B|303:347|303:347|87:622|298:299|-279:290|-263:562|200:266,1,1050
442,370,82221,6,0,B|51:262|381:327|51:356|379:128|383:133|538:353|538:353|144:289|-32:310,1,1050
409,40,82624,6,0,B|737:148|125:269|125:269|189:58|323:263|734:170,1,1050
64,25,83027,6,0,B|46:377|46:377|-16:-11|-16:-11|216:97|299:278|-22:254|-77:74,1,1050
320,40,83427,2,0,L|312:168,1,105
120,352,83830,5,0,0:0:0:0:
264,312,84132,1,0,0:0:0:0:
160,128,84434,1,0,0:0:0:0:
32,224,84635,1,0,0:0:0:0:
64,144,85441,5,0,0:0:0:0:
168,56,85743,1,0,0:0:0:0:
272,72,86046,1,0,0:0:0:0:
160,208,86247,1,0,0:0:0:0:
248,328,86650,6,0,L|272:264,1,52.5
472,248,87053,5,0,0:0:0:0:
104,304,87355,1,0,0:0:0:0:
104,96,87657,1,0,0:0:0:0:
104,96,87858,1,0,0:0:0:0:
104,48,120889,5,0,0:0:0:0:
128,96,120990,1,0,0:0:0:0:
184,88,121091,1,0,0:0:0:0:
160,32,121192,1,0,0:0:0:0:
112,80,121292,1,0,0:0:0:0:
152,128,121393,1,0,0:0:0:0:
192,144,121494,1,0,0:0:0:0:
248,88,121594,1,0,0:0:0:0:
160,24,121695,1,0,0:0:0:0:
88,64,121796,1,0,0:0:0:0:
96,152,121896,1,0,0:0:0:0:
176,200,121997,1,0,0:0:0:0:
208,40,122098,1,0,0:0:0:0:
96,80,122199,1,0,0:0:0:0:
128,200,122299,1,0,0:0:0:0:
264,160,122400,1,0,0:0:0:0:
