osu file format v14

[General]
AudioFilename: asd.mp3
AudioLeadIn: 0
PreviewTime: 139215
Countdown: 0
SampleSet: None
StackLeniency: 0.7
Mode: 3
LetterboxInBreaks: 0
SpecialStyle: 0
WidescreenStoryboard: 0

[Editor]
Bookmarks: 19215,28815,38415,55815,66015,79215,84015,98415,117615,136815,146415,151215,156015,165615,170415,175215,180015,184815,214815,234015,242415,250815,254415,274815,284415,322815,342015,360015,370815,380415,390015,398415,418815,428415,432015,439215,471615,490815
DistanceSpacing: 1
BeatDivisor: 4
GridSize: 16
TimelineZoom: 2.850002

[Metadata]
Title:Fifth Element
TitleUnicode:Fifth Element
Artist:Pathfinder
ArtistUnicode:Pathfinder
Creator:Xenophilius
Version:Marathonna
Source:
Tags:symphonic power metal
BeatmapID:840291
BeatmapSetID:384557

[Difficulty]
HPDrainRate:8
CircleSize:7
OverallDifficulty:8
ApproachRate:5
SliderMultiplier:1.4
SliderTickRate:1

[Events]
//Background and Video events
0,0,"Fifth_bg.jpg",0,0
//Break Periods
//Storyboard Layer 0 (Background)
//Storyboard Layer 1 (Fail)
//Storyboard Layer 2 (Pass)
//Storyboard Layer 3 (Foreground)
//Storyboard Sound Samples

[TimingPoints]
15,300,4,3,0,15,1,0
615,-200,4,3,0,15,0,0
915,-66.6666666666667,4,3,0,15,0,0
1215,-200,4,3,0,15,0,0
1515,-66.6666666666667,4,3,0,15,0,0
1815,-200,4,3,0,15,0,0
2115,-100,4,3,0,15,0,0
3015,-200,4,3,0,15,0,0
3315,-66.6666666666667,4,3,0,15,0,0
3615,-200,4,3,0,15,0,0
3915,-66.6666666666667,4,3,0,15,0,0
4215,-200,4,3,0,15,0,0
4515,-100,4,3,0,15,0,0
5415,-200,4,3,0,15,0,0
5715,-66.6666666666667,4,3,0,15,0,0
6015,-200,4,3,0,15,0,0
6315,-66.6666666666667,4,3,0,15,0,0
6615,-200,4,3,0,15,0,0
6915,-100,4,3,0,15,0,0
10215,-200,4,3,0,15,0,0
10515,-66.6666666666667,4,3,0,15,0,0
10815,-100,4,3,0,15,0,0
15015,-200,4,3,0,15,0,0
15315,-66.6666666666667,4,3,0,15,0,0
15615,-200,4,3,0,15,0,0
15915,-66.6666666666667,4,3,0,15,0,0
16215,-200,4,3,0,15,0,0
16515,-66.6666666666667,4,3,0,15,0,0
16815,-100,4,3,0,15,0,0
38415,-200,4,3,0,15,0,0
38565,-66.6666666666667,4,3,0,15,0,0
38715,-100,4,3,0,15,0,0
40815,-50,4,3,0,15,0,0
40890,-151.515151515152,4,3,0,15,0,0
41115,-100,4,3,0,15,0,0
41715,-50,4,3,0,15,0,0
41790,-151.515151515152,4,3,0,15,0,0
42015,-100,4,3,0,15,0,0
43215,-50,4,3,0,15,0,0
43290,-151.515151515152,4,3,0,15,0,0
43515,-100,4,3,0,15,0,0
43815,-50,4,3,0,15,0,0
43890,-151.515151515152,4,3,0,15,0,0
44115,-50,4,3,0,15,0,0
44190,-151.515151515152,4,3,0,15,0,0
44415,-100,4,3,0,15,0,0
45315,-50,4,3,0,15,0,0
45390,-151.515151515152,4,3,0,15,0,0
45615,-100,4,3,0,15,0,0
45915,-50,4,3,0,15,0,0
45990,-151.515151515152,4,3,0,15,0,0
46215,-66.6666666666667,4,3,0,15,0,0
46290,-200,4,3,0,15,0,0
46365,-100,4,3,0,15,0,0
46815,-50,4,3,0,15,0,0
46890,-151.515151515152,4,3,0,15,0,0
47115,-100,4,3,0,15,0,0
48015,-83.3333333333333,4,3,0,15,0,0
48915,-250,4,3,0,15,0,0
49215,-117.647058823529,4,3,0,15,0,0
50415,-100,4,3,0,15,0,0
50715,-117.647058823529,4,3,0,15,0,0
52815,-100,4,3,0,15,0,0
55815,-117.647058823529,4,3,0,15,0,0
57615,-100,4,3,0,15,0,0
84015,-117.647058823529,4,3,0,15,0,0
86415,-100,4,3,0,15,0,0
86715,-200,4,3,0,15,0,0
86865,-66.6666666666667,4,3,0,15,0,0
87015,-100,4,3,0,15,0,0
87315,-200,4,3,0,15,0,0
87465,-66.6666666666667,4,3,0,15,0,0
87615,-100,4,3,0,15,0,0
93615,-117.647058823529,4,3,0,15,0,0
96015,-100,4,3,0,15,0,0
96315,-200,4,3,0,15,0,0
96465,-66.6666666666667,4,3,0,15,0,0
96615,-100,4,3,0,15,0,0
96915,-200,4,3,0,15,0,0
97065,-66.6666666666667,4,3,0,15,0,0
97215,-117.647058823529,4,3,0,15,0,0
98415,-100,4,3,0,15,0,0
122415,-117.647058823529,4,3,0,15,0,0
124815,-100,4,3,0,15,0,0
125115,-200,4,3,0,15,0,0
125265,-66.6666666666667,4,3,0,15,0,0
125415,-100,4,3,0,15,0,0
125715,-200,4,3,0,15,0,0
125865,-66.6666666666667,4,3,0,15,0,0
126015,-100,4,3,0,15,0,0
132015,-117.647058823529,4,3,0,15,0,0
134415,-100,4,3,0,15,0,0
134715,-200,4,3,0,15,0,0
134865,-66.6666666666667,4,3,0,15,0,0
135015,-100,4,3,0,15,0,0
136815,-133.333333333333,4,3,0,15,0,0
146415,-100,4,3,0,15,0,1
184815,-100,4,3,0,15,0,0
190215,-66.6666666666667,4,3,0,15,0,0
190515,-200,4,3,0,15,0,0
190815,-100,4,3,0,15,0,0
191415,-66.6666666666667,4,3,0,15,0,0
191715,-200,4,3,0,15,0,0
192015,-100,4,3,0,15,0,0
192615,-66.6666666666667,4,3,0,15,0,0
192915,-200,4,3,0,15,0,0
193215,-100,4,3,0,15,0,0
214815,-50,4,3,0,15,0,0
214890,-151.515151515152,4,3,0,15,0,0
215115,-100,4,3,0,15,0,0
217215,-50,4,3,0,15,0,0
217290,-151.515151515152,4,3,0,15,0,0
217515,-100,4,3,0,15,0,0
218115,-50,4,3,0,15,0,0
218190,-151.515151515152,4,3,0,15,0,0
218415,-66.6666666666667,4,3,0,15,0,0
218490,-200,4,3,0,15,0,0
218565,-100,4,3,0,15,0,0
219615,-50,4,3,0,15,0,0
219690,-151.515151515152,4,3,0,15,0,0
219915,-100,4,3,0,15,0,0
220215,-50,4,3,0,15,0,0
220290,-151.515151515152,4,3,0,15,0,0
220515,-50,4,3,0,15,0,0
220590,-151.515151515152,4,3,0,15,0,0
220815,-100,4,3,0,15,0,0
221715,-50,4,3,0,15,0,0
221790,-151.515151515152,4,3,0,15,0,0
222015,-66.6666666666667,4,3,0,15,0,0
222090,-200,4,3,0,15,0,0
222165,-100,4,3,0,15,0,0
222315,-50,4,3,0,15,0,0
222390,-151.515151515152,4,3,0,15,0,0
222615,-66.6666666666667,4,3,0,15,0,0
222690,-200,4,3,0,15,0,0
222765,-100,4,3,0,15,0,0
223215,-50,4,3,0,15,0,0
223290,-151.515151515152,4,3,0,15,0,0
223515,-100,4,3,0,15,0,0
224415,-83.3333333333333,4,3,0,15,0,0
225315,-250,4,3,0,15,0,0
225615,-117.647058823529,4,3,0,15,0,0
226815,-100,4,3,0,15,0,0
227415,-117.647058823529,4,3,0,15,0,0
229215,-100,4,3,0,15,0,0
231615,-66.6666666666667,4,3,0,15,0,0
231915,-200,4,3,0,15,0,0
232215,-117.647058823529,4,3,0,15,0,0
234015,-100,4,3,0,15,0,0
260415,-117.647058823529,4,3,0,15,0,0
262815,-100,4,3,0,15,0,0
263115,-200,4,3,0,15,0,0
263265,-66.6666666666667,4,3,0,15,0,0
263415,-100,4,3,0,15,0,0
263715,-200,4,3,0,15,0,0
263865,-66.6666666666667,4,3,0,15,0,0
264015,-100,4,3,0,15,0,0
270015,-117.647058823529,4,3,0,15,0,0
272415,-100,4,3,0,15,0,0
272715,-200,4,3,0,15,0,0
272865,-66.6666666666667,4,3,0,15,0,0
273015,-100,4,3,0,15,0,0
273315,-200,4,3,0,15,0,0
273465,-66.6666666666667,4,3,0,15,0,0
273615,-117.647058823529,4,3,0,15,0,0
274815,-133.333333333333,4,3,0,15,0,0
284415,-100,4,3,0,15,0,1
322815,-66.6666666666667,4,3,0,15,0,0
323040,-200,4,3,0,15,0,0
323262,-66.6666666666667,4,3,0,15,0,0
323490,-200,4,3,0,15,0,0
323712,-66.6666666666667,4,3,0,15,0,0
323940,-200,4,3,0,15,0,0
324162,-66.6666666666667,4,3,0,15,0,0
324390,-200,4,3,0,15,0,0
324612,-66.6666666666667,4,3,0,15,0,0
324765,-200,4,3,0,15,0,0
324915,-66.6666666666667,4,3,0,15,0,0
325065,-200,4,3,0,15,0,0
325215,-66.6666666666667,4,3,0,15,0,0
325440,-200,4,3,0,15,0,0
325665,-66.6666666666667,4,3,0,15,0,0
325890,-200,4,3,0,15,0,0
326115,-66.6666666666667,4,3,0,15,0,0
326340,-200,4,3,0,15,0,0
326565,-66.6666666666667,4,3,0,15,0,0
326790,-200,4,3,0,15,0,0
327015,-66.6666666666667,4,3,0,15,0,0
327165,-200,4,3,0,15,0,0
327315,-66.6666666666667,4,3,0,15,0,0
327465,-200,4,3,0,15,0,0
327615,-66.6666666666667,4,3,0,15,0,0
327840,-200,4,3,0,15,0,0
328065,-66.6666666666667,4,3,0,15,0,0
328290,-200,4,3,0,15,0,0
328515,-66.6666666666667,4,3,0,15,0,0
328740,-200,4,3,0,15,0,0
328965,-66.6666666666667,4,3,0,15,0,0
329190,-200,4,3,0,15,0,0
329415,-66.6666666666667,4,3,0,15,0,0
329565,-200,4,3,0,15,0,0
329715,-66.6666666666667,4,3,0,15,0,0
329865,-66.6666666666667,4,3,0,15,0,0
330012,-66.6666666666667,4,3,0,15,0,0
330240,-200,4,3,0,15,0,0
330462,-66.6666666666667,4,3,0,15,0,0
330690,-200,4,3,0,15,0,0
330912,-66.6666666666667,4,3,0,15,0,0
331140,-200,4,3,0,15,0,0
331362,-66.6666666666667,4,3,0,15,0,0
331590,-200,4,3,0,15,0,0
331815,-66.6666666666667,4,3,0,15,0,0
331965,-200,4,3,0,15,0,0
332115,-66.6666666666667,4,3,0,15,0,0
332265,-200,4,3,0,15,0,0
332415,-66.6666666666667,4,3,0,15,0,0
332640,-200,4,3,0,15,0,0
332865,-66.6666666666667,4,3,0,15,0,0
333090,-200,4,3,0,15,0,0
333315,-66.6666666666667,4,3,0,15,0,0
333540,-200,4,3,0,15,0,0
333765,-66.6666666666667,4,3,0,15,0,0
333990,-200,4,3,0,15,0,0
334215,-66.6666666666667,4,3,0,15,0,0
334365,-200,4,3,0,15,0,0
334515,-66.6666666666667,4,3,0,15,0,0
334665,-200,4,3,0,15,0,0
334815,-66.6666666666667,4,3,0,15,0,0
335040,-200,4,3,0,15,0,0
335265,-66.6666666666667,4,3,0,15,0,0
335490,-200,4,3,0,15,0,0
335715,-66.6666666666667,4,3,0,15,0,0
335940,-200,4,3,0,15,0,0
336165,-66.6666666666667,4,3,0,15,0,0
336390,-200,4,3,0,15,0,0
336615,-66.6666666666667,4,3,0,15,0,0
336765,-200,4,3,0,15,0,0
336915,-66.6666666666667,4,3,0,15,0,0
337065,-200,4,3,0,15,0,0
337215,-66.6666666666667,4,3,0,15,0,0
337440,-200,4,3,0,15,0,0
337665,-66.6666666666667,4,3,0,15,0,0
337890,-200,4,3,0,15,0,0
338115,-66.6666666666667,4,3,0,15,0,0
338340,-200,4,3,0,15,0,0
338565,-66.6666666666667,4,3,0,15,0,0
338790,-200,4,3,0,15,0,0
339015,-66.6666666666667,4,3,0,15,0,0
339165,-200,4,3,0,15,0,0
339315,-66.6666666666667,4,3,0,15,0,0
339465,-200,4,3,0,15,0,0
339615,-100,4,3,0,15,0,0
398715,-200,4,3,0,15,0,0
398865,-66.6666666666667,4,3,0,15,0,0
399015,-100,4,3,0,15,0,0
399315,-200,4,3,0,15,0,0
399465,-66.6666666666667,4,3,0,15,0,0
399615,-100,4,3,0,15,0,0
428415,-117.647058823529,4,3,0,15,0,0
442065,-200,4,3,0,15,0,0
442815,-133.333333333333,4,3,0,15,0,0
452415,-117.647058823529,4,3,0,15,0,0
471015,-100,4,3,0,15,0,0
471615,-100,4,3,0,15,0,1
490815,-100,4,3,0,15,0,0
510015,-50,4,3,0,15,0,0
510315,-66.6666666666667,4,3,0,15,0,0
510390,-200,4,3,0,15,0,0
510465,-50,4,3,0,15,0,0
510765,-66.6666666666667,4,3,0,15,0,0
510840,-200,4,3,0,15,0,0
510915,-50,4,3,0,15,0,0
511215,-66.6666666666667,4,3,0,15,0,0
511290,-200,4,3,0,15,0,0
511365,-133.333333333333,4,3,0,15,0,0
511665,-66.6666666666667,4,3,0,15,0,0
511740,-200,4,3,0,15,0,0
511815,-50,4,3,0,15,0,0
511965,-66.6666666666667,4,3,0,15,0,0
512040,-200,4,3,0,15,0,0
512115,-50,4,3,0,15,0,0
512265,-66.6666666666667,4,3,0,15,0,0
512340,-200,4,3,0,15,0,0
512415,-50,4,3,0,15,0,0
512715,-66.6666666666667,4,3,0,15,0,0
512790,-200,4,3,0,15,0,0
512865,-50,4,3,0,15,0,0
513165,-66.6666666666667,4,3,0,15,0,0
513240,-200,4,3,0,15,0,0
513315,-50,4,3,0,15,0,0
513615,-66.6666666666667,4,3,0,15,0,0
513690,-200,4,3,0,15,0,0
513765,-133.333333333333,4,3,0,15,0,0
514065,-66.6666666666667,4,3,0,15,0,0
514140,-200,4,3,0,15,0,0
514215,-50,4,3,0,15,0,0
514365,-66.6666666666667,4,3,0,15,0,0
514440,-200,4,3,0,15,0,0
514515,-50,4,3,0,15,0,0
514665,-66.6666666666667,4,3,0,15,0,0
514740,-200,4,3,0,15,0,0
514815,-50,4,3,0,15,0,0
515115,-66.6666666666667,4,3,0,15,0,0
515190,-200,4,3,0,15,0,0
515265,-50,4,3,0,15,0,0
515565,-66.6666666666667,4,3,0,15,0,0
515640,-200,4,3,0,15,0,0
515715,-50,4,3,0,15,0,0
516015,-66.6666666666667,4,3,0,15,0,0
516090,-200,4,3,0,15,0,0
516165,-133.333333333333,4,3,0,15,0,0
516465,-66.6666666666667,4,3,0,15,0,0
516540,-200,4,3,0,15,0,0
516615,-50,4,3,0,15,0,0
516765,-66.6666666666667,4,3,0,15,0,0
516840,-200,4,3,0,15,0,0
516915,-50,4,3,0,15,0,0
517065,-66.6666666666667,4,3,0,15,0,0
517140,-200,4,3,0,15,0,0
517215,-50,4,3,0,15,0,0
517515,-66.6666666666667,4,3,0,15,0,0
517590,-200,4,3,0,15,0,0
517665,-50,4,3,0,15,0,0
517965,-66.6666666666667,4,3,0,15,0,0
518040,-200,4,3,0,15,0,0
518115,-50,4,3,0,15,0,0
518415,-66.6666666666667,4,3,0,15,0,0
518490,-200,4,3,0,15,0,0
518565,-133.333333333333,4,3,0,15,0,0
518865,-66.6666666666667,4,3,0,15,0,0
518940,-200,4,3,0,15,0,0
519015,-50,4,3,0,15,0,0
519165,-66.6666666666667,4,3,0,15,0,0
519240,-200,4,3,0,15,0,0
519315,-50,4,3,0,15,0,0
519465,-66.6666666666667,4,3,0,15,0,0
519540,-200,4,3,0,15,0,0
519615,-50,4,3,0,15,0,0
519915,-66.6666666666667,4,3,0,15,0,0
519990,-200,4,3,0,15,0,0
520065,-50,4,3,0,15,0,0
520365,-66.6666666666667,4,3,0,15,0,0
520440,-200,4,3,0,15,0,0
520515,-50,4,3,0,15,0,0
520815,-66.6666666666667,4,3,0,15,0,0
520890,-200,4,3,0,15,0,0
520965,-133.333333333333,4,3,0,15,0,0
521265,-66.6666666666667,4,3,0,15,0,0
521340,-200,4,3,0,15,0,0
521415,-50,4,3,0,15,0,0
521565,-66.6666666666667,4,3,0,15,0,0
521640,-200,4,3,0,15,0,0
521715,-50,4,3,0,15,0,0
521865,-66.6666666666667,4,3,0,15,0,0
521940,-200,4,3,0,15,0,0
522015,-66.6666666666667,4,3,0,15,0,0
522090,-200,4,3,0,15,0,0

[HitObjects]
36,192,15,5,0,0:0:0:0:
256,192,15,1,0,0:0:0:0:
109,192,115,1,0,0:0:0:0:
329,192,115,1,0,0:0:0:0:
182,192,215,1,0,0:0:0:0:
402,192,215,1,0,0:0:0:0:
256,192,315,1,0,0:0:0:0:
475,192,315,1,0,0:0:0:0:
402,192,615,128,0,1215:0:0:0:0:
109,192,615,128,0,1215:0:0:0:0:
182,192,1215,128,0,1815:0:0:0:0:
256,192,1215,128,0,1815:0:0:0:0:
475,192,1215,128,0,1815:0:0:0:0:
329,192,1815,128,0,2415:0:0:0:0:
402,192,1815,128,0,2415:0:0:0:0:
36,192,1815,128,0,2415:0:0:0:0:
256,192,2415,1,0,0:0:0:0:
475,192,2415,1,0,0:0:0:0:
182,192,2515,1,0,0:0:0:0:
402,192,2515,1,0,0:0:0:0:
109,192,2615,1,0,0:0:0:0:
329,192,2615,1,0,0:0:0:0:
36,192,2715,1,0,0:0:0:0:
256,192,2715,1,0,0:0:0:0:
109,192,3015,128,0,3615:0:0:0:0:
402,192,3015,128,0,3615:0:0:0:0:
256,192,3315,128,0,3615:0:0:0:0:
329,192,3615,128,0,4215:0:0:0:0:
475,192,3615,128,0,4215:0:0:0:0:
36,192,3615,128,0,4215:0:0:0:0:
109,192,4215,128,0,4815:0:0:0:0:
182,192,4215,128,0,4815:0:0:0:0:
402,192,4215,128,0,4815:0:0:0:0:
256,192,4815,1,0,0:0:0:0:
36,192,4815,1,0,0:0:0:0:
329,192,4915,1,0,0:0:0:0:
109,192,4915,1,0,0:0:0:0:
402,192,5015,1,0,0:0:0:0:
182,192,5015,1,0,0:0:0:0:
475,192,5115,1,0,0:0:0:0:
256,192,5115,1,0,0:0:0:0:
402,192,5415,128,0,6015:0:0:0:0:
109,192,5415,128,0,6015:0:0:0:0:
256,192,6015,128,0,6615:0:0:0:0:
475,192,6015,128,0,6615:0:0:0:0:
36,192,6015,128,0,6615:0:0:0:0:
182,192,6615,128,0,7215:0:0:0:0:
329,192,6615,128,0,7215:0:0:0:0:
402,192,6615,128,0,7215:0:0:0:0:
109,192,6615,128,0,7215:0:0:0:0:
475,192,7215,128,0,7515:0:0:0:0:
36,192,7215,128,0,7515:0:0:0:0:
256,192,7515,128,0,8415:0:0:0:0:
402,192,7515,128,0,7815:0:0:0:0:
109,192,7515,128,0,7815:0:0:0:0:
475,192,7815,1,0,0:0:0:0:
402,192,7915,1,0,0:0:0:0:
329,192,8015,1,0,0:0:0:0:
36,192,8115,1,0,0:0:0:0:
109,192,8215,1,0,0:0:0:0:
182,192,8315,1,0,0:0:0:0:
475,192,8415,128,0,8715:0:0:0:0:
402,192,8415,1,0,0:0:0:0:
109,192,8415,1,0,0:0:0:0:
36,192,8415,1,0,0:0:0:0:
329,192,8715,128,0,9015:0:0:0:0:
256,192,8715,1,0,0:0:0:0:
182,192,8715,1,0,0:0:0:0:
402,192,8715,1,0,0:0:0:0:
182,192,9015,128,0,9315:0:0:0:0:
109,192,9015,1,0,0:0:0:0:
475,192,9015,1,0,0:0:0:0:
36,192,9015,1,0,0:0:0:0:
36,192,9315,128,0,9615:0:0:0:0:
402,192,9315,1,0,0:0:0:0:
329,192,9315,1,0,0:0:0:0:
109,192,9315,1,0,0:0:0:0:
475,192,9615,1,0,0:0:0:0:
256,192,9615,1,0,0:0:0:0:
402,192,9715,1,0,0:0:0:0:
182,192,9715,1,0,0:0:0:0:
329,192,9815,1,0,0:0:0:0:
109,192,9815,1,0,0:0:0:0:
256,192,9915,1,0,0:0:0:0:
36,192,9915,1,0,0:0:0:0:
109,192,10215,128,0,10815:0:0:0:0:
402,192,10215,128,0,10815:0:0:0:0:
475,192,10815,128,0,12015:0:0:0:0:
36,192,10815,1,0,0:0:0:0:
182,192,10815,1,0,0:0:0:0:
329,192,10815,1,0,0:0:0:0:
36,192,11040,1,0,0:0:0:0:
182,192,11040,1,0,0:0:0:0:
109,192,11115,1,0,0:0:0:0:
182,192,11215,1,0,0:0:0:0:
256,192,11315,1,0,0:0:0:0:
109,192,11415,128,0,12015:0:0:0:0:
329,192,11415,1,0,0:0:0:0:
402,192,11515,1,0,0:0:0:0:
182,192,11615,1,0,0:0:0:0:
256,192,11715,1,0,0:0:0:0:
329,192,11815,1,0,0:0:0:0:
402,192,11915,1,0,0:0:0:0:
256,192,12015,1,0,0:0:0:0:
36,192,12015,1,0,0:0:0:0:
109,192,12115,1,0,0:0:0:0:
329,192,12115,1,0,0:0:0:0:
182,192,12215,1,0,0:0:0:0:
402,192,12215,1,0,0:0:0:0:
475,192,12315,1,0,0:0:0:0:
256,192,12315,1,0,0:0:0:0:
329,192,12615,1,0,0:0:0:0:
109,192,12615,1,0,0:0:0:0:
475,192,12615,128,0,13215:0:0:0:0:
256,192,12915,1,0,0:0:0:0:
36,192,12915,1,0,0:0:0:0:
109,192,13215,1,0,0:0:0:0:
182,192,13215,1,0,0:0:0:0:
402,192,13215,128,0,14415:0:0:0:0:
256,192,13315,1,0,0:0:0:0:
329,192,13415,1,0,0:0:0:0:
36,192,13515,1,0,0:0:0:0:
109,192,13615,1,0,0:0:0:0:
182,192,13715,1,0,0:0:0:0:
36,192,13815,128,0,14415:0:0:0:0:
256,192,13815,1,0,0:0:0:0:
329,192,13915,1,0,0:0:0:0:
109,192,14015,1,0,0:0:0:0:
182,192,14115,1,0,0:0:0:0:
256,192,14215,1,0,0:0:0:0:
329,192,14315,1,0,0:0:0:0:
475,192,14415,1,0,0:0:0:0:
256,192,14415,1,0,0:0:0:0:
402,192,14515,1,0,0:0:0:0:
182,192,14515,1,0,0:0:0:0:
329,192,14615,1,0,0:0:0:0:
109,192,14615,1,0,0:0:0:0:
256,192,14715,1,0,0:0:0:0:
36,192,14715,1,0,0:0:0:0:
109,192,15015,128,0,15615:0:0:0:0:
402,192,15015,128,0,15615:0:0:0:0:
256,192,15315,128,0,15615:0:0:0:0:
182,192,15615,128,0,16215:0:0:0:0:
36,192,15615,128,0,16215:0:0:0:0:
475,192,15615,128,0,16215:0:0:0:0:
402,192,16215,128,0,16815:0:0:0:0:
256,192,16215,128,0,16815:0:0:0:0:
109,192,16215,128,0,16815:0:0:0:0:
329,192,16815,1,0,0:0:0:0:
475,192,16815,1,0,0:0:0:0:
36,192,16815,1,0,0:0:0:0:
109,192,16965,1,0,0:0:0:0:
402,192,16965,1,0,0:0:0:0:
182,192,17040,1,0,0:0:0:0:
329,192,17040,1,0,0:0:0:0:
256,192,17115,1,0,0:0:0:0:
475,192,17115,1,0,0:0:0:0:
36,192,17115,1,0,0:0:0:0:
402,192,17265,1,0,0:0:0:0:
109,192,17265,1,0,0:0:0:0:
329,192,17340,1,0,0:0:0:0:
182,192,17340,1,0,0:0:0:0:
256,192,17415,1,0,0:0:0:0:
36,192,17415,1,0,0:0:0:0:
475,192,17415,1,0,0:0:0:0:
109,192,17490,1,0,0:0:0:0:
402,192,17490,1,0,0:0:0:0:
182,192,17565,1,0,0:0:0:0:
329,192,17565,1,0,0:0:0:0:
256,192,17640,1,0,0:0:0:0:
402,192,17715,1,0,0:0:0:0:
109,192,17715,1,0,0:0:0:0:
475,192,17790,1,0,0:0:0:0:
36,192,17790,1,0,0:0:0:0:
329,192,17865,1,0,0:0:0:0:
182,192,17865,1,0,0:0:0:0:
109,192,17940,1,0,0:0:0:0:
402,192,17940,1,0,0:0:0:0:
36,192,18015,128,0,18165:0:0:0:0:
256,192,18015,1,0,0:0:0:0:
329,192,18090,1,0,0:0:0:0:
402,192,18165,1,0,0:0:0:0:
475,192,18240,1,0,0:0:0:0:
182,192,18315,128,0,18465:0:0:0:0:
256,192,18315,1,0,0:0:0:0:
329,192,18390,1,0,0:0:0:0:
402,192,18465,1,0,0:0:0:0:
475,192,18540,1,0,0:0:0:0:
329,192,18615,128,0,18765:0:0:0:0:
256,192,18615,1,0,0:0:0:0:
182,192,18690,1,0,0:0:0:0:
109,192,18765,1,0,0:0:0:0:
36,192,18840,1,0,0:0:0:0:
256,192,18915,1,0,0:0:0:0:
475,192,18915,128,0,19065:0:0:0:0:
182,192,18990,1,0,0:0:0:0:
109,192,19065,1,0,0:0:0:0:
36,192,19140,1,0,0:0:0:0:
475,192,19215,1,0,0:0:0:0:
256,192,19215,1,0,0:0:0:0:
109,192,19215,1,0,0:0:0:0:
329,192,19215,1,0,0:0:0:0:
402,192,19290,1,0,0:0:0:0:
329,192,19365,1,0,0:0:0:0:
182,192,19365,1,0,0:0:0:0:
36,192,19365,1,0,0:0:0:0:
256,192,19440,1,0,0:0:0:0:
36,192,19515,1,0,0:0:0:0:
475,192,19515,1,0,0:0:0:0:
329,192,19515,1,0,0:0:0:0:
109,192,19590,1,0,0:0:0:0:
182,192,19665,1,0,0:0:0:0:
402,192,19665,1,0,0:0:0:0:
36,192,19665,1,0,0:0:0:0:
256,192,19740,1,0,0:0:0:0:
182,192,19815,1,0,0:0:0:0:
329,192,19815,1,0,0:0:0:0:
475,192,19815,1,0,0:0:0:0:
109,192,19890,1,0,0:0:0:0:
36,192,19965,1,0,0:0:0:0:
402,192,19965,1,0,0:0:0:0:
256,192,19965,1,0,0:0:0:0:
475,192,20040,1,0,0:0:0:0:
402,192,20115,1,0,0:0:0:0:
182,192,20115,1,0,0:0:0:0:
109,192,20115,1,0,0:0:0:0:
329,192,20190,1,0,0:0:0:0:
402,192,20265,1,0,0:0:0:0:
256,192,20265,1,0,0:0:0:0:
36,192,20265,1,0,0:0:0:0:
475,192,20340,1,0,0:0:0:0:
109,192,20415,1,0,0:0:0:0:
329,192,20415,1,0,0:0:0:0:
402,192,20415,1,0,0:0:0:0:
256,192,20415,1,0,0:0:0:0:
182,192,20490,1,0,0:0:0:0:
256,192,20565,1,0,0:0:0:0:
475,192,20565,1,0,0:0:0:0:
36,192,20565,1,0,0:0:0:0:
329,192,20640,1,0,0:0:0:0:
402,192,20715,1,0,0:0:0:0:
109,192,20715,1,0,0:0:0:0:
256,192,20715,1,0,0:0:0:0:
182,192,20790,1,0,0:0:0:0:
109,192,20865,1,0,0:0:0:0:
329,192,20865,1,0,0:0:0:0:
475,192,20865,1,0,0:0:0:0:
36,192,20940,1,0,0:0:0:0:
475,192,21015,1,0,0:0:0:0:
256,192,21015,1,0,0:0:0:0:
182,192,21015,1,0,0:0:0:0:
329,192,21015,1,0,0:0:0:0:
402,192,21090,1,0,0:0:0:0:
329,192,21165,1,0,0:0:0:0:
36,192,21165,1,0,0:0:0:0:
109,192,21165,1,0,0:0:0:0:
256,192,21240,1,0,0:0:0:0:
329,192,21315,1,0,0:0:0:0:
182,192,21315,1,0,0:0:0:0:
475,192,21315,1,0,0:0:0:0:
402,192,21390,1,0,0:0:0:0:
475,192,21465,1,0,0:0:0:0:
256,192,21465,1,0,0:0:0:0:
109,192,21465,1,0,0:0:0:0:
36,192,21540,1,0,0:0:0:0:
109,192,21615,1,0,0:0:0:0:
329,192,21615,1,0,0:0:0:0:
402,192,21615,1,0,0:0:0:0:
475,192,21615,1,0,0:0:0:0:
182,192,21690,1,0,0:0:0:0:
256,192,21765,1,0,0:0:0:0:
109,192,21765,1,0,0:0:0:0:
36,192,21765,1,0,0:0:0:0:
475,192,21840,1,0,0:0:0:0:
402,192,21915,1,0,0:0:0:0:
182,192,21915,1,0,0:0:0:0:
256,192,21915,1,0,0:0:0:0:
329,192,21990,1,0,0:0:0:0:
256,192,22065,1,0,0:0:0:0:
475,192,22065,1,0,0:0:0:0:
36,192,22065,1,0,0:0:0:0:
182,192,22140,1,0,0:0:0:0:
109,192,22215,1,0,0:0:0:0:
402,192,22215,1,0,0:0:0:0:
256,192,22215,1,0,0:0:0:0:
36,192,22290,1,0,0:0:0:0:
475,192,22365,1,0,0:0:0:0:
329,192,22365,1,0,0:0:0:0:
182,192,22365,1,0,0:0:0:0:
402,192,22440,1,0,0:0:0:0:
329,192,22515,1,0,0:0:0:0:
256,192,22515,1,0,0:0:0:0:
36,192,22515,1,0,0:0:0:0:
109,192,22590,1,0,0:0:0:0:
182,192,22665,1,0,0:0:0:0:
402,192,22665,1,0,0:0:0:0:
475,192,22665,1,0,0:0:0:0:
256,192,22740,1,0,0:0:0:0:
329,192,22815,1,0,0:0:0:0:
36,192,22815,1,0,0:0:0:0:
182,192,22815,1,0,0:0:0:0:
109,192,22815,1,0,0:0:0:0:
256,192,22890,1,0,0:0:0:0:
182,192,22965,1,0,0:0:0:0:
475,192,22965,1,0,0:0:0:0:
402,192,22965,1,0,0:0:0:0:
109,192,23040,1,0,0:0:0:0:
36,192,23115,1,0,0:0:0:0:
329,192,23115,1,0,0:0:0:0:
182,192,23115,1,0,0:0:0:0:
475,192,23190,1,0,0:0:0:0:
402,192,23265,1,0,0:0:0:0:
256,192,23265,1,0,0:0:0:0:
109,192,23265,1,0,0:0:0:0:
329,192,23340,1,0,0:0:0:0:
256,192,23415,1,0,0:0:0:0:
36,192,23415,1,0,0:0:0:0:
402,192,23415,1,0,0:0:0:0:
475,192,23415,1,0,0:0:0:0:
182,192,23490,1,0,0:0:0:0:
256,192,23565,1,0,0:0:0:0:
475,192,23565,1,0,0:0:0:0:
109,192,23565,1,0,0:0:0:0:
329,192,23640,1,0,0:0:0:0:
402,192,23715,1,0,0:0:0:0:
182,192,23715,1,0,0:0:0:0:
256,192,23715,1,0,0:0:0:0:
475,192,23790,1,0,0:0:0:0:
36,192,23865,1,0,0:0:0:0:
329,192,23865,1,0,0:0:0:0:
402,192,23865,1,0,0:0:0:0:
109,192,23940,1,0,0:0:0:0:
182,192,24015,128,0,24090:0:0:0:0:
256,192,24015,1,0,0:0:0:0:
329,192,24090,128,0,24165:0:0:0:0:
402,192,24090,1,0,0:0:0:0:
475,192,24165,128,0,26415:0:0:0:0:
36,192,24165,1,0,0:0:0:0:
109,192,24240,1,0,0:0:0:0:
182,192,24315,1,0,0:0:0:0:
329,192,24315,1,0,0:0:0:0:
402,192,24315,1,0,0:0:0:0:
36,192,24315,1,0,0:0:0:0:
256,192,24390,1,0,0:0:0:0:
329,192,24465,1,0,0:0:0:0:
402,192,24540,1,0,0:0:0:0:
182,192,24615,1,0,0:0:0:0:
109,192,24690,1,0,0:0:0:0:
36,192,24765,1,0,0:0:0:0:
256,192,24840,1,0,0:0:0:0:
182,192,24915,1,0,0:0:0:0:
329,192,24915,1,0,0:0:0:0:
402,192,24915,1,0,0:0:0:0:
109,192,24990,1,0,0:0:0:0:
329,192,25065,1,0,0:0:0:0:
256,192,25140,1,0,0:0:0:0:
182,192,25215,1,0,0:0:0:0:
402,192,25290,1,0,0:0:0:0:
329,192,25365,1,0,0:0:0:0:
256,192,25440,1,0,0:0:0:0:
182,192,25515,1,0,0:0:0:0:
36,192,25515,1,0,0:0:0:0:
402,192,25515,1,0,0:0:0:0:
256,192,25590,1,0,0:0:0:0:
329,192,25665,1,0,0:0:0:0:
402,192,25740,1,0,0:0:0:0:
36,192,25815,1,0,0:0:0:0:
109,192,25890,1,0,0:0:0:0:
182,192,25965,1,0,0:0:0:0:
256,192,26040,1,0,0:0:0:0:
109,192,26115,1,0,0:0:0:0:
329,192,26115,1,0,0:0:0:0:
402,192,26115,1,0,0:0:0:0:
36,192,26190,1,0,0:0:0:0:
256,192,26265,1,0,0:0:0:0:
182,192,26340,1,0,0:0:0:0:
329,192,26415,128,0,28215:0:0:0:0:
109,192,26415,1,0,0:0:0:0:
402,192,26415,1,0,0:0:0:0:
36,192,26490,1,0,0:0:0:0:
109,192,26565,1,0,0:0:0:0:
182,192,26640,1,0,0:0:0:0:
256,192,26715,1,0,0:0:0:0:
475,192,26715,1,0,0:0:0:0:
36,192,26715,1,0,0:0:0:0:
109,192,26790,1,0,0:0:0:0:
182,192,26865,1,0,0:0:0:0:
256,192,26940,1,0,0:0:0:0:
36,192,27015,1,0,0:0:0:0:
109,192,27090,1,0,0:0:0:0:
182,192,27165,1,0,0:0:0:0:
256,192,27240,1,0,0:0:0:0:
182,192,27315,1,0,0:0:0:0:
475,192,27315,1,0,0:0:0:0:
36,192,27315,1,0,0:0:0:0:
109,192,27390,1,0,0:0:0:0:
256,192,27465,1,0,0:0:0:0:
182,192,27540,1,0,0:0:0:0:
109,192,27615,1,0,0:0:0:0:
402,192,27615,1,0,0:0:0:0:
475,192,27615,1,0,0:0:0:0:
36,192,27690,1,0,0:0:0:0:
182,192,27765,1,0,0:0:0:0:
256,192,27840,1,0,0:0:0:0:
36,192,27915,1,0,0:0:0:0:
475,192,27915,1,0,0:0:0:0:
182,192,27915,1,0,0:0:0:0:
109,192,27990,1,0,0:0:0:0:
182,192,28065,1,0,0:0:0:0:
256,192,28140,1,0,0:0:0:0:
182,192,28215,1,0,0:0:0:0:
402,192,28215,1,0,0:0:0:0:
109,192,28290,1,0,0:0:0:0:
36,192,28365,1,0,0:0:0:0:
475,192,28440,1,0,0:0:0:0:
402,192,28515,1,0,0:0:0:0:
256,192,28515,1,0,0:0:0:0:
109,192,28515,1,0,0:0:0:0:
329,192,28590,1,0,0:0:0:0:
256,192,28665,1,0,0:0:0:0:
182,192,28740,1,0,0:0:0:0:
475,192,28815,128,0,28890:0:0:0:0:
109,192,28815,1,0,0:0:0:0:
329,192,28815,1,0,0:0:0:0:
36,192,28815,1,0,0:0:0:0:
402,192,28815,1,0,0:0:0:0:
182,192,28890,1,0,0:0:0:0:
475,192,28965,128,0,29040:0:0:0:0:
256,192,28965,1,0,0:0:0:0:
109,192,28965,1,0,0:0:0:0:
36,192,28965,1,0,0:0:0:0:
329,192,29040,1,0,0:0:0:0:
475,192,29115,128,0,29190:0:0:0:0:
402,192,29115,1,0,0:0:0:0:
182,192,29115,1,0,0:0:0:0:
36,192,29115,1,0,0:0:0:0:
256,192,29190,1,0,0:0:0:0:
182,192,29265,1,0,0:0:0:0:
402,192,29265,1,0,0:0:0:0:
36,192,29265,1,0,0:0:0:0:
329,192,29265,128,0,29415:0:0:0:0:
109,192,29340,1,0,0:0:0:0:
475,192,29415,128,0,29490:0:0:0:0:
36,192,29415,1,0,0:0:0:0:
402,192,29415,1,0,0:0:0:0:
182,192,29415,1,0,0:0:0:0:
256,192,29490,1,0,0:0:0:0:
329,192,29565,128,0,29640:0:0:0:0:
182,192,29565,1,0,0:0:0:0:
36,192,29565,1,0,0:0:0:0:
475,192,29565,1,0,0:0:0:0:
109,192,29640,1,0,0:0:0:0:
182,192,29715,128,0,29790:0:0:0:0:
36,192,29715,1,0,0:0:0:0:
256,192,29715,1,0,0:0:0:0:
329,192,29715,1,0,0:0:0:0:
402,192,29790,1,0,0:0:0:0:
36,192,29865,128,0,29940:0:0:0:0:
329,192,29865,1,0,0:0:0:0:
109,192,29865,1,0,0:0:0:0:
475,192,29865,1,0,0:0:0:0:
256,192,29940,1,0,0:0:0:0:
475,192,30015,128,0,30165:0:0:0:0:
182,192,30015,1,0,0:0:0:0:
402,192,30015,1,0,0:0:0:0:
329,192,30015,1,0,0:0:0:0:
36,192,30015,1,0,0:0:0:0:
109,192,30090,1,0,0:0:0:0:
36,192,30165,1,0,0:0:0:0:
256,192,30165,1,0,0:0:0:0:
402,192,30165,1,0,0:0:0:0:
182,192,30240,1,0,0:0:0:0:
329,192,30315,128,0,30465:0:0:0:0:
256,192,30315,1,0,0:0:0:0:
475,192,30315,1,0,0:0:0:0:
36,192,30315,1,0,0:0:0:0:
109,192,30390,1,0,0:0:0:0:
182,192,30465,1,0,0:0:0:0:
402,192,30465,1,0,0:0:0:0:
475,192,30465,1,0,0:0:0:0:
256,192,30540,1,0,0:0:0:0:
36,192,30615,128,0,30765:0:0:0:0:
329,192,30615,1,0,0:0:0:0:
182,192,30615,1,0,0:0:0:0:
109,192,30615,1,0,0:0:0:0:
475,192,30615,1,0,0:0:0:0:
402,192,30690,1,0,0:0:0:0:
475,192,30765,1,0,0:0:0:0:
329,192,30765,1,0,0:0:0:0:
109,192,30765,1,0,0:0:0:0:
256,192,30840,1,0,0:0:0:0:
182,192,30915,128,0,31065:0:0:0:0:
329,192,30915,1,0,0:0:0:0:
36,192,30915,1,0,0:0:0:0:
475,192,30915,1,0,0:0:0:0:
402,192,30990,1,0,0:0:0:0:
109,192,31065,1,0,0:0:0:0:
256,192,31065,1,0,0:0:0:0:
329,192,31065,1,0,0:0:0:0:
36,192,31140,1,0,0:0:0:0:
475,192,31215,128,0,31290:0:0:0:0:
329,192,31215,1,0,0:0:0:0:
402,192,31215,1,0,0:0:0:0:
182,192,31215,1,0,0:0:0:0:
109,192,31215,1,0,0:0:0:0:
256,192,31290,1,0,0:0:0:0:
475,192,31365,128,0,31440:0:0:0:0:
182,192,31365,1,0,0:0:0:0:
329,192,31365,1,0,0:0:0:0:
36,192,31365,1,0,0:0:0:0:
109,192,31440,1,0,0:0:0:0:
475,192,31515,128,0,31590:0:0:0:0:
36,192,31515,1,0,0:0:0:0:
256,192,31515,1,0,0:0:0:0:
182,192,31515,1,0,0:0:0:0:
402,192,31590,1,0,0:0:0:0:
36,192,31665,128,0,31740:0:0:0:0:
329,192,31665,1,0,0:0:0:0:
109,192,31665,1,0,0:0:0:0:
475,192,31665,1,0,0:0:0:0:
256,192,31740,1,0,0:0:0:0:
36,192,31815,128,0,31890:0:0:0:0:
182,192,31815,1,0,0:0:0:0:
402,192,31815,1,0,0:0:0:0:
475,192,31815,1,0,0:0:0:0:
329,192,31815,1,0,0:0:0:0:
109,192,31890,1,0,0:0:0:0:
36,192,31965,128,0,32040:0:0:0:0:
329,192,31965,1,0,0:0:0:0:
475,192,31965,1,0,0:0:0:0:
182,192,31965,1,0,0:0:0:0:
256,192,32040,1,0,0:0:0:0:
402,192,32115,128,0,32265:0:0:0:0:
182,192,32115,1,0,0:0:0:0:
329,192,32115,1,0,0:0:0:0:
475,192,32115,1,0,0:0:0:0:
109,192,32190,1,0,0:0:0:0:
36,192,32265,1,0,0:0:0:0:
256,192,32265,1,0,0:0:0:0:
182,192,32265,1,0,0:0:0:0:
475,192,32340,1,0,0:0:0:0:
109,192,32415,128,0,32565:0:0:0:0:
402,192,32415,1,0,0:0:0:0:
182,192,32415,1,0,0:0:0:0:
36,192,32415,1,0,0:0:0:0:
256,192,32415,1,0,0:0:0:0:
329,192,32490,1,0,0:0:0:0:
402,192,32565,1,0,0:0:0:0:
256,192,32565,1,0,0:0:0:0:
182,192,32565,1,0,0:0:0:0:
475,192,32640,1,0,0:0:0:0:
182,192,32715,1,0,0:0:0:0:
329,192,32715,1,0,0:0:0:0:
36,192,32715,1,0,0:0:0:0:
256,192,32790,1,0,0:0:0:0:
475,192,32865,128,0,33015:0:0:0:0:
329,192,32865,1,0,0:0:0:0:
109,192,32865,1,0,0:0:0:0:
182,192,32865,1,0,0:0:0:0:
402,192,32940,1,0,0:0:0:0:
36,192,33015,1,0,0:0:0:0:
256,192,33015,1,0,0:0:0:0:
329,192,33015,1,0,0:0:0:0:
182,192,33015,1,0,0:0:0:0:
109,192,33090,1,0,0:0:0:0:
256,192,33165,128,0,33315:0:0:0:0:
182,192,33165,1,0,0:0:0:0:
402,192,33165,1,0,0:0:0:0:
36,192,33165,1,0,0:0:0:0:
329,192,33240,1,0,0:0:0:0:
36,192,33315,128,0,33615:0:0:0:0:
402,192,33315,1,0,0:0:0:0:
109,192,33315,1,0,0:0:0:0:
182,192,33315,1,0,0:0:0:0:
475,192,33315,1,0,0:0:0:0:
329,192,33390,1,0,0:0:0:0:
256,192,33465,1,0,0:0:0:0:
475,192,33465,1,0,0:0:0:0:
402,192,33465,1,0,0:0:0:0:
182,192,33540,1,0,0:0:0:0:
256,192,33615,1,0,0:0:0:0:
329,192,33690,1,0,0:0:0:0:
402,192,33765,1,0,0:0:0:0:
109,192,33840,1,0,0:0:0:0:
182,192,33915,1,0,0:0:0:0:
475,192,33915,1,0,0:0:0:0:
329,192,33915,1,0,0:0:0:0:
36,192,33915,1,0,0:0:0:0:
402,192,33915,1,0,0:0:0:0:
256,192,33990,1,0,0:0:0:0:
329,192,34065,1,0,0:0:0:0:
36,192,34140,1,0,0:0:0:0:
109,192,34215,1,0,0:0:0:0:
182,192,34290,1,0,0:0:0:0:
256,192,34365,1,0,0:0:0:0:
182,192,34440,1,0,0:0:0:0:
109,192,34515,1,0,0:0:0:0:
402,192,34515,1,0,0:0:0:0:
475,192,34515,1,0,0:0:0:0:
329,192,34515,1,0,0:0:0:0:
256,192,34515,1,0,0:0:0:0:
36,192,34590,1,0,0:0:0:0:
329,192,34665,1,0,0:0:0:0:
256,192,34740,1,0,0:0:0:0:
182,192,34815,1,0,0:0:0:0:
109,192,34890,1,0,0:0:0:0:
402,192,34965,1,0,0:0:0:0:
329,192,35040,1,0,0:0:0:0:
256,192,35115,1,0,0:0:0:0:
36,192,35115,1,0,0:0:0:0:
109,192,35115,1,0,0:0:0:0:
475,192,35115,1,0,0:0:0:0:
402,192,35115,1,0,0:0:0:0:
182,192,35190,1,0,0:0:0:0:
475,192,35265,1,0,0:0:0:0:
402,192,35340,1,0,0:0:0:0:
329,192,35415,1,0,0:0:0:0:
256,192,35490,1,0,0:0:0:0:
329,192,35565,1,0,0:0:0:0:
402,192,35640,1,0,0:0:0:0:
475,192,35715,1,0,0:0:0:0:
109,192,35715,1,0,0:0:0:0:
182,192,35715,1,0,0:0:0:0:
256,192,35715,1,0,0:0:0:0:
329,192,35715,1,0,0:0:0:0:
36,192,35790,1,0,0:0:0:0:
109,192,35865,1,0,0:0:0:0:
182,192,35940,1,0,0:0:0:0:
256,192,36015,1,0,0:0:0:0:
329,192,36015,1,0,0:0:0:0:
402,192,36015,1,0,0:0:0:0:
182,192,36090,1,0,0:0:0:0:
109,192,36090,1,0,0:0:0:0:
36,192,36090,1,0,0:0:0:0:
329,192,36165,1,0,0:0:0:0:
402,192,36165,1,0,0:0:0:0:
475,192,36165,1,0,0:0:0:0:
256,192,36240,1,0,0:0:0:0:
182,192,36240,1,0,0:0:0:0:
109,192,36240,1,0,0:0:0:0:
475,192,36315,1,0,0:0:0:0:
36,192,36315,1,0,0:0:0:0:
402,192,36390,1,0,0:0:0:0:
109,192,36390,1,0,0:0:0:0:
329,192,36465,1,0,0:0:0:0:
182,192,36465,1,0,0:0:0:0:
475,192,36540,1,0,0:0:0:0:
36,192,36540,1,0,0:0:0:0:
256,192,36615,1,0,0:0:0:0:
109,192,36615,1,0,0:0:0:0:
182,192,36615,1,0,0:0:0:0:
329,192,36690,1,0,0:0:0:0:
475,192,36690,1,0,0:0:0:0:
402,192,36690,1,0,0:0:0:0:
182,192,36765,1,0,0:0:0:0:
109,192,36765,1,0,0:0:0:0:
36,192,36765,1,0,0:0:0:0:
256,192,36840,1,0,0:0:0:0:
402,192,36840,1,0,0:0:0:0:
329,192,36840,1,0,0:0:0:0:
36,192,36915,1,0,0:0:0:0:
475,192,36915,1,0,0:0:0:0:
402,192,36990,1,0,0:0:0:0:
109,192,36990,1,0,0:0:0:0:
329,192,37065,1,0,0:0:0:0:
182,192,37065,1,0,0:0:0:0:
475,192,37140,1,0,0:0:0:0:
36,192,37140,1,0,0:0:0:0:
329,192,37215,1,0,0:0:0:0:
402,192,37215,1,0,0:0:0:0:
256,192,37215,1,0,0:0:0:0:
109,192,37290,1,0,0:0:0:0:
36,192,37290,1,0,0:0:0:0:
182,192,37290,1,0,0:0:0:0:
475,192,37365,1,0,0:0:0:0:
402,192,37365,1,0,0:0:0:0:
329,192,37365,1,0,0:0:0:0:
182,192,37440,1,0,0:0:0:0:
109,192,37440,1,0,0:0:0:0:
256,192,37440,1,0,0:0:0:0:
36,192,37515,1,0,0:0:0:0:
475,192,37515,1,0,0:0:0:0:
402,192,37590,1,0,0:0:0:0:
109,192,37590,1,0,0:0:0:0:
329,192,37665,1,0,0:0:0:0:
182,192,37665,1,0,0:0:0:0:
475,192,37740,1,0,0:0:0:0:
36,192,37740,1,0,0:0:0:0:
402,192,37815,1,0,0:0:0:0:
109,192,37815,1,0,0:0:0:0:
329,192,37890,1,0,0:0:0:0:
182,192,37890,1,0,0:0:0:0:
256,192,37965,1,0,0:0:0:0:
475,192,38040,1,0,0:0:0:0:
36,192,38040,1,0,0:0:0:0:
402,192,38115,1,0,0:0:0:0:
109,192,38115,1,0,0:0:0:0:
475,192,38190,1,0,0:0:0:0:
36,192,38190,1,0,0:0:0:0:
256,192,38265,1,0,0:0:0:0:
329,192,38340,1,0,0:0:0:0:
182,192,38340,1,0,0:0:0:0:
402,192,38415,128,0,38715:0:0:0:0:
109,192,38415,128,0,38715:0:0:0:0:
256,192,38715,128,0,39015:0:0:0:0:
475,192,38715,128,0,38865:0:0:0:0:
36,192,38715,128,0,38865:0:0:0:0:
36,192,41115,1,0,0:0:0:0:
182,192,41115,1,0,0:0:0:0:
329,192,41115,1,0,0:0:0:0:
475,192,41115,1,0,0:0:0:0:
256,192,41115,1,0,0:0:0:0:
36,192,42015,1,0,0:0:0:0:
109,192,42015,1,0,0:0:0:0:
402,192,42015,1,0,0:0:0:0:
475,192,42015,1,0,0:0:0:0:
256,192,42015,1,0,0:0:0:0:
109,192,43515,1,0,0:0:0:0:
182,192,43515,1,0,0:0:0:0:
256,192,43515,1,0,0:0:0:0:
329,192,43515,1,0,0:0:0:0:
402,192,43515,1,0,0:0:0:0:
475,192,44115,1,0,0:0:0:0:
329,192,44115,1,0,0:0:0:0:
256,192,44115,1,0,0:0:0:0:
36,192,44115,1,0,0:0:0:0:
182,192,44115,1,0,0:0:0:0:
109,192,44415,1,0,0:0:0:0:
36,192,44415,1,0,0:0:0:0:
256,192,44415,1,0,0:0:0:0:
402,192,44415,1,0,0:0:0:0:
475,192,44415,1,0,0:0:0:0:
36,192,45615,1,0,0:0:0:0:
182,192,45615,1,0,0:0:0:0:
329,192,45615,1,0,0:0:0:0:
256,192,45615,1,0,0:0:0:0:
475,192,45615,1,0,0:0:0:0:
402,192,46215,1,0,0:0:0:0:
256,192,46215,1,0,0:0:0:0:
109,192,46215,1,0,0:0:0:0:
36,192,46215,1,0,0:0:0:0:
475,192,46215,1,0,0:0:0:0:
109,192,46365,1,0,0:0:0:0:
182,192,46365,1,0,0:0:0:0:
256,192,46365,1,0,0:0:0:0:
329,192,46365,1,0,0:0:0:0:
402,192,46365,1,0,0:0:0:0:
256,192,47115,1,0,0:0:0:0:
36,192,47115,1,0,0:0:0:0:
475,192,47115,1,0,0:0:0:0:
109,192,47415,128,0,47615:0:0:0:0:
256,192,47515,128,0,47715:0:0:0:0:
402,192,47615,128,0,47815:0:0:0:0:
109,192,47715,128,0,48015:0:0:0:0:
256,192,47815,128,0,47915:0:0:0:0:
402,192,47915,128,0,48015:0:0:0:0:
256,192,48015,128,0,48915:0:0:0:0:
402,192,49215,1,0,0:0:0:0:
109,192,49215,1,0,0:0:0:0:
256,192,49215,1,0,0:0:0:0:
475,192,49515,1,0,0:0:0:0:
182,192,49515,1,0,0:0:0:0:
402,192,49665,1,0,0:0:0:0:
109,192,49665,1,0,0:0:0:0:
36,192,49815,1,0,0:0:0:0:
329,192,49815,1,0,0:0:0:0:
109,192,49965,1,0,0:0:0:0:
402,192,49965,1,0,0:0:0:0:
475,192,50115,1,0,0:0:0:0:
182,192,50115,1,0,0:0:0:0:
402,192,50265,1,0,0:0:0:0:
109,192,50265,1,0,0:0:0:0:
256,192,50415,128,0,50715:0:0:0:0:
475,192,50415,128,0,50715:0:0:0:0:
36,192,50415,128,0,50715:0:0:0:0:
256,192,51015,1,0,0:0:0:0:
329,192,51015,1,0,0:0:0:0:
402,192,51015,1,0,0:0:0:0:
182,192,51090,1,0,0:0:0:0:
109,192,51090,1,0,0:0:0:0:
36,192,51090,1,0,0:0:0:0:
329,192,51165,1,0,0:0:0:0:
402,192,51165,1,0,0:0:0:0:
475,192,51165,1,0,0:0:0:0:
256,192,51240,1,0,0:0:0:0:
182,192,51240,1,0,0:0:0:0:
109,192,51240,1,0,0:0:0:0:
475,192,51315,1,0,0:0:0:0:
36,192,51315,1,0,0:0:0:0:
402,192,51390,1,0,0:0:0:0:
109,192,51390,1,0,0:0:0:0:
329,192,51465,1,0,0:0:0:0:
182,192,51465,1,0,0:0:0:0:
475,192,51540,1,0,0:0:0:0:
36,192,51540,1,0,0:0:0:0:
109,192,51615,1,0,0:0:0:0:
182,192,51615,1,0,0:0:0:0:
256,192,51615,1,0,0:0:0:0:
329,192,51690,1,0,0:0:0:0:
402,192,51690,1,0,0:0:0:0:
475,192,51690,1,0,0:0:0:0:
182,192,51765,1,0,0:0:0:0:
109,192,51765,1,0,0:0:0:0:
36,192,51765,1,0,0:0:0:0:
256,192,51840,1,0,0:0:0:0:
329,192,51840,1,0,0:0:0:0:
402,192,51840,1,0,0:0:0:0:
475,192,51915,1,0,0:0:0:0:
36,192,51915,1,0,0:0:0:0:
402,192,51990,1,0,0:0:0:0:
109,192,51990,1,0,0:0:0:0:
182,192,52065,1,0,0:0:0:0:
329,192,52065,1,0,0:0:0:0:
402,192,52140,1,0,0:0:0:0:
109,192,52140,1,0,0:0:0:0:
475,192,52215,1,0,0:0:0:0:
36,192,52215,1,0,0:0:0:0:
256,192,52290,1,0,0:0:0:0:
329,192,52365,1,0,0:0:0:0:
182,192,52365,1,0,0:0:0:0:
109,192,52440,1,0,0:0:0:0:
402,192,52440,1,0,0:0:0:0:
475,192,52515,1,0,0:0:0:0:
36,192,52515,1,0,0:0:0:0:
402,192,52590,1,0,0:0:0:0:
109,192,52590,1,0,0:0:0:0:
329,192,52665,1,0,0:0:0:0:
182,192,52665,1,0,0:0:0:0:
256,192,52740,1,0,0:0:0:0:
329,192,52815,128,0,55215:0:0:0:0:
475,192,52815,128,0,54015:0:0:0:0:
182,192,52815,128,0,55215:0:0:0:0:
36,192,52815,128,0,54615:0:0:0:0:
256,192,55215,128,0,55815:0:0:0:0:
475,192,55215,128,0,55515:0:0:0:0:
36,192,55215,128,0,55515:0:0:0:0:
329,192,55815,1,0,0:0:0:0:
402,192,55815,1,0,0:0:0:0:
475,192,55815,1,0,0:0:0:0:
182,192,55890,1,0,0:0:0:0:
109,192,55890,1,0,0:0:0:0:
36,192,55890,1,0,0:0:0:0:
329,192,55965,1,0,0:0:0:0:
402,192,55965,1,0,0:0:0:0:
475,192,55965,1,0,0:0:0:0:
182,192,56040,1,0,0:0:0:0:
109,192,56040,1,0,0:0:0:0:
36,192,56040,1,0,0:0:0:0:
329,192,56115,1,0,0:0:0:0:
402,192,56115,1,0,0:0:0:0:
182,192,56190,1,0,0:0:0:0:
109,192,56190,1,0,0:0:0:0:
329,192,56265,1,0,0:0:0:0:
402,192,56265,1,0,0:0:0:0:
182,192,56340,1,0,0:0:0:0:
109,192,56340,1,0,0:0:0:0:
402,192,56415,1,0,0:0:0:0:
475,192,56415,1,0,0:0:0:0:
109,192,56490,1,0,0:0:0:0:
36,192,56490,1,0,0:0:0:0:
402,192,56565,1,0,0:0:0:0:
475,192,56565,1,0,0:0:0:0:
109,192,56640,1,0,0:0:0:0:
36,192,56640,1,0,0:0:0:0:
256,192,56715,1,0,0:0:0:0:
182,192,56790,1,0,0:0:0:0:
329,192,56790,1,0,0:0:0:0:
109,192,56865,1,0,0:0:0:0:
402,192,56865,1,0,0:0:0:0:
36,192,56940,1,0,0:0:0:0:
475,192,56940,1,0,0:0:0:0:
256,192,57015,1,0,0:0:0:0:
329,192,57015,1,0,0:0:0:0:
402,192,57015,1,0,0:0:0:0:
182,192,57090,1,0,0:0:0:0:
109,192,57090,1,0,0:0:0:0:
36,192,57090,1,0,0:0:0:0:
329,192,57165,1,0,0:0:0:0:
402,192,57165,1,0,0:0:0:0:
475,192,57165,1,0,0:0:0:0:
256,192,57240,1,0,0:0:0:0:
182,192,57240,1,0,0:0:0:0:
109,192,57240,1,0,0:0:0:0:
329,192,57315,1,0,0:0:0:0:
402,192,57315,1,0,0:0:0:0:
475,192,57315,1,0,0:0:0:0:
182,192,57390,1,0,0:0:0:0:
109,192,57390,1,0,0:0:0:0:
36,192,57390,1,0,0:0:0:0:
256,192,57465,1,0,0:0:0:0:
402,192,57465,1,0,0:0:0:0:
329,192,57465,1,0,0:0:0:0:
182,192,57540,1,0,0:0:0:0:
109,192,57540,1,0,0:0:0:0:
36,192,57540,1,0,0:0:0:0:
329,192,57615,1,0,0:0:0:0:
402,192,57615,1,0,0:0:0:0:
475,192,57615,1,0,0:0:0:0:
256,192,57690,1,0,0:0:0:0:
182,192,57765,1,0,0:0:0:0:
109,192,57840,1,0,0:0:0:0:
402,192,57915,1,0,0:0:0:0:
36,192,57915,1,0,0:0:0:0:
182,192,57915,1,0,0:0:0:0:
256,192,57915,1,0,0:0:0:0:
329,192,57990,1,0,0:0:0:0:
256,192,58065,1,0,0:0:0:0:
182,192,58140,1,0,0:0:0:0:
475,192,58215,1,0,0:0:0:0:
329,192,58215,1,0,0:0:0:0:
256,192,58215,1,0,0:0:0:0:
109,192,58215,1,0,0:0:0:0:
402,192,58290,1,0,0:0:0:0:
329,192,58365,1,0,0:0:0:0:
256,192,58440,1,0,0:0:0:0:
36,192,58515,1,0,0:0:0:0:
182,192,58515,1,0,0:0:0:0:
329,192,58515,1,0,0:0:0:0:
475,192,58515,1,0,0:0:0:0:
109,192,58590,1,0,0:0:0:0:
182,192,58665,1,0,0:0:0:0:
109,192,58740,1,0,0:0:0:0:
36,192,58815,1,0,0:0:0:0:
402,192,58815,1,0,0:0:0:0:
256,192,58815,1,0,0:0:0:0:
182,192,58815,1,0,0:0:0:0:
475,192,58890,1,0,0:0:0:0:
402,192,58965,1,0,0:0:0:0:
329,192,59040,1,0,0:0:0:0:
256,192,59115,1,0,0:0:0:0:
109,192,59115,1,0,0:0:0:0:
182,192,59115,1,0,0:0:0:0:
475,192,59115,1,0,0:0:0:0:
36,192,59190,1,0,0:0:0:0:
109,192,59265,1,0,0:0:0:0:
182,192,59340,1,0,0:0:0:0:
256,192,59415,1,0,0:0:0:0:
402,192,59415,1,0,0:0:0:0:
36,192,59415,1,0,0:0:0:0:
109,192,59415,1,0,0:0:0:0:
182,192,59490,1,0,0:0:0:0:
109,192,59565,1,0,0:0:0:0:
36,192,59640,1,0,0:0:0:0:
329,192,59715,1,0,0:0:0:0:
182,192,59715,1,0,0:0:0:0:
109,192,59715,1,0,0:0:0:0:
475,192,59715,1,0,0:0:0:0:
256,192,59790,1,0,0:0:0:0:
182,192,59865,1,0,0:0:0:0:
402,192,59940,1,0,0:0:0:0:
329,192,60015,1,0,0:0:0:0:
182,192,60015,1,0,0:0:0:0:
36,192,60015,1,0,0:0:0:0:
475,192,60015,1,0,0:0:0:0:
256,192,60090,1,0,0:0:0:0:
475,192,60165,1,0,0:0:0:0:
402,192,60240,1,0,0:0:0:0:
329,192,60315,1,0,0:0:0:0:
256,192,60315,1,0,0:0:0:0:
182,192,60315,1,0,0:0:0:0:
475,192,60315,1,0,0:0:0:0:
109,192,60390,1,0,0:0:0:0:
182,192,60465,1,0,0:0:0:0:
256,192,60540,1,0,0:0:0:0:
36,192,60615,1,0,0:0:0:0:
402,192,60615,1,0,0:0:0:0:
329,192,60615,1,0,0:0:0:0:
182,192,60615,1,0,0:0:0:0:
109,192,60690,1,0,0:0:0:0:
182,192,60765,1,0,0:0:0:0:
256,192,60840,1,0,0:0:0:0:
182,192,60915,1,0,0:0:0:0:
475,192,60915,1,0,0:0:0:0:
329,192,60915,1,0,0:0:0:0:
36,192,60915,1,0,0:0:0:0:
109,192,60990,1,0,0:0:0:0:
36,192,61065,1,0,0:0:0:0:
475,192,61140,1,0,0:0:0:0:
402,192,61215,1,0,0:0:0:0:
256,192,61215,1,0,0:0:0:0:
109,192,61215,1,0,0:0:0:0:
182,192,61215,1,0,0:0:0:0:
329,192,61290,1,0,0:0:0:0:
256,192,61365,1,0,0:0:0:0:
182,192,61440,1,0,0:0:0:0:
109,192,61515,1,0,0:0:0:0:
329,192,61515,1,0,0:0:0:0:
475,192,61515,1,0,0:0:0:0:
402,192,61515,1,0,0:0:0:0:
36,192,61590,1,0,0:0:0:0:
256,192,61665,1,0,0:0:0:0:
182,192,61740,1,0,0:0:0:0:
109,192,61815,1,0,0:0:0:0:
402,192,61815,1,0,0:0:0:0:
475,192,61815,1,0,0:0:0:0:
36,192,61815,1,0,0:0:0:0:
329,192,61890,1,0,0:0:0:0:
256,192,61965,1,0,0:0:0:0:
182,192,62040,1,0,0:0:0:0:
402,192,62115,1,0,0:0:0:0:
36,192,62115,1,0,0:0:0:0:
256,192,62115,1,0,0:0:0:0:
475,192,62115,1,0,0:0:0:0:
329,192,62190,1,0,0:0:0:0:
256,192,62265,1,0,0:0:0:0:
475,192,62340,1,0,0:0:0:0:
402,192,62415,1,0,0:0:0:0:
109,192,62415,1,0,0:0:0:0:
182,192,62415,1,0,0:0:0:0:
256,192,62415,1,0,0:0:0:0:
329,192,62490,1,0,0:0:0:0:
256,192,62565,1,0,0:0:0:0:
329,192,62640,1,0,0:0:0:0:
402,192,62715,1,0,0:0:0:0:
36,192,62715,1,0,0:0:0:0:
182,192,62715,1,0,0:0:0:0:
256,192,62715,1,0,0:0:0:0:
475,192,62790,1,0,0:0:0:0:
182,192,62865,1,0,0:0:0:0:
256,192,62940,1,0,0:0:0:0:
329,192,63015,1,0,0:0:0:0:
402,192,63015,1,0,0:0:0:0:
475,192,63015,1,0,0:0:0:0:
182,192,63015,1,0,0:0:0:0:
109,192,63090,1,0,0:0:0:0:
182,192,63165,1,0,0:0:0:0:
256,192,63240,1,0,0:0:0:0:
36,192,63315,1,0,0:0:0:0:
329,192,63315,1,0,0:0:0:0:
475,192,63315,1,0,0:0:0:0:
182,192,63315,1,0,0:0:0:0:
109,192,63390,1,0,0:0:0:0:
182,192,63465,1,0,0:0:0:0:
109,192,63540,1,0,0:0:0:0:
36,192,63615,1,0,0:0:0:0:
182,192,63615,1,0,0:0:0:0:
402,192,63615,1,0,0:0:0:0:
475,192,63615,1,0,0:0:0:0:
329,192,63690,1,0,0:0:0:0:
256,192,63765,1,0,0:0:0:0:
182,192,63840,1,0,0:0:0:0:
109,192,63915,1,0,0:0:0:0:
329,192,63915,1,0,0:0:0:0:
256,192,63915,1,0,0:0:0:0:
36,192,63915,1,0,0:0:0:0:
402,192,63990,1,0,0:0:0:0:
329,192,64065,1,0,0:0:0:0:
256,192,64140,1,0,0:0:0:0:
182,192,64215,1,0,0:0:0:0:
109,192,64215,1,0,0:0:0:0:
402,192,64215,1,0,0:0:0:0:
329,192,64215,1,0,0:0:0:0:
475,192,64290,1,0,0:0:0:0:
402,192,64365,1,0,0:0:0:0:
329,192,64440,1,0,0:0:0:0:
256,192,64515,1,0,0:0:0:0:
182,192,64515,1,0,0:0:0:0:
36,192,64515,1,0,0:0:0:0:
475,192,64515,1,0,0:0:0:0:
329,192,64590,1,0,0:0:0:0:
36,192,64665,1,0,0:0:0:0:
109,192,64740,1,0,0:0:0:0:
182,192,64815,1,0,0:0:0:0:
402,192,64815,1,0,0:0:0:0:
329,192,64815,1,0,0:0:0:0:
36,192,64815,1,0,0:0:0:0:
256,192,64890,1,0,0:0:0:0:
182,192,64965,1,0,0:0:0:0:
109,192,65040,1,0,0:0:0:0:
36,192,65115,1,0,0:0:0:0:
182,192,65115,1,0,0:0:0:0:
329,192,65115,1,0,0:0:0:0:
402,192,65115,1,0,0:0:0:0:
475,192,65190,1,0,0:0:0:0:
402,192,65265,1,0,0:0:0:0:
329,192,65340,1,0,0:0:0:0:
256,192,65415,1,0,0:0:0:0:
182,192,65415,1,0,0:0:0:0:
36,192,65415,1,0,0:0:0:0:
475,192,65415,1,0,0:0:0:0:
329,192,65490,1,0,0:0:0:0:
402,192,65565,1,0,0:0:0:0:
475,192,65640,1,0,0:0:0:0:
256,192,65715,1,0,0:0:0:0:
109,192,65715,1,0,0:0:0:0:
329,192,65715,1,0,0:0:0:0:
402,192,65715,1,0,0:0:0:0:
182,192,65790,1,0,0:0:0:0:
109,192,65865,1,0,0:0:0:0:
36,192,65940,1,0,0:0:0:0:
256,192,66015,1,0,0:0:0:0:
329,192,66015,1,0,0:0:0:0:
402,192,66015,1,0,0:0:0:0:
182,192,66090,1,0,0:0:0:0:
109,192,66090,1,0,0:0:0:0:
36,192,66090,1,0,0:0:0:0:
329,192,66165,1,0,0:0:0:0:
402,192,66165,1,0,0:0:0:0:
475,192,66165,1,0,0:0:0:0:
256,192,66240,1,0,0:0:0:0:
182,192,66240,1,0,0:0:0:0:
109,192,66240,1,0,0:0:0:0:
36,192,66315,1,0,0:0:0:0:
475,192,66315,1,0,0:0:0:0:
109,192,66390,1,0,0:0:0:0:
402,192,66390,1,0,0:0:0:0:
182,192,66465,1,0,0:0:0:0:
329,192,66465,1,0,0:0:0:0:
36,192,66540,1,0,0:0:0:0:
475,192,66540,1,0,0:0:0:0:
109,192,66615,1,0,0:0:0:0:
182,192,66615,1,0,0:0:0:0:
256,192,66615,1,0,0:0:0:0:
329,192,66690,1,0,0:0:0:0:
475,192,66690,1,0,0:0:0:0:
402,192,66690,1,0,0:0:0:0:
182,192,66765,1,0,0:0:0:0:
109,192,66765,1,0,0:0:0:0:
36,192,66765,1,0,0:0:0:0:
256,192,66840,1,0,0:0:0:0:
329,192,66840,1,0,0:0:0:0:
402,192,66840,1,0,0:0:0:0:
475,192,66915,1,0,0:0:0:0:
36,192,66915,1,0,0:0:0:0:
402,192,66990,1,0,0:0:0:0:
109,192,66990,1,0,0:0:0:0:
475,192,67065,1,0,0:0:0:0:
36,192,67065,1,0,0:0:0:0:
329,192,67140,1,0,0:0:0:0:
182,192,67140,1,0,0:0:0:0:
256,192,67215,1,0,0:0:0:0:
109,192,67215,1,0,0:0:0:0:
36,192,67215,1,0,0:0:0:0:
402,192,67215,1,0,0:0:0:0:
329,192,67290,1,0,0:0:0:0:
402,192,67365,1,0,0:0:0:0:
475,192,67440,1,0,0:0:0:0:
182,192,67515,1,0,0:0:0:0:
329,192,67515,1,0,0:0:0:0:
402,192,67515,1,0,0:0:0:0:
109,192,67515,1,0,0:0:0:0:
256,192,67590,1,0,0:0:0:0:
329,192,67665,1,0,0:0:0:0:
402,192,67740,1,0,0:0:0:0:
109,192,67815,1,0,0:0:0:0:
36,192,67815,1,0,0:0:0:0:
256,192,67815,1,0,0:0:0:0:
475,192,67815,1,0,0:0:0:0:
182,192,67890,1,0,0:0:0:0:
256,192,67965,1,0,0:0:0:0:
329,192,68040,1,0,0:0:0:0:
36,192,68115,1,0,0:0:0:0:
402,192,68115,1,0,0:0:0:0:
475,192,68115,1,0,0:0:0:0:
256,192,68115,1,0,0:0:0:0:
109,192,68190,1,0,0:0:0:0:
182,192,68265,1,0,0:0:0:0:
109,192,68340,1,0,0:0:0:0:
36,192,68415,1,0,0:0:0:0:
329,192,68415,1,0,0:0:0:0:
182,192,68415,1,0,0:0:0:0:
256,192,68415,1,0,0:0:0:0:
475,192,68490,1,0,0:0:0:0:
402,192,68565,1,0,0:0:0:0:
329,192,68640,1,0,0:0:0:0:
402,192,68715,1,0,0:0:0:0:
182,192,68715,1,0,0:0:0:0:
36,192,68715,1,0,0:0:0:0:
256,192,68715,1,0,0:0:0:0:
475,192,68790,1,0,0:0:0:0:
256,192,68865,1,0,0:0:0:0:
329,192,68940,1,0,0:0:0:0:
402,192,69015,1,0,0:0:0:0:
109,192,69015,1,0,0:0:0:0:
256,192,69015,1,0,0:0:0:0:
475,192,69015,1,0,0:0:0:0:
182,192,69090,1,0,0:0:0:0:
256,192,69165,1,0,0:0:0:0:
329,192,69240,1,0,0:0:0:0:
109,192,69315,1,0,0:0:0:0:
402,192,69315,1,0,0:0:0:0:
475,192,69315,1,0,0:0:0:0:
36,192,69315,1,0,0:0:0:0:
182,192,69390,1,0,0:0:0:0:
256,192,69465,1,0,0:0:0:0:
36,192,69540,1,0,0:0:0:0:
109,192,69615,1,0,0:0:0:0:
256,192,69615,1,0,0:0:0:0:
329,192,69615,1,0,0:0:0:0:
475,192,69615,1,0,0:0:0:0:
182,192,69690,1,0,0:0:0:0:
402,192,69765,1,0,0:0:0:0:
329,192,69840,1,0,0:0:0:0:
256,192,69915,1,0,0:0:0:0:
109,192,69915,1,0,0:0:0:0:
36,192,69915,1,0,0:0:0:0:
402,192,69915,1,0,0:0:0:0:
182,192,69990,1,0,0:0:0:0:
475,192,70065,1,0,0:0:0:0:
402,192,70140,1,0,0:0:0:0:
329,192,70215,1,0,0:0:0:0:
182,192,70215,1,0,0:0:0:0:
109,192,70215,1,0,0:0:0:0:
475,192,70215,1,0,0:0:0:0:
256,192,70290,1,0,0:0:0:0:
329,192,70365,1,0,0:0:0:0:
402,192,70440,1,0,0:0:0:0:
475,192,70515,1,0,0:0:0:0:
329,192,70515,1,0,0:0:0:0:
256,192,70515,1,0,0:0:0:0:
36,192,70515,1,0,0:0:0:0:
182,192,70590,1,0,0:0:0:0:
256,192,70665,1,0,0:0:0:0:
329,192,70740,1,0,0:0:0:0:
402,192,70815,1,0,0:0:0:0:
36,192,70815,1,0,0:0:0:0:
256,192,70815,1,0,0:0:0:0:
475,192,70815,1,0,0:0:0:0:
109,192,70890,1,0,0:0:0:0:
182,192,70965,1,0,0:0:0:0:
256,192,71040,1,0,0:0:0:0:
329,192,71115,1,0,0:0:0:0:
109,192,71115,1,0,0:0:0:0:
182,192,71115,1,0,0:0:0:0:
475,192,71115,1,0,0:0:0:0:
36,192,71190,1,0,0:0:0:0:
109,192,71265,1,0,0:0:0:0:
182,192,71340,1,0,0:0:0:0:
256,192,71415,1,0,0:0:0:0:
402,192,71415,1,0,0:0:0:0:
36,192,71415,1,0,0:0:0:0:
475,192,71415,1,0,0:0:0:0:
182,192,71490,1,0,0:0:0:0:
109,192,71565,1,0,0:0:0:0:
36,192,71640,1,0,0:0:0:0:
329,192,71715,1,0,0:0:0:0:
402,192,71715,1,0,0:0:0:0:
182,192,71715,1,0,0:0:0:0:
109,192,71715,1,0,0:0:0:0:
256,192,71790,1,0,0:0:0:0:
182,192,71865,1,0,0:0:0:0:
109,192,71940,1,0,0:0:0:0:
402,192,72015,1,0,0:0:0:0:
36,192,72015,1,0,0:0:0:0:
182,192,72015,1,0,0:0:0:0:
475,192,72015,1,0,0:0:0:0:
329,192,72090,1,0,0:0:0:0:
256,192,72165,1,0,0:0:0:0:
182,192,72240,1,0,0:0:0:0:
475,192,72315,1,0,0:0:0:0:
329,192,72315,1,0,0:0:0:0:
256,192,72315,1,0,0:0:0:0:
36,192,72315,1,0,0:0:0:0:
402,192,72390,1,0,0:0:0:0:
329,192,72465,1,0,0:0:0:0:
256,192,72540,1,0,0:0:0:0:
36,192,72615,1,0,0:0:0:0:
182,192,72615,1,0,0:0:0:0:
402,192,72615,1,0,0:0:0:0:
475,192,72615,1,0,0:0:0:0:
109,192,72690,1,0,0:0:0:0:
182,192,72765,1,0,0:0:0:0:
475,192,72840,1,0,0:0:0:0:
402,192,72915,1,0,0:0:0:0:
256,192,72915,1,0,0:0:0:0:
109,192,72915,1,0,0:0:0:0:
36,192,72915,1,0,0:0:0:0:
329,192,72990,1,0,0:0:0:0:
109,192,73065,1,0,0:0:0:0:
182,192,73140,1,0,0:0:0:0:
256,192,73215,1,0,0:0:0:0:
329,192,73215,1,0,0:0:0:0:
475,192,73215,1,0,0:0:0:0:
36,192,73215,1,0,0:0:0:0:
402,192,73290,1,0,0:0:0:0:
329,192,73365,1,0,0:0:0:0:
256,192,73440,1,0,0:0:0:0:
36,192,73515,1,0,0:0:0:0:
182,192,73515,1,0,0:0:0:0:
329,192,73515,1,0,0:0:0:0:
475,192,73515,1,0,0:0:0:0:
109,192,73590,1,0,0:0:0:0:
182,192,73665,1,0,0:0:0:0:
256,192,73740,1,0,0:0:0:0:
109,192,73815,1,0,0:0:0:0:
402,192,73815,1,0,0:0:0:0:
329,192,73815,1,0,0:0:0:0:
36,192,73815,1,0,0:0:0:0:
182,192,73890,1,0,0:0:0:0:
256,192,73965,1,0,0:0:0:0:
329,192,74040,1,0,0:0:0:0:
182,192,74115,1,0,0:0:0:0:
109,192,74115,1,0,0:0:0:0:
402,192,74115,1,0,0:0:0:0:
475,192,74115,1,0,0:0:0:0:
256,192,74190,1,0,0:0:0:0:
329,192,74265,1,0,0:0:0:0:
402,192,74340,1,0,0:0:0:0:
256,192,74415,1,0,0:0:0:0:
182,192,74415,1,0,0:0:0:0:
36,192,74415,1,0,0:0:0:0:
475,192,74415,1,0,0:0:0:0:
109,192,74415,1,0,0:0:0:0:
329,192,74490,1,0,0:0:0:0:
402,192,74565,1,0,0:0:0:0:
475,192,74640,1,0,0:0:0:0:
402,192,74715,1,0,0:0:0:0:
329,192,74790,1,0,0:0:0:0:
256,192,74865,1,0,0:0:0:0:
475,192,74865,1,0,0:0:0:0:
402,192,74865,1,0,0:0:0:0:
109,192,74865,1,0,0:0:0:0:
36,192,74865,1,0,0:0:0:0:
182,192,74940,1,0,0:0:0:0:
109,192,75015,1,0,0:0:0:0:
36,192,75090,1,0,0:0:0:0:
475,192,75165,1,0,0:0:0:0:
402,192,75240,1,0,0:0:0:0:
329,192,75315,1,0,0:0:0:0:
182,192,75315,1,0,0:0:0:0:
109,192,75315,1,0,0:0:0:0:
475,192,75315,1,0,0:0:0:0:
36,192,75315,1,0,0:0:0:0:
256,192,75390,1,0,0:0:0:0:
329,192,75465,1,0,0:0:0:0:
402,192,75540,1,0,0:0:0:0:
475,192,75615,1,0,0:0:0:0:
109,192,75615,1,0,0:0:0:0:
182,192,75615,1,0,0:0:0:0:
256,192,75615,1,0,0:0:0:0:
329,192,75615,1,0,0:0:0:0:
36,192,75690,1,0,0:0:0:0:
109,192,75765,1,0,0:0:0:0:
182,192,75840,1,0,0:0:0:0:
256,192,75915,1,0,0:0:0:0:
329,192,75990,1,0,0:0:0:0:
402,192,76065,1,0,0:0:0:0:
256,192,76065,1,0,0:0:0:0:
182,192,76065,1,0,0:0:0:0:
109,192,76065,1,0,0:0:0:0:
36,192,76065,1,0,0:0:0:0:
475,192,76140,1,0,0:0:0:0:
109,192,76215,1,0,0:0:0:0:
182,192,76290,1,0,0:0:0:0:
256,192,76365,1,0,0:0:0:0:
36,192,76440,1,0,0:0:0:0:
109,192,76515,1,0,0:0:0:0:
329,192,76515,1,0,0:0:0:0:
402,192,76515,1,0,0:0:0:0:
475,192,76515,1,0,0:0:0:0:
256,192,76515,1,0,0:0:0:0:
182,192,76590,1,0,0:0:0:0:
109,192,76665,1,0,0:0:0:0:
36,192,76740,1,0,0:0:0:0:
475,192,76815,1,0,0:0:0:0:
109,192,76815,1,0,0:0:0:0:
256,192,76815,1,0,0:0:0:0:
329,192,76815,1,0,0:0:0:0:
182,192,76815,1,0,0:0:0:0:
402,192,76890,1,0,0:0:0:0:
329,192,76965,1,0,0:0:0:0:
256,192,77040,1,0,0:0:0:0:
182,192,77115,1,0,0:0:0:0:
109,192,77190,1,0,0:0:0:0:
36,192,77265,1,0,0:0:0:0:
182,192,77265,1,0,0:0:0:0:
256,192,77265,1,0,0:0:0:0:
329,192,77265,1,0,0:0:0:0:
402,192,77265,1,0,0:0:0:0:
475,192,77340,1,0,0:0:0:0:
402,192,77415,1,0,0:0:0:0:
329,192,77490,1,0,0:0:0:0:
256,192,77565,1,0,0:0:0:0:
182,192,77640,1,0,0:0:0:0:
109,192,77715,1,0,0:0:0:0:
256,192,77715,1,0,0:0:0:0:
329,192,77715,1,0,0:0:0:0:
402,192,77715,1,0,0:0:0:0:
475,192,77715,1,0,0:0:0:0:
36,192,77790,1,0,0:0:0:0:
475,192,77865,1,0,0:0:0:0:
402,192,77940,1,0,0:0:0:0:
256,192,78015,1,0,0:0:0:0:
182,192,78015,1,0,0:0:0:0:
109,192,78015,1,0,0:0:0:0:
329,192,78090,1,0,0:0:0:0:
402,192,78090,1,0,0:0:0:0:
475,192,78090,1,0,0:0:0:0:
182,192,78165,1,0,0:0:0:0:
109,192,78165,1,0,0:0:0:0:
36,192,78165,1,0,0:0:0:0:
256,192,78240,1,0,0:0:0:0:
402,192,78240,1,0,0:0:0:0:
329,192,78240,1,0,0:0:0:0:
182,192,78315,1,0,0:0:0:0:
109,192,78315,1,0,0:0:0:0:
329,192,78390,1,0,0:0:0:0:
402,192,78390,1,0,0:0:0:0:
182,192,78465,1,0,0:0:0:0:
109,192,78465,1,0,0:0:0:0:
329,192,78540,1,0,0:0:0:0:
402,192,78540,1,0,0:0:0:0:
256,192,78615,1,0,0:0:0:0:
182,192,78615,1,0,0:0:0:0:
109,192,78615,1,0,0:0:0:0:
329,192,78690,1,0,0:0:0:0:
402,192,78690,1,0,0:0:0:0:
475,192,78690,1,0,0:0:0:0:
182,192,78765,1,0,0:0:0:0:
109,192,78765,1,0,0:0:0:0:
36,192,78765,1,0,0:0:0:0:
256,192,78840,1,0,0:0:0:0:
329,192,78840,1,0,0:0:0:0:
402,192,78840,1,0,0:0:0:0:
182,192,78915,1,0,0:0:0:0:
109,192,78915,1,0,0:0:0:0:
36,192,78915,1,0,0:0:0:0:
329,192,78990,1,0,0:0:0:0:
402,192,78990,1,0,0:0:0:0:
475,192,78990,1,0,0:0:0:0:
256,192,79065,1,0,0:0:0:0:
182,192,79065,1,0,0:0:0:0:
109,192,79065,1,0,0:0:0:0:
329,192,79140,1,0,0:0:0:0:
475,192,79140,1,0,0:0:0:0:
402,192,79140,1,0,0:0:0:0:
256,192,79215,128,0,79290:0:0:0:0:
109,192,79215,1,0,0:0:0:0:
182,192,79290,128,0,79365:0:0:0:0:
36,192,79290,1,0,0:0:0:0:
256,192,79365,1,0,0:0:0:0:
475,192,79365,1,0,0:0:0:0:
109,192,79365,128,0,79440:0:0:0:0:
402,192,79365,1,0,0:0:0:0:
36,192,79440,128,0,79515:0:0:0:0:
329,192,79440,1,0,0:0:0:0:
475,192,79515,128,0,79665:0:0:0:0:
256,192,79515,1,0,0:0:0:0:
182,192,79590,1,0,0:0:0:0:
402,192,79665,128,0,79740:0:0:0:0:
109,192,79665,1,0,0:0:0:0:
256,192,79665,1,0,0:0:0:0:
36,192,79665,1,0,0:0:0:0:
329,192,79740,128,0,79815:0:0:0:0:
182,192,79740,1,0,0:0:0:0:
256,192,79815,128,0,79890:0:0:0:0:
475,192,79815,1,0,0:0:0:0:
182,192,79890,128,0,80115:0:0:0:0:
402,192,79890,1,0,0:0:0:0:
329,192,79965,1,0,0:0:0:0:
109,192,79965,1,0,0:0:0:0:
36,192,79965,1,0,0:0:0:0:
402,192,80040,1,0,0:0:0:0:
475,192,80115,1,0,0:0:0:0:
36,192,80190,1,0,0:0:0:0:
109,192,80265,1,0,0:0:0:0:
256,192,80265,1,0,0:0:0:0:
402,192,80265,1,0,0:0:0:0:
182,192,80340,1,0,0:0:0:0:
256,192,80415,1,0,0:0:0:0:
475,192,80490,1,0,0:0:0:0:
402,192,80565,1,0,0:0:0:0:
182,192,80565,1,0,0:0:0:0:
36,192,80565,1,0,0:0:0:0:
329,192,80640,1,0,0:0:0:0:
256,192,80715,1,0,0:0:0:0:
329,192,80790,1,0,0:0:0:0:
402,192,80865,1,0,0:0:0:0:
109,192,80865,1,0,0:0:0:0:
256,192,80865,1,0,0:0:0:0:
475,192,80940,1,0,0:0:0:0:
182,192,81015,1,0,0:0:0:0:
256,192,81090,1,0,0:0:0:0:
329,192,81165,1,0,0:0:0:0:
182,192,81165,1,0,0:0:0:0:
475,192,81165,1,0,0:0:0:0:
402,192,81240,1,0,0:0:0:0:
109,192,81240,1,0,0:0:0:0:
182,192,81315,1,0,0:0:0:0:
256,192,81390,1,0,0:0:0:0:
329,192,81465,1,0,0:0:0:0:
475,192,81465,1,0,0:0:0:0:
182,192,81465,1,0,0:0:0:0:
402,192,81540,1,0,0:0:0:0:
475,192,81615,128,0,81690:0:0:0:0:
36,192,81615,1,0,0:0:0:0:
256,192,81690,128,0,81765:0:0:0:0:
109,192,81690,1,0,0:0:0:0:
36,192,81765,128,0,81840:0:0:0:0:
182,192,81765,1,0,0:0:0:0:
329,192,81765,1,0,0:0:0:0:
475,192,81765,1,0,0:0:0:0:
256,192,81840,1,0,0:0:0:0:
329,192,81915,1,0,0:0:0:0:
256,192,81990,1,0,0:0:0:0:
182,192,82065,1,0,0:0:0:0:
402,192,82065,1,0,0:0:0:0:
329,192,82065,1,0,0:0:0:0:
109,192,82140,1,0,0:0:0:0:
36,192,82215,128,0,82290:0:0:0:0:
475,192,82215,1,0,0:0:0:0:
256,192,82290,128,0,82365:0:0:0:0:
402,192,82290,1,0,0:0:0:0:
475,192,82365,128,0,82440:0:0:0:0:
329,192,82365,1,0,0:0:0:0:
182,192,82365,1,0,0:0:0:0:
36,192,82365,1,0,0:0:0:0:
256,192,82440,1,0,0:0:0:0:
182,192,82515,1,0,0:0:0:0:
256,192,82590,1,0,0:0:0:0:
329,192,82665,1,0,0:0:0:0:
109,192,82665,1,0,0:0:0:0:
182,192,82665,1,0,0:0:0:0:
402,192,82740,1,0,0:0:0:0:
475,192,82815,1,0,0:0:0:0:
182,192,82890,1,0,0:0:0:0:
256,192,82965,1,0,0:0:0:0:
402,192,82965,1,0,0:0:0:0:
36,192,82965,1,0,0:0:0:0:
329,192,83040,1,0,0:0:0:0:
109,192,83115,1,0,0:0:0:0:
182,192,83190,1,0,0:0:0:0:
256,192,83265,1,0,0:0:0:0:
329,192,83265,1,0,0:0:0:0:
475,192,83265,1,0,0:0:0:0:
36,192,83340,1,0,0:0:0:0:
109,192,83415,1,0,0:0:0:0:
182,192,83490,1,0,0:0:0:0:
329,192,83565,1,0,0:0:0:0:
475,192,83565,1,0,0:0:0:0:
109,192,83565,1,0,0:0:0:0:
256,192,83640,1,0,0:0:0:0:
182,192,83715,1,0,0:0:0:0:
402,192,83790,1,0,0:0:0:0:
329,192,83865,1,0,0:0:0:0:
256,192,83865,1,0,0:0:0:0:
36,192,83865,1,0,0:0:0:0:
109,192,84015,1,0,0:0:0:0:
182,192,84015,1,0,0:0:0:0:
475,192,84015,1,0,0:0:0:0:
402,192,84215,1,0,0:0:0:0:
329,192,84215,1,0,0:0:0:0:
256,192,84215,1,0,0:0:0:0:
182,192,84315,1,0,0:0:0:0:
109,192,84315,1,0,0:0:0:0:
36,192,84315,1,0,0:0:0:0:
329,192,84415,1,0,0:0:0:0:
402,192,84415,1,0,0:0:0:0:
475,192,84415,1,0,0:0:0:0:
256,192,84615,1,0,0:0:0:0:
109,192,84615,1,0,0:0:0:0:
36,192,84615,1,0,0:0:0:0:
329,192,84715,1,0,0:0:0:0:
402,192,84815,1,0,0:0:0:0:
182,192,84815,1,0,0:0:0:0:
256,192,84815,1,0,0:0:0:0:
475,192,84915,1,0,0:0:0:0:
402,192,85015,1,0,0:0:0:0:
109,192,85015,1,0,0:0:0:0:
36,192,85015,1,0,0:0:0:0:
329,192,85115,1,0,0:0:0:0:
256,192,85215,1,0,0:0:0:0:
402,192,85215,1,0,0:0:0:0:
475,192,85215,1,0,0:0:0:0:
109,192,85415,1,0,0:0:0:0:
329,192,85415,1,0,0:0:0:0:
402,192,85415,1,0,0:0:0:0:
182,192,85515,1,0,0:0:0:0:
256,192,85615,1,0,0:0:0:0:
402,192,85615,1,0,0:0:0:0:
475,192,85615,1,0,0:0:0:0:
36,192,85815,1,0,0:0:0:0:
109,192,85915,1,0,0:0:0:0:
182,192,86015,1,0,0:0:0:0:
329,192,86015,1,0,0:0:0:0:
475,192,86015,1,0,0:0:0:0:
256,192,86115,1,0,0:0:0:0:
402,192,86115,1,0,0:0:0:0:
109,192,86115,1,0,0:0:0:0:
182,192,86215,1,0,0:0:0:0:
109,192,86315,1,0,0:0:0:0:
256,192,86415,1,0,0:0:0:0:
475,192,86415,128,0,86515:0:0:0:0:
36,192,86415,128,0,86515:0:0:0:0:
402,192,86515,128,0,86615:0:0:0:0:
109,192,86515,128,0,86615:0:0:0:0:
182,192,86515,1,0,0:0:0:0:
329,192,86515,1,0,0:0:0:0:
475,192,86615,128,0,86715:0:0:0:0:
36,192,86615,128,0,86715:0:0:0:0:
256,192,86615,1,0,0:0:0:0:
182,192,86715,128,0,87015:0:0:0:0:
329,192,86715,128,0,87015:0:0:0:0:
109,192,86715,1,0,0:0:0:0:
402,192,86715,1,0,0:0:0:0:
402,192,87015,128,0,87115:0:0:0:0:
109,192,87015,128,0,87115:0:0:0:0:
256,192,87015,1,0,0:0:0:0:
475,192,87115,128,0,87215:0:0:0:0:
36,192,87115,128,0,87215:0:0:0:0:
182,192,87115,1,0,0:0:0:0:
329,192,87115,1,0,0:0:0:0:
402,192,87215,128,0,87315:0:0:0:0:
109,192,87215,128,0,87315:0:0:0:0:
256,192,87215,1,0,0:0:0:0:
329,192,87315,128,0,87615:0:0:0:0:
182,192,87315,128,0,87615:0:0:0:0:
36,192,87315,1,0,0:0:0:0:
475,192,87315,1,0,0:0:0:0:
475,192,87615,128,0,87915:0:0:0:0:
109,192,87615,1,0,0:0:0:0:
36,192,87615,1,0,0:0:0:0:
329,192,87915,128,0,88515:0:0:0:0:
402,192,87915,1,0,0:0:0:0:
182,192,88015,128,0,88615:0:0:0:0:
36,192,88115,128,0,88715:0:0:0:0:
475,192,88215,128,0,88515:0:0:0:0:
256,192,88215,1,0,0:0:0:0:
402,192,88515,128,0,88815:0:0:0:0:
109,192,88515,1,0,0:0:0:0:
256,192,88615,128,0,88815:0:0:0:0:
109,192,88715,128,0,88815:0:0:0:0:
182,192,88815,1,0,0:0:0:0:
475,192,88815,1,0,0:0:0:0:
36,192,88815,1,0,0:0:0:0:
256,192,88890,1,0,0:0:0:0:
329,192,88965,1,0,0:0:0:0:
475,192,88965,1,0,0:0:0:0:
109,192,88965,1,0,0:0:0:0:
402,192,89040,1,0,0:0:0:0:
109,192,89115,1,0,0:0:0:0:
182,192,89190,1,0,0:0:0:0:
256,192,89265,1,0,0:0:0:0:
36,192,89265,1,0,0:0:0:0:
475,192,89265,1,0,0:0:0:0:
329,192,89340,1,0,0:0:0:0:
36,192,89415,1,0,0:0:0:0:
109,192,89490,1,0,0:0:0:0:
182,192,89565,1,0,0:0:0:0:
329,192,89565,1,0,0:0:0:0:
475,192,89565,1,0,0:0:0:0:
256,192,89640,1,0,0:0:0:0:
475,192,89715,1,0,0:0:0:0:
402,192,89790,1,0,0:0:0:0:
329,192,89865,1,0,0:0:0:0:
109,192,89865,1,0,0:0:0:0:
475,192,89865,1,0,0:0:0:0:
402,192,89940,1,0,0:0:0:0:
475,192,90015,1,0,0:0:0:0:
256,192,90015,1,0,0:0:0:0:
182,192,90090,1,0,0:0:0:0:
109,192,90165,1,0,0:0:0:0:
256,192,90165,1,0,0:0:0:0:
475,192,90165,1,0,0:0:0:0:
36,192,90240,1,0,0:0:0:0:
329,192,90315,1,0,0:0:0:0:
256,192,90390,1,0,0:0:0:0:
182,192,90465,1,0,0:0:0:0:
475,192,90465,1,0,0:0:0:0:
36,192,90465,1,0,0:0:0:0:
109,192,90540,1,0,0:0:0:0:
402,192,90615,1,0,0:0:0:0:
329,192,90690,1,0,0:0:0:0:
256,192,90765,1,0,0:0:0:0:
36,192,90765,1,0,0:0:0:0:
475,192,90765,1,0,0:0:0:0:
182,192,90840,1,0,0:0:0:0:
256,192,90915,1,0,0:0:0:0:
329,192,90990,1,0,0:0:0:0:
402,192,91065,1,0,0:0:0:0:
109,192,91065,1,0,0:0:0:0:
182,192,91065,1,0,0:0:0:0:
475,192,91140,1,0,0:0:0:0:
36,192,91215,128,0,91290:0:0:0:0:
256,192,91215,1,0,0:0:0:0:
109,192,91290,128,0,91365:0:0:0:0:
329,192,91290,1,0,0:0:0:0:
182,192,91365,128,0,91440:0:0:0:0:
402,192,91365,1,0,0:0:0:0:
36,192,91365,1,0,0:0:0:0:
256,192,91365,1,0,0:0:0:0:
475,192,91440,128,0,91515:0:0:0:0:
329,192,91440,1,0,0:0:0:0:
402,192,91515,128,0,91590:0:0:0:0:
256,192,91515,1,0,0:0:0:0:
329,192,91590,128,0,91665:0:0:0:0:
182,192,91590,1,0,0:0:0:0:
36,192,91665,128,0,91740:0:0:0:0:
256,192,91665,1,0,0:0:0:0:
402,192,91665,1,0,0:0:0:0:
475,192,91665,1,0,0:0:0:0:
109,192,91740,128,0,91815:0:0:0:0:
329,192,91740,1,0,0:0:0:0:
182,192,91815,128,0,91890:0:0:0:0:
402,192,91815,1,0,0:0:0:0:
475,192,91890,128,0,91965:0:0:0:0:
329,192,91890,1,0,0:0:0:0:
402,192,91965,128,0,92040:0:0:0:0:
256,192,91965,1,0,0:0:0:0:
109,192,91965,1,0,0:0:0:0:
36,192,91965,1,0,0:0:0:0:
329,192,92040,128,0,92115:0:0:0:0:
182,192,92040,1,0,0:0:0:0:
256,192,92115,128,0,92415:0:0:0:0:
109,192,92115,1,0,0:0:0:0:
475,192,92190,1,0,0:0:0:0:
402,192,92265,1,0,0:0:0:0:
182,192,92265,1,0,0:0:0:0:
36,192,92265,1,0,0:0:0:0:
329,192,92340,1,0,0:0:0:0:
402,192,92415,1,0,0:0:0:0:
475,192,92490,1,0,0:0:0:0:
36,192,92565,1,0,0:0:0:0:
182,192,92565,1,0,0:0:0:0:
402,192,92565,1,0,0:0:0:0:
109,192,92640,1,0,0:0:0:0:
182,192,92715,1,0,0:0:0:0:
109,192,92790,1,0,0:0:0:0:
36,192,92865,1,0,0:0:0:0:
256,192,92865,1,0,0:0:0:0:
402,192,92865,1,0,0:0:0:0:
475,192,92940,1,0,0:0:0:0:
402,192,93015,1,0,0:0:0:0:
329,192,93090,1,0,0:0:0:0:
256,192,93165,1,0,0:0:0:0:
36,192,93165,1,0,0:0:0:0:
475,192,93165,1,0,0:0:0:0:
182,192,93240,1,0,0:0:0:0:
109,192,93315,1,0,0:0:0:0:
36,192,93390,1,0,0:0:0:0:
475,192,93465,1,0,0:0:0:0:
182,192,93465,1,0,0:0:0:0:
329,192,93465,1,0,0:0:0:0:
402,192,93540,1,0,0:0:0:0:
329,192,93615,1,0,0:0:0:0:
109,192,93815,1,0,0:0:0:0:
182,192,93815,1,0,0:0:0:0:
256,192,93815,1,0,0:0:0:0:
329,192,93915,1,0,0:0:0:0:
402,192,93915,1,0,0:0:0:0:
475,192,93915,1,0,0:0:0:0:
182,192,94015,1,0,0:0:0:0:
109,192,94015,1,0,0:0:0:0:
36,192,94015,1,0,0:0:0:0:
256,192,94115,1,0,0:0:0:0:
329,192,94115,1,0,0:0:0:0:
402,192,94115,1,0,0:0:0:0:
475,192,94215,1,0,0:0:0:0:
109,192,94215,1,0,0:0:0:0:
36,192,94215,1,0,0:0:0:0:
182,192,94315,1,0,0:0:0:0:
329,192,94315,1,0,0:0:0:0:
402,192,94415,1,0,0:0:0:0:
475,192,94415,1,0,0:0:0:0:
36,192,94415,1,0,0:0:0:0:
109,192,94515,1,0,0:0:0:0:
256,192,94515,1,0,0:0:0:0:
329,192,94615,1,0,0:0:0:0:
402,192,94615,1,0,0:0:0:0:
182,192,94615,1,0,0:0:0:0:
256,192,94715,1,0,0:0:0:0:
475,192,94715,1,0,0:0:0:0:
402,192,94815,1,0,0:0:0:0:
329,192,94815,1,0,0:0:0:0:
36,192,94815,1,0,0:0:0:0:
109,192,95015,1,0,0:0:0:0:
256,192,95015,1,0,0:0:0:0:
182,192,95115,1,0,0:0:0:0:
329,192,95115,1,0,0:0:0:0:
475,192,95115,1,0,0:0:0:0:
256,192,95215,1,0,0:0:0:0:
402,192,95215,1,0,0:0:0:0:
475,192,95415,1,0,0:0:0:0:
256,192,95415,1,0,0:0:0:0:
36,192,95415,1,0,0:0:0:0:
182,192,95515,1,0,0:0:0:0:
402,192,95515,1,0,0:0:0:0:
329,192,95615,1,0,0:0:0:0:
109,192,95615,1,0,0:0:0:0:
182,192,95715,1,0,0:0:0:0:
402,192,95715,1,0,0:0:0:0:
36,192,95715,1,0,0:0:0:0:
256,192,95815,1,0,0:0:0:0:
475,192,95815,1,0,0:0:0:0:
182,192,95915,1,0,0:0:0:0:
402,192,95915,1,0,0:0:0:0:
256,192,96015,1,0,0:0:0:0:
36,192,96015,128,0,96115:0:0:0:0:
475,192,96015,128,0,96115:0:0:0:0:
182,192,96115,1,0,0:0:0:0:
109,192,96115,128,0,96215:0:0:0:0:
402,192,96115,128,0,96215:0:0:0:0:
329,192,96115,1,0,0:0:0:0:
36,192,96215,128,0,96315:0:0:0:0:
475,192,96215,128,0,96315:0:0:0:0:
256,192,96215,1,0,0:0:0:0:
182,192,96315,128,0,96615:0:0:0:0:
329,192,96315,128,0,96615:0:0:0:0:
109,192,96615,128,0,96715:0:0:0:0:
402,192,96615,128,0,96715:0:0:0:0:
256,192,96615,1,0,0:0:0:0:
36,192,96715,128,0,96815:0:0:0:0:
475,192,96715,128,0,96815:0:0:0:0:
182,192,96715,1,0,0:0:0:0:
329,192,96715,1,0,0:0:0:0:
109,192,96815,128,0,96915:0:0:0:0:
402,192,96815,128,0,96915:0:0:0:0:
256,192,96815,1,0,0:0:0:0:
182,192,96915,128,0,97215:0:0:0:0:
329,192,96915,128,0,97215:0:0:0:0:
36,192,96915,1,0,0:0:0:0:
475,192,96915,1,0,0:0:0:0:
36,192,97215,1,0,0:0:0:0:
256,192,97215,1,0,0:0:0:0:
475,192,97215,1,0,0:0:0:0:
402,192,97415,1,0,0:0:0:0:
256,192,97415,1,0,0:0:0:0:
109,192,97415,1,0,0:0:0:0:
329,192,97515,1,0,0:0:0:0:
256,192,97615,1,0,0:0:0:0:
36,192,97615,1,0,0:0:0:0:
475,192,97615,1,0,0:0:0:0:
182,192,97715,1,0,0:0:0:0:
256,192,97815,1,0,0:0:0:0:
109,192,97815,1,0,0:0:0:0:
402,192,97815,1,0,0:0:0:0:
256,192,98015,1,0,0:0:0:0:
182,192,98115,1,0,0:0:0:0:
475,192,98115,1,0,0:0:0:0:
36,192,98115,1,0,0:0:0:0:
329,192,98115,1,0,0:0:0:0:
256,192,98215,1,0,0:0:0:0:
329,192,98315,1,0,0:0:0:0:
256,192,98415,1,0,0:0:0:0:
36,192,98415,128,0,99015:0:0:0:0:
109,192,98415,1,0,0:0:0:0:
402,192,98415,1,0,0:0:0:0:
182,192,98715,1,0,0:0:0:0:
329,192,98715,1,0,0:0:0:0:
475,192,99015,128,0,99315:0:0:0:0:
256,192,99015,1,0,0:0:0:0:
109,192,99015,1,0,0:0:0:0:
182,192,99115,1,0,0:0:0:0:
109,192,99215,1,0,0:0:0:0:
329,192,99315,128,0,99615:0:0:0:0:
182,192,99315,1,0,0:0:0:0:
36,192,99315,1,0,0:0:0:0:
182,192,99615,128,0,100815:0:0:0:0:
475,192,99615,128,0,99715:0:0:0:0:
109,192,99615,1,0,0:0:0:0:
36,192,99615,1,0,0:0:0:0:
402,192,99715,128,0,99815:0:0:0:0:
329,192,99815,128,0,99915:0:0:0:0:
256,192,99915,128,0,100015:0:0:0:0:
36,192,99915,1,0,0:0:0:0:
109,192,99915,1,0,0:0:0:0:
402,192,100215,128,0,100315:0:0:0:0:
36,192,100215,1,0,0:0:0:0:
109,192,100215,1,0,0:0:0:0:
475,192,100315,128,0,100415:0:0:0:0:
256,192,100415,128,0,100515:0:0:0:0:
329,192,100515,128,0,100615:0:0:0:0:
36,192,100515,1,0,0:0:0:0:
109,192,100515,1,0,0:0:0:0:
402,192,100615,128,0,100715:0:0:0:0:
475,192,100715,128,0,100815:0:0:0:0:
329,192,100815,128,0,101215:0:0:0:0:
36,192,100815,1,0,0:0:0:0:
256,192,100815,1,0,0:0:0:0:
182,192,101115,1,0,0:0:0:0:
109,192,101115,1,0,0:0:0:0:
402,192,101115,1,0,0:0:0:0:
475,192,101215,128,0,101715:0:0:0:0:
256,192,101415,1,0,0:0:0:0:
402,192,101415,1,0,0:0:0:0:
329,192,101515,1,0,0:0:0:0:
256,192,101615,1,0,0:0:0:0:
36,192,101715,128,0,102015:0:0:0:0:
329,192,101715,1,0,0:0:0:0:
182,192,101715,1,0,0:0:0:0:
475,192,102015,128,0,102115:0:0:0:0:
256,192,102015,1,0,0:0:0:0:
256,192,102115,128,0,102215:0:0:0:0:
36,192,102115,1,0,0:0:0:0:
36,192,102215,128,0,102315:0:0:0:0:
475,192,102215,1,0,0:0:0:0:
475,192,102315,128,0,102415:0:0:0:0:
329,192,102315,1,0,0:0:0:0:
329,192,102415,128,0,102515:0:0:0:0:
182,192,102415,1,0,0:0:0:0:
182,192,102515,128,0,102615:0:0:0:0:
36,192,102515,1,0,0:0:0:0:
36,192,102615,128,0,102715:0:0:0:0:
402,192,102615,1,0,0:0:0:0:
402,192,102715,128,0,102815:0:0:0:0:
256,192,102715,1,0,0:0:0:0:
256,192,102815,128,0,102915:0:0:0:0:
109,192,102815,1,0,0:0:0:0:
109,192,102915,128,0,103015:0:0:0:0:
475,192,102915,1,0,0:0:0:0:
475,192,103015,128,0,103115:0:0:0:0:
36,192,103015,1,0,0:0:0:0:
36,192,103115,128,0,103215:0:0:0:0:
256,192,103115,1,0,0:0:0:0:
256,192,103215,128,0,103815:0:0:0:0:
402,192,103515,1,0,0:0:0:0:
109,192,103515,1,0,0:0:0:0:
475,192,103815,128,0,104115:0:0:0:0:
109,192,103815,1,0,0:0:0:0:
182,192,103915,1,0,0:0:0:0:
256,192,104015,1,0,0:0:0:0:
36,192,104115,128,0,104415:0:0:0:0:
329,192,104115,1,0,0:0:0:0:
182,192,104115,1,0,0:0:0:0:
182,192,104415,128,0,105615:0:0:0:0:
256,192,104415,128,0,104515:0:0:0:0:
475,192,104415,1,0,0:0:0:0:
329,192,104515,128,0,104615:0:0:0:0:
402,192,104615,128,0,104715:0:0:0:0:
475,192,104715,128,0,104815:0:0:0:0:
109,192,104715,1,0,0:0:0:0:
36,192,104715,1,0,0:0:0:0:
402,192,105015,128,0,105115:0:0:0:0:
475,192,105015,1,0,0:0:0:0:
329,192,105115,128,0,105215:0:0:0:0:
256,192,105215,128,0,105315:0:0:0:0:
475,192,105315,128,0,105415:0:0:0:0:
36,192,105315,1,0,0:0:0:0:
109,192,105315,1,0,0:0:0:0:
402,192,105415,128,0,105515:0:0:0:0:
329,192,105515,128,0,105615:0:0:0:0:
475,192,105615,128,0,106215:0:0:0:0:
109,192,105615,1,0,0:0:0:0:
256,192,105615,1,0,0:0:0:0:
182,192,105915,1,0,0:0:0:0:
329,192,105915,1,0,0:0:0:0:
329,192,106215,128,0,106515:0:0:0:0:
256,192,106215,1,0,0:0:0:0:
109,192,106215,1,0,0:0:0:0:
182,192,106315,1,0,0:0:0:0:
109,192,106415,1,0,0:0:0:0:
182,192,106515,128,0,106815:0:0:0:0:
36,192,106515,1,0,0:0:0:0:
402,192,106515,1,0,0:0:0:0:
475,192,106815,128,0,106865:0:0:0:0:
109,192,106815,1,0,0:0:0:0:
256,192,106865,128,0,106915:0:0:0:0:
36,192,106915,128,0,106965:0:0:0:0:
475,192,106965,128,0,107015:0:0:0:0:
329,192,107015,128,0,107065:0:0:0:0:
182,192,107065,128,0,107115:0:0:0:0:
36,192,107115,128,0,107165:0:0:0:0:
402,192,107165,128,0,107215:0:0:0:0:
256,192,107215,128,0,107265:0:0:0:0:
109,192,107265,128,0,107315:0:0:0:0:
475,192,107315,128,0,107365:0:0:0:0:
329,192,107365,128,0,107415:0:0:0:0:
182,192,107415,128,0,107465:0:0:0:0:
36,192,107465,128,0,107515:0:0:0:0:
402,192,107515,128,0,107565:0:0:0:0:
256,192,107565,128,0,107615:0:0:0:0:
109,192,107615,128,0,107665:0:0:0:0:
475,192,107715,128,0,107765:0:0:0:0:
329,192,107765,128,0,107815:0:0:0:0:
182,192,107815,128,0,107865:0:0:0:0:
36,192,107865,128,0,107915:0:0:0:0:
402,192,107915,128,0,107965:0:0:0:0:
109,192,107965,128,0,108015:0:0:0:0:
256,192,108015,128,0,108615:0:0:0:0:
329,192,108015,1,0,0:0:0:0:
475,192,108015,1,0,0:0:0:0:
402,192,108315,1,0,0:0:0:0:
109,192,108315,1,0,0:0:0:0:
182,192,108615,128,0,108915:0:0:0:0:
475,192,108615,1,0,0:0:0:0:
36,192,108615,1,0,0:0:0:0:
402,192,108715,1,0,0:0:0:0:
329,192,108815,1,0,0:0:0:0:
36,192,108915,128,0,109215:0:0:0:0:
256,192,108915,1,0,0:0:0:0:
475,192,108915,1,0,0:0:0:0:
402,192,109215,128,0,109815:0:0:0:0:
256,192,109215,128,0,109315:0:0:0:0:
329,192,109215,1,0,0:0:0:0:
475,192,109215,1,0,0:0:0:0:
182,192,109315,128,0,109415:0:0:0:0:
109,192,109415,128,0,109515:0:0:0:0:
36,192,109515,128,0,109615:0:0:0:0:
329,192,109515,1,0,0:0:0:0:
475,192,109515,1,0,0:0:0:0:
109,192,109815,128,0,110415:0:0:0:0:
182,192,109815,1,0,0:0:0:0:
475,192,109815,1,0,0:0:0:0:
256,192,109915,1,0,0:0:0:0:
329,192,110015,1,0,0:0:0:0:
256,192,110115,128,0,110215:0:0:0:0:
402,192,110115,1,0,0:0:0:0:
36,192,110115,1,0,0:0:0:0:
329,192,110215,128,0,110315:0:0:0:0:
475,192,110215,1,0,0:0:0:0:
402,192,110315,128,0,110415:0:0:0:0:
182,192,110315,1,0,0:0:0:0:
475,192,110415,128,0,111015:0:0:0:0:
329,192,110415,1,0,0:0:0:0:
256,192,110415,1,0,0:0:0:0:
109,192,110715,1,0,0:0:0:0:
36,192,110715,1,0,0:0:0:0:
36,192,111015,128,0,111315:0:0:0:0:
182,192,111015,1,0,0:0:0:0:
402,192,111015,1,0,0:0:0:0:
256,192,111115,1,0,0:0:0:0:
329,192,111215,1,0,0:0:0:0:
182,192,111315,128,0,111615:0:0:0:0:
256,192,111315,1,0,0:0:0:0:
475,192,111315,1,0,0:0:0:0:
329,192,111615,128,0,111715:0:0:0:0:
36,192,111615,1,0,0:0:0:0:
402,192,111715,128,0,111815:0:0:0:0:
109,192,111715,1,0,0:0:0:0:
475,192,111815,128,0,111915:0:0:0:0:
182,192,111815,1,0,0:0:0:0:
256,192,111915,128,0,112015:0:0:0:0:
36,192,111915,1,0,0:0:0:0:
329,192,112015,128,0,112115:0:0:0:0:
109,192,112015,1,0,0:0:0:0:
402,192,112115,128,0,112215:0:0:0:0:
36,192,112115,1,0,0:0:0:0:
182,192,112215,128,0,112315:0:0:0:0:
475,192,112215,1,0,0:0:0:0:
109,192,112315,128,0,112415:0:0:0:0:
402,192,112315,1,0,0:0:0:0:
36,192,112415,128,0,112515:0:0:0:0:
329,192,112415,1,0,0:0:0:0:
256,192,112515,128,0,112615:0:0:0:0:
475,192,112515,1,0,0:0:0:0:
182,192,112615,128,0,112715:0:0:0:0:
402,192,112615,1,0,0:0:0:0:
109,192,112715,128,0,112815:0:0:0:0:
475,192,112715,1,0,0:0:0:0:
402,192,112815,128,0,113315:0:0:0:0:
329,192,112815,1,0,0:0:0:0:
182,192,112815,1,0,0:0:0:0:
256,192,112915,1,0,0:0:0:0:
182,192,113015,1,0,0:0:0:0:
256,192,113115,1,0,0:0:0:0:
109,192,113115,1,0,0:0:0:0:
36,192,113315,128,0,113715:0:0:0:0:
182,192,113415,1,0,0:0:0:0:
329,192,113415,1,0,0:0:0:0:
256,192,113515,1,0,0:0:0:0:
329,192,113615,1,0,0:0:0:0:
182,192,113715,128,0,114015:0:0:0:0:
256,192,113715,1,0,0:0:0:0:
402,192,113715,1,0,0:0:0:0:
36,192,114015,128,0,114115:0:0:0:0:
109,192,114015,1,0,0:0:0:0:
402,192,114015,1,0,0:0:0:0:
256,192,114115,128,0,114215:0:0:0:0:
475,192,114215,128,0,114315:0:0:0:0:
36,192,114315,128,0,114415:0:0:0:0:
109,192,114315,1,0,0:0:0:0:
402,192,114315,1,0,0:0:0:0:
182,192,114415,128,0,114515:0:0:0:0:
329,192,114515,128,0,114615:0:0:0:0:
475,192,114615,128,0,114715:0:0:0:0:
109,192,114615,1,0,0:0:0:0:
402,192,114615,1,0,0:0:0:0:
36,192,114715,128,0,114815:0:0:0:0:
256,192,114815,128,0,114915:0:0:0:0:
475,192,114915,128,0,115015:0:0:0:0:
402,192,114915,128,0,115015:0:0:0:0:
182,192,115015,128,0,115115:0:0:0:0:
109,192,115015,128,0,115115:0:0:0:0:
329,192,115115,128,0,115215:0:0:0:0:
402,192,115115,128,0,115215:0:0:0:0:
256,192,115215,128,0,115815:0:0:0:0:
36,192,115215,1,0,0:0:0:0:
109,192,115215,1,0,0:0:0:0:
402,192,115515,1,0,0:0:0:0:
475,192,115515,1,0,0:0:0:0:
402,192,115815,128,0,116115:0:0:0:0:
36,192,115815,1,0,0:0:0:0:
182,192,115815,1,0,0:0:0:0:
109,192,115915,1,0,0:0:0:0:
182,192,116015,1,0,0:0:0:0:
109,192,116115,128,0,116415:0:0:0:0:
256,192,116115,1,0,0:0:0:0:
329,192,116115,1,0,0:0:0:0:
329,192,116415,1,0,0:0:0:0:
256,192,116415,1,0,0:0:0:0:
36,192,116415,1,0,0:0:0:0:
475,192,116415,1,0,0:0:0:0:
402,192,116515,1,0,0:0:0:0:
475,192,116615,1,0,0:0:0:0:
256,192,116715,1,0,0:0:0:0:
402,192,116715,1,0,0:0:0:0:
182,192,116715,1,0,0:0:0:0:
36,192,116715,1,0,0:0:0:0:
329,192,116815,1,0,0:0:0:0:
402,192,116915,1,0,0:0:0:0:
182,192,117015,1,0,0:0:0:0:
109,192,117015,1,0,0:0:0:0:
329,192,117015,1,0,0:0:0:0:
475,192,117015,1,0,0:0:0:0:
256,192,117115,1,0,0:0:0:0:
329,192,117215,1,0,0:0:0:0:
109,192,117315,1,0,0:0:0:0:
475,192,117315,1,0,0:0:0:0:
256,192,117315,1,0,0:0:0:0:
36,192,117315,1,0,0:0:0:0:
182,192,117415,1,0,0:0:0:0:
256,192,117515,1,0,0:0:0:0:
402,192,117615,1,0,0:0:0:0:
329,192,117690,1,0,0:0:0:0:
256,192,117765,1,0,0:0:0:0:
36,192,117765,1,0,0:0:0:0:
109,192,117765,1,0,0:0:0:0:
402,192,117765,1,0,0:0:0:0:
475,192,117840,1,0,0:0:0:0:
402,192,117915,1,0,0:0:0:0:
329,192,117990,1,0,0:0:0:0:
109,192,118065,1,0,0:0:0:0:
256,192,118065,1,0,0:0:0:0:
402,192,118065,1,0,0:0:0:0:
475,192,118065,1,0,0:0:0:0:
182,192,118140,1,0,0:0:0:0:
256,192,118215,1,0,0:0:0:0:
36,192,118290,1,0,0:0:0:0:
109,192,118365,1,0,0:0:0:0:
402,192,118365,1,0,0:0:0:0:
329,192,118365,1,0,0:0:0:0:
475,192,118365,1,0,0:0:0:0:
182,192,118440,1,0,0:0:0:0:
475,192,118515,1,0,0:0:0:0:
402,192,118590,1,0,0:0:0:0:
329,192,118665,1,0,0:0:0:0:
36,192,118665,1,0,0:0:0:0:
182,192,118665,1,0,0:0:0:0:
475,192,118665,1,0,0:0:0:0:
256,192,118740,1,0,0:0:0:0:
36,192,118815,1,0,0:0:0:0:
109,192,118890,1,0,0:0:0:0:
182,192,118965,1,0,0:0:0:0:
329,192,118965,1,0,0:0:0:0:
475,192,118965,1,0,0:0:0:0:
36,192,118965,1,0,0:0:0:0:
256,192,119040,1,0,0:0:0:0:
402,192,119115,1,0,0:0:0:0:
329,192,119190,1,0,0:0:0:0:
256,192,119265,1,0,0:0:0:0:
182,192,119265,1,0,0:0:0:0:
36,192,119265,1,0,0:0:0:0:
475,192,119265,1,0,0:0:0:0:
109,192,119340,1,0,0:0:0:0:
182,192,119415,1,0,0:0:0:0:
256,192,119490,1,0,0:0:0:0:
475,192,119565,1,0,0:0:0:0:
329,192,119565,1,0,0:0:0:0:
182,192,119565,1,0,0:0:0:0:
36,192,119565,1,0,0:0:0:0:
402,192,119640,1,0,0:0:0:0:
329,192,119715,1,0,0:0:0:0:
256,192,119790,1,0,0:0:0:0:
36,192,119865,1,0,0:0:0:0:
182,192,119865,1,0,0:0:0:0:
402,192,119865,1,0,0:0:0:0:
475,192,119865,1,0,0:0:0:0:
109,192,119940,1,0,0:0:0:0:
182,192,120015,1,0,0:0:0:0:
256,192,120090,1,0,0:0:0:0:
182,192,120165,1,0,0:0:0:0:
329,192,120165,1,0,0:0:0:0:
475,192,120165,1,0,0:0:0:0:
36,192,120165,1,0,0:0:0:0:
109,192,120240,1,0,0:0:0:0:
36,192,120315,1,0,0:0:0:0:
475,192,120390,1,0,0:0:0:0:
402,192,120465,1,0,0:0:0:0:
109,192,120465,1,0,0:0:0:0:
36,192,120465,1,0,0:0:0:0:
256,192,120465,1,0,0:0:0:0:
329,192,120540,1,0,0:0:0:0:
256,192,120615,1,0,0:0:0:0:
182,192,120690,1,0,0:0:0:0:
109,192,120765,1,0,0:0:0:0:
256,192,120765,1,0,0:0:0:0:
402,192,120765,1,0,0:0:0:0:
475,192,120765,1,0,0:0:0:0:
36,192,120840,1,0,0:0:0:0:
475,192,120915,1,0,0:0:0:0:
402,192,120990,1,0,0:0:0:0:
329,192,121065,1,0,0:0:0:0:
182,192,121065,1,0,0:0:0:0:
36,192,121065,1,0,0:0:0:0:
475,192,121065,1,0,0:0:0:0:
256,192,121140,1,0,0:0:0:0:
36,192,121215,1,0,0:0:0:0:
109,192,121290,1,0,0:0:0:0:
182,192,121365,1,0,0:0:0:0:
329,192,121365,1,0,0:0:0:0:
402,192,121365,1,0,0:0:0:0:
36,192,121365,1,0,0:0:0:0:
256,192,121440,1,0,0:0:0:0:
475,192,121515,1,0,0:0:0:0:
402,192,121590,1,0,0:0:0:0:
329,192,121665,1,0,0:0:0:0:
36,192,121665,1,0,0:0:0:0:
182,192,121665,1,0,0:0:0:0:
475,192,121665,1,0,0:0:0:0:
256,192,121740,1,0,0:0:0:0:
182,192,121815,1,0,0:0:0:0:
109,192,121890,1,0,0:0:0:0:
36,192,121965,1,0,0:0:0:0:
256,192,121965,1,0,0:0:0:0:
402,192,121965,1,0,0:0:0:0:
475,192,121965,1,0,0:0:0:0:
182,192,122040,1,0,0:0:0:0:
256,192,122115,1,0,0:0:0:0:
329,192,122190,1,0,0:0:0:0:
402,192,122265,1,0,0:0:0:0:
36,192,122265,1,0,0:0:0:0:
109,192,122265,1,0,0:0:0:0:
256,192,122265,1,0,0:0:0:0:
475,192,122340,1,0,0:0:0:0:
402,192,122415,1,0,0:0:0:0:
256,192,122415,1,0,0:0:0:0:
109,192,122415,1,0,0:0:0:0:
36,192,122615,1,0,0:0:0:0:
182,192,122615,1,0,0:0:0:0:
329,192,122615,1,0,0:0:0:0:
256,192,122715,1,0,0:0:0:0:
402,192,122715,1,0,0:0:0:0:
475,192,122815,1,0,0:0:0:0:
329,192,122815,1,0,0:0:0:0:
109,192,122815,1,0,0:0:0:0:
182,192,123015,1,0,0:0:0:0:
329,192,123015,1,0,0:0:0:0:
475,192,123015,1,0,0:0:0:0:
256,192,123115,1,0,0:0:0:0:
109,192,123115,1,0,0:0:0:0:
182,192,123215,1,0,0:0:0:0:
36,192,123215,1,0,0:0:0:0:
402,192,123215,1,0,0:0:0:0:
256,192,123315,1,0,0:0:0:0:
109,192,123315,1,0,0:0:0:0:
182,192,123415,1,0,0:0:0:0:
329,192,123415,1,0,0:0:0:0:
475,192,123415,1,0,0:0:0:0:
256,192,123515,1,0,0:0:0:0:
402,192,123515,1,0,0:0:0:0:
329,192,123615,1,0,0:0:0:0:
475,192,123615,1,0,0:0:0:0:
109,192,123615,1,0,0:0:0:0:
182,192,123815,1,0,0:0:0:0:
36,192,123815,1,0,0:0:0:0:
109,192,123915,1,0,0:0:0:0:
256,192,123915,1,0,0:0:0:0:
402,192,123915,1,0,0:0:0:0:
182,192,124015,1,0,0:0:0:0:
329,192,124015,1,0,0:0:0:0:
475,192,124215,1,0,0:0:0:0:
402,192,124215,1,0,0:0:0:0:
109,192,124315,1,0,0:0:0:0:
36,192,124315,1,0,0:0:0:0:
182,192,124415,1,0,0:0:0:0:
256,192,124415,1,0,0:0:0:0:
329,192,124415,1,0,0:0:0:0:
402,192,124515,1,0,0:0:0:0:
475,192,124515,1,0,0:0:0:0:
182,192,124615,1,0,0:0:0:0:
109,192,124615,1,0,0:0:0:0:
36,192,124615,1,0,0:0:0:0:
402,192,124715,1,0,0:0:0:0:
329,192,124715,1,0,0:0:0:0:
475,192,124815,128,0,124915:0:0:0:0:
36,192,124815,128,0,124915:0:0:0:0:
256,192,124815,1,0,0:0:0:0:
402,192,124915,128,0,125015:0:0:0:0:
109,192,124915,128,0,125015:0:0:0:0:
182,192,124915,1,0,0:0:0:0:
329,192,124915,1,0,0:0:0:0:
475,192,125015,128,0,125115:0:0:0:0:
36,192,125015,128,0,125115:0:0:0:0:
256,192,125015,1,0,0:0:0:0:
329,192,125115,128,0,125415:0:0:0:0:
182,192,125115,128,0,125415:0:0:0:0:
402,192,125415,128,0,125515:0:0:0:0:
256,192,125415,1,0,0:0:0:0:
109,192,125415,128,0,125515:0:0:0:0:
475,192,125515,128,0,125615:0:0:0:0:
36,192,125515,128,0,125615:0:0:0:0:
182,192,125515,1,0,0:0:0:0:
329,192,125515,1,0,0:0:0:0:
402,192,125615,128,0,125715:0:0:0:0:
109,192,125615,128,0,125715:0:0:0:0:
256,192,125615,1,0,0:0:0:0:
329,192,125715,128,0,126015:0:0:0:0:
182,192,125715,128,0,126015:0:0:0:0:
36,192,126015,1,0,0:0:0:0:
109,192,126015,1,0,0:0:0:0:
475,192,126015,128,0,126315:0:0:0:0:
402,192,126315,1,0,0:0:0:0:
329,192,126315,128,0,126915:0:0:0:0:
182,192,126415,128,0,127015:0:0:0:0:
36,192,126515,128,0,127115:0:0:0:0:
256,192,126615,1,0,0:0:0:0:
475,192,126615,128,0,126915:0:0:0:0:
109,192,126915,1,0,0:0:0:0:
402,192,126915,128,0,127215:0:0:0:0:
256,192,127015,128,0,127215:0:0:0:0:
109,192,127115,128,0,127215:0:0:0:0:
36,192,127215,1,0,0:0:0:0:
475,192,127215,1,0,0:0:0:0:
182,192,127215,1,0,0:0:0:0:
402,192,127290,1,0,0:0:0:0:
329,192,127365,1,0,0:0:0:0:
256,192,127440,1,0,0:0:0:0:
182,192,127515,1,0,0:0:0:0:
256,192,127590,1,0,0:0:0:0:
329,192,127665,1,0,0:0:0:0:
36,192,127665,1,0,0:0:0:0:
109,192,127665,1,0,0:0:0:0:
475,192,127665,1,0,0:0:0:0:
402,192,127740,1,0,0:0:0:0:
475,192,127815,1,0,0:0:0:0:
182,192,127890,1,0,0:0:0:0:
256,192,127965,1,0,0:0:0:0:
402,192,127965,1,0,0:0:0:0:
475,192,127965,1,0,0:0:0:0:
36,192,127965,1,0,0:0:0:0:
329,192,128040,1,0,0:0:0:0:
109,192,128115,1,0,0:0:0:0:
182,192,128190,1,0,0:0:0:0:
256,192,128265,1,0,0:0:0:0:
329,192,128265,1,0,0:0:0:0:
475,192,128265,1,0,0:0:0:0:
109,192,128265,1,0,0:0:0:0:
36,192,128340,1,0,0:0:0:0:
109,192,128415,1,0,0:0:0:0:
182,192,128490,1,0,0:0:0:0:
329,192,128565,1,0,0:0:0:0:
402,192,128565,1,0,0:0:0:0:
475,192,128565,1,0,0:0:0:0:
36,192,128565,1,0,0:0:0:0:
256,192,128640,1,0,0:0:0:0:
182,192,128715,1,0,0:0:0:0:
109,192,128790,1,0,0:0:0:0:
402,192,128865,1,0,0:0:0:0:
182,192,128865,1,0,0:0:0:0:
256,192,128865,1,0,0:0:0:0:
475,192,128865,1,0,0:0:0:0:
329,192,128940,1,0,0:0:0:0:
256,192,129015,1,0,0:0:0:0:
182,192,129090,1,0,0:0:0:0:
475,192,129165,1,0,0:0:0:0:
329,192,129165,1,0,0:0:0:0:
256,192,129165,1,0,0:0:0:0:
36,192,129165,1,0,0:0:0:0:
402,192,129240,1,0,0:0:0:0:
329,192,129315,1,0,0:0:0:0:
256,192,129390,1,0,0:0:0:0:
36,192,129465,1,0,0:0:0:0:
182,192,129465,1,0,0:0:0:0:
329,192,129465,1,0,0:0:0:0:
475,192,129465,1,0,0:0:0:0:
109,192,129540,1,0,0:0:0:0:
182,192,129615,1,0,0:0:0:0:
256,192,129690,1,0,0:0:0:0:
329,192,129765,1,0,0:0:0:0:
475,192,129765,1,0,0:0:0:0:
182,192,129765,1,0,0:0:0:0:
36,192,129765,1,0,0:0:0:0:
402,192,129840,1,0,0:0:0:0:
475,192,129915,1,0,0:0:0:0:
182,192,129990,1,0,0:0:0:0:
256,192,130065,1,0,0:0:0:0:
109,192,130065,1,0,0:0:0:0:
402,192,130065,1,0,0:0:0:0:
475,192,130065,1,0,0:0:0:0:
329,192,130140,1,0,0:0:0:0:
402,192,130215,1,0,0:0:0:0:
109,192,130290,1,0,0:0:0:0:
182,192,130365,1,0,0:0:0:0:
329,192,130365,1,0,0:0:0:0:
475,192,130365,1,0,0:0:0:0:
36,192,130365,1,0,0:0:0:0:
256,192,130440,1,0,0:0:0:0:
329,192,130515,1,0,0:0:0:0:
36,192,130590,1,0,0:0:0:0:
109,192,130665,1,0,0:0:0:0:
256,192,130665,1,0,0:0:0:0:
402,192,130665,1,0,0:0:0:0:
475,192,130665,1,0,0:0:0:0:
182,192,130740,1,0,0:0:0:0:
256,192,130815,1,0,0:0:0:0:
182,192,130890,1,0,0:0:0:0:
109,192,130965,1,0,0:0:0:0:
329,192,130965,1,0,0:0:0:0:
475,192,130965,1,0,0:0:0:0:
402,192,130965,1,0,0:0:0:0:
36,192,131040,1,0,0:0:0:0:
402,192,131115,1,0,0:0:0:0:
329,192,131190,1,0,0:0:0:0:
256,192,131265,1,0,0:0:0:0:
109,192,131265,1,0,0:0:0:0:
36,192,131265,1,0,0:0:0:0:
402,192,131265,1,0,0:0:0:0:
182,192,131340,1,0,0:0:0:0:
475,192,131415,1,0,0:0:0:0:
402,192,131490,1,0,0:0:0:0:
329,192,131565,1,0,0:0:0:0:
182,192,131565,1,0,0:0:0:0:
36,192,131565,1,0,0:0:0:0:
475,192,131565,1,0,0:0:0:0:
256,192,131640,1,0,0:0:0:0:
36,192,131715,1,0,0:0:0:0:
109,192,131790,1,0,0:0:0:0:
182,192,131865,1,0,0:0:0:0:
329,192,131865,1,0,0:0:0:0:
402,192,131865,1,0,0:0:0:0:
36,192,131865,1,0,0:0:0:0:
256,192,131940,1,0,0:0:0:0:
109,192,132015,1,0,0:0:0:0:
182,192,132015,1,0,0:0:0:0:
475,192,132015,1,0,0:0:0:0:
109,192,132215,1,0,0:0:0:0:
182,192,132215,1,0,0:0:0:0:
475,192,132215,1,0,0:0:0:0:
402,192,132415,1,0,0:0:0:0:
329,192,132415,1,0,0:0:0:0:
36,192,132415,1,0,0:0:0:0:
109,192,132615,1,0,0:0:0:0:
329,192,132615,1,0,0:0:0:0:
402,192,132615,1,0,0:0:0:0:
182,192,132715,1,0,0:0:0:0:
256,192,132715,1,0,0:0:0:0:
329,192,132815,1,0,0:0:0:0:
402,192,132815,1,0,0:0:0:0:
475,192,132815,1,0,0:0:0:0:
256,192,132915,1,0,0:0:0:0:
182,192,132915,1,0,0:0:0:0:
109,192,133015,1,0,0:0:0:0:
36,192,133015,1,0,0:0:0:0:
402,192,133015,1,0,0:0:0:0:
329,192,133115,1,0,0:0:0:0:
182,192,133115,1,0,0:0:0:0:
475,192,133215,1,0,0:0:0:0:
256,192,133215,1,0,0:0:0:0:
36,192,133215,1,0,0:0:0:0:
36,192,133415,1,0,0:0:0:0:
256,192,133415,1,0,0:0:0:0:
475,192,133415,1,0,0:0:0:0:
402,192,133615,1,0,0:0:0:0:
256,192,133615,1,0,0:0:0:0:
36,192,133615,1,0,0:0:0:0:
109,192,133815,1,0,0:0:0:0:
329,192,133815,1,0,0:0:0:0:
475,192,133815,1,0,0:0:0:0:
182,192,133915,1,0,0:0:0:0:
402,192,133915,1,0,0:0:0:0:
256,192,134015,1,0,0:0:0:0:
475,192,134015,1,0,0:0:0:0:
36,192,134015,1,0,0:0:0:0:
182,192,134115,1,0,0:0:0:0:
402,192,134115,1,0,0:0:0:0:
109,192,134215,1,0,0:0:0:0:
256,192,134215,1,0,0:0:0:0:
475,192,134215,1,0,0:0:0:0:
36,192,134315,1,0,0:0:0:0:
329,192,134315,1,0,0:0:0:0:
109,192,134415,128,0,134515:0:0:0:0:
402,192,134415,128,0,134515:0:0:0:0:
256,192,134415,1,0,0:0:0:0:
36,192,134515,128,0,134615:0:0:0:0:
475,192,134515,128,0,134615:0:0:0:0:
182,192,134515,1,0,0:0:0:0:
329,192,134515,1,0,0:0:0:0:
109,192,134615,128,0,134715:0:0:0:0:
402,192,134615,128,0,134715:0:0:0:0:
256,192,134615,1,0,0:0:0:0:
182,192,134715,128,0,135015:0:0:0:0:
329,192,134715,128,0,135015:0:0:0:0:
36,192,134715,1,0,0:0:0:0:
475,192,134715,1,0,0:0:0:0:
475,192,135015,128,0,135115:0:0:0:0:
36,192,135015,128,0,135115:0:0:0:0:
256,192,135015,1,0,0:0:0:0:
402,192,135115,128,0,135215:0:0:0:0:
109,192,135115,128,0,135215:0:0:0:0:
182,192,135115,1,0,0:0:0:0:
329,192,135115,1,0,0:0:0:0:
475,192,135215,128,0,135315:0:0:0:0:
36,192,135215,128,0,135315:0:0:0:0:
256,192,135215,1,0,0:0:0:0:
182,192,135315,128,0,135615:0:0:0:0:
329,192,135315,128,0,135615:0:0:0:0:
109,192,135315,1,0,0:0:0:0:
402,192,135315,1,0,0:0:0:0:
475,192,135815,1,0,0:0:0:0:
182,192,135815,1,0,0:0:0:0:
402,192,135915,1,0,0:0:0:0:
109,192,135915,1,0,0:0:0:0:
256,192,135915,1,0,0:0:0:0:
329,192,136015,1,0,0:0:0:0:
36,192,136015,1,0,0:0:0:0:
402,192,136115,1,0,0:0:0:0:
109,192,136115,1,0,0:0:0:0:
475,192,136215,1,0,0:0:0:0:
182,192,136215,1,0,0:0:0:0:
256,192,136215,1,0,0:0:0:0:
329,192,136415,1,0,0:0:0:0:
36,192,136415,1,0,0:0:0:0:
402,192,136515,1,0,0:0:0:0:
109,192,136515,1,0,0:0:0:0:
256,192,136515,1,0,0:0:0:0:
475,192,136615,1,0,0:0:0:0:
182,192,136615,1,0,0:0:0:0:
402,192,136715,1,0,0:0:0:0:
109,192,136715,1,0,0:0:0:0:
329,192,136815,1,0,0:0:0:0:
36,192,136815,1,0,0:0:0:0:
256,192,136815,1,0,0:0:0:0:
402,192,137115,1,0,0:0:0:0:
109,192,137115,1,0,0:0:0:0:
475,192,137415,1,0,0:0:0:0:
182,192,137415,1,0,0:0:0:0:
402,192,137715,1,0,0:0:0:0:
256,192,137715,1,0,0:0:0:0:
109,192,138015,1,0,0:0:0:0:
36,192,138015,1,0,0:0:0:0:
36,192,138315,1,0,0:0:0:0:
109,192,138315,1,0,0:0:0:0:
475,192,138615,1,0,0:0:0:0:
256,192,138615,1,0,0:0:0:0:
402,192,138915,1,0,0:0:0:0:
182,192,138915,1,0,0:0:0:0:
36,192,139215,1,0,0:0:0:0:
109,192,139215,1,0,0:0:0:0:
329,192,139215,1,0,0:0:0:0:
182,192,139515,1,0,0:0:0:0:
256,192,139515,1,0,0:0:0:0:
402,192,139515,1,0,0:0:0:0:
475,192,139815,1,0,0:0:0:0:
329,192,139815,1,0,0:0:0:0:
36,192,139815,1,0,0:0:0:0:
109,192,140115,1,0,0:0:0:0:
256,192,140115,1,0,0:0:0:0:
402,192,140115,1,0,0:0:0:0:
182,192,140415,1,0,0:0:0:0:
329,192,140415,1,0,0:0:0:0:
109,192,140715,1,0,0:0:0:0:
36,192,140715,1,0,0:0:0:0:
36,192,141015,1,0,0:0:0:0:
109,192,141015,1,0,0:0:0:0:
329,192,141015,1,0,0:0:0:0:
402,192,141315,1,0,0:0:0:0:
475,192,141315,1,0,0:0:0:0:
182,192,141315,1,0,0:0:0:0:
475,192,141615,1,0,0:0:0:0:
402,192,141615,1,0,0:0:0:0:
182,192,141615,1,0,0:0:0:0:
256,192,143115,1,0,0:0:0:0:
475,192,143115,1,0,0:0:0:0:
402,192,143415,1,0,0:0:0:0:
182,192,143415,1,0,0:0:0:0:
256,192,143715,1,0,0:0:0:0:
36,192,143715,1,0,0:0:0:0:
109,192,144015,1,0,0:0:0:0:
329,192,144015,1,0,0:0:0:0:
475,192,144015,1,0,0:0:0:0:
256,192,145215,1,0,0:0:0:0:
402,192,145215,1,0,0:0:0:0:
109,192,145215,1,0,0:0:0:0:
256,192,145815,1,0,0:0:0:0:
329,192,146415,1,0,0:0:0:0:
109,192,146415,1,0,0:0:0:0:
36,192,146415,1,0,0:0:0:0:
475,192,146415,1,0,0:0:0:0:
256,192,146490,1,0,0:0:0:0:
182,192,146490,1,0,0:0:0:0:
402,192,146565,1,0,0:0:0:0:
329,192,146565,1,0,0:0:0:0:
109,192,146565,1,0,0:0:0:0:
36,192,146640,1,0,0:0:0:0:
256,192,146640,1,0,0:0:0:0:
109,192,146715,1,0,0:0:0:0:
329,192,146715,1,0,0:0:0:0:
475,192,146715,1,0,0:0:0:0:
182,192,146790,1,0,0:0:0:0:
402,192,146790,1,0,0:0:0:0:
475,192,146865,1,0,0:0:0:0:
36,192,146865,1,0,0:0:0:0:
256,192,146865,1,0,0:0:0:0:
109,192,146940,1,0,0:0:0:0:
402,192,146940,1,0,0:0:0:0:
36,192,147015,1,0,0:0:0:0:
329,192,147015,1,0,0:0:0:0:
475,192,147015,1,0,0:0:0:0:
402,192,147090,1,0,0:0:0:0:
256,192,147090,1,0,0:0:0:0:
475,192,147165,1,0,0:0:0:0:
182,192,147165,1,0,0:0:0:0:
329,192,147165,1,0,0:0:0:0:
402,192,147240,1,0,0:0:0:0:
109,192,147240,1,0,0:0:0:0:
36,192,147315,1,0,0:0:0:0:
329,192,147315,1,0,0:0:0:0:
182,192,147315,1,0,0:0:0:0:
402,192,147390,1,0,0:0:0:0:
256,192,147390,1,0,0:0:0:0:
182,192,147465,1,0,0:0:0:0:
329,192,147465,1,0,0:0:0:0:
36,192,147465,1,0,0:0:0:0:
256,192,147540,1,0,0:0:0:0:
402,192,147540,1,0,0:0:0:0:
329,192,147615,1,0,0:0:0:0:
475,192,147615,1,0,0:0:0:0:
109,192,147615,1,0,0:0:0:0:
402,192,147690,1,0,0:0:0:0:
182,192,147690,1,0,0:0:0:0:
475,192,147765,1,0,0:0:0:0:
256,192,147765,1,0,0:0:0:0:
36,192,147765,1,0,0:0:0:0:
109,192,147840,1,0,0:0:0:0:
402,192,147840,1,0,0:0:0:0:
182,192,147915,1,0,0:0:0:0:
475,192,147915,1,0,0:0:0:0:
329,192,147915,1,0,0:0:0:0:
256,192,147990,1,0,0:0:0:0:
402,192,147990,1,0,0:0:0:0:
36,192,148065,1,0,0:0:0:0:
182,192,148065,1,0,0:0:0:0:
475,192,148065,1,0,0:0:0:0:
256,192,148140,1,0,0:0:0:0:
109,192,148140,1,0,0:0:0:0:
182,192,148215,1,0,0:0:0:0:
329,192,148215,1,0,0:0:0:0:
402,192,148215,1,0,0:0:0:0:
36,192,148290,1,0,0:0:0:0:
256,192,148290,1,0,0:0:0:0:
329,192,148365,1,0,0:0:0:0:
475,192,148365,1,0,0:0:0:0:
182,192,148365,1,0,0:0:0:0:
256,192,148440,1,0,0:0:0:0:
402,192,148440,1,0,0:0:0:0:
182,192,148515,1,0,0:0:0:0:
475,192,148515,1,0,0:0:0:0:
109,192,148515,1,0,0:0:0:0:
329,192,148590,1,0,0:0:0:0:
402,192,148665,1,0,0:0:0:0:
36,192,148665,1,0,0:0:0:0:
256,192,148665,1,0,0:0:0:0:
475,192,148740,1,0,0:0:0:0:
109,192,148740,1,0,0:0:0:0:
182,192,148815,1,0,0:0:0:0:
256,192,148815,1,0,0:0:0:0:
402,192,148815,1,0,0:0:0:0:
109,192,148890,1,0,0:0:0:0:
329,192,148890,1,0,0:0:0:0:
36,192,148965,1,0,0:0:0:0:
402,192,148965,1,0,0:0:0:0:
475,192,148965,1,0,0:0:0:0:
109,192,149040,1,0,0:0:0:0:
329,192,149040,1,0,0:0:0:0:
475,192,149115,1,0,0:0:0:0:
36,192,149115,1,0,0:0:0:0:
256,192,149115,1,0,0:0:0:0:
109,192,149190,1,0,0:0:0:0:
402,192,149190,1,0,0:0:0:0:
329,192,149265,1,0,0:0:0:0:
475,192,149265,1,0,0:0:0:0:
182,192,149265,1,0,0:0:0:0:
402,192,149340,1,0,0:0:0:0:
36,192,149340,1,0,0:0:0:0:
109,192,149415,1,0,0:0:0:0:
329,192,149415,1,0,0:0:0:0:
475,192,149415,1,0,0:0:0:0:
402,192,149490,1,0,0:0:0:0:
256,192,149490,1,0,0:0:0:0:
329,192,149565,1,0,0:0:0:0:
36,192,149565,1,0,0:0:0:0:
475,192,149565,1,0,0:0:0:0:
256,192,149640,1,0,0:0:0:0:
109,192,149640,1,0,0:0:0:0:
475,192,149715,1,0,0:0:0:0:
182,192,149715,1,0,0:0:0:0:
36,192,149715,1,0,0:0:0:0:
402,192,149790,1,0,0:0:0:0:
256,192,149790,1,0,0:0:0:0:
329,192,149865,1,0,0:0:0:0:
182,192,149865,1,0,0:0:0:0:
475,192,149865,1,0,0:0:0:0:
402,192,149940,1,0,0:0:0:0:
109,192,149940,1,0,0:0:0:0:
475,192,150015,1,0,0:0:0:0:
36,192,150015,1,0,0:0:0:0:
256,192,150015,1,0,0:0:0:0:
109,192,150090,1,0,0:0:0:0:
402,192,150090,1,0,0:0:0:0:
182,192,150165,1,0,0:0:0:0:
475,192,150165,1,0,0:0:0:0:
256,192,150165,1,0,0:0:0:0:
36,192,150240,1,0,0:0:0:0:
402,192,150240,1,0,0:0:0:0:
329,192,150315,1,0,0:0:0:0:
182,192,150315,1,0,0:0:0:0:
109,192,150315,1,0,0:0:0:0:
36,192,150390,1,0,0:0:0:0:
475,192,150390,1,0,0:0:0:0:
402,192,150465,1,0,0:0:0:0:
109,192,150465,1,0,0:0:0:0:
329,192,150465,1,0,0:0:0:0:
256,192,150540,1,0,0:0:0:0:
475,192,150540,1,0,0:0:0:0:
402,192,150615,1,0,0:0:0:0:
182,192,150615,1,0,0:0:0:0:
36,192,150615,1,0,0:0:0:0:
109,192,150690,1,0,0:0:0:0:
256,192,150690,1,0,0:0:0:0:
36,192,150765,1,0,0:0:0:0:
475,192,150765,1,0,0:0:0:0:
329,192,150765,1,0,0:0:0:0:
109,192,150840,1,0,0:0:0:0:
402,192,150840,1,0,0:0:0:0:
475,192,150915,1,0,0:0:0:0:
36,192,150915,1,0,0:0:0:0:
182,192,150915,1,0,0:0:0:0:
109,192,150990,1,0,0:0:0:0:
256,192,150990,1,0,0:0:0:0:
182,192,151065,1,0,0:0:0:0:
329,192,151065,1,0,0:0:0:0:
36,192,151065,1,0,0:0:0:0:
109,192,151140,1,0,0:0:0:0:
402,192,151140,1,0,0:0:0:0:
182,192,151215,1,0,0:0:0:0:
475,192,151215,1,0,0:0:0:0:
256,192,151290,1,0,0:0:0:0:
402,192,151290,1,0,0:0:0:0:
329,192,151365,1,0,0:0:0:0:
36,192,151365,1,0,0:0:0:0:
402,192,151440,1,0,0:0:0:0:
109,192,151440,1,0,0:0:0:0:
475,192,151515,1,0,0:0:0:0:
182,192,151515,1,0,0:0:0:0:
329,192,151515,1,0,0:0:0:0:
36,192,151515,1,0,0:0:0:0:
109,192,151590,1,0,0:0:0:0:
256,192,151590,1,0,0:0:0:0:
182,192,151665,1,0,0:0:0:0:
329,192,151665,1,0,0:0:0:0:
256,192,151740,1,0,0:0:0:0:
402,192,151740,1,0,0:0:0:0:
329,192,151815,1,0,0:0:0:0:
475,192,151815,1,0,0:0:0:0:
402,192,151890,1,0,0:0:0:0:
182,192,151890,1,0,0:0:0:0:
36,192,151965,1,0,0:0:0:0:
256,192,151965,1,0,0:0:0:0:
109,192,152040,1,0,0:0:0:0:
329,192,152040,1,0,0:0:0:0:
182,192,152115,1,0,0:0:0:0:
402,192,152115,1,0,0:0:0:0:
36,192,152115,1,0,0:0:0:0:
329,192,152190,1,0,0:0:0:0:
475,192,152190,1,0,0:0:0:0:
402,192,152265,1,0,0:0:0:0:
109,192,152265,1,0,0:0:0:0:
256,192,152340,1,0,0:0:0:0:
36,192,152340,1,0,0:0:0:0:
182,192,152415,1,0,0:0:0:0:
402,192,152415,1,0,0:0:0:0:
475,192,152415,1,0,0:0:0:0:
109,192,152490,1,0,0:0:0:0:
329,192,152490,1,0,0:0:0:0:
36,192,152565,1,0,0:0:0:0:
256,192,152565,1,0,0:0:0:0:
402,192,152640,1,0,0:0:0:0:
182,192,152640,1,0,0:0:0:0:
329,192,152715,1,0,0:0:0:0:
109,192,152715,1,0,0:0:0:0:
475,192,152715,1,0,0:0:0:0:
182,192,152790,1,0,0:0:0:0:
36,192,152790,1,0,0:0:0:0:
109,192,152865,1,0,0:0:0:0:
402,192,152865,1,0,0:0:0:0:
182,192,152940,1,0,0:0:0:0:
329,192,152940,1,0,0:0:0:0:
475,192,153015,1,0,0:0:0:0:
36,192,153015,1,0,0:0:0:0:
109,192,153015,1,0,0:0:0:0:
402,192,153090,1,0,0:0:0:0:
182,192,153090,1,0,0:0:0:0:
329,192,153165,1,0,0:0:0:0:
109,192,153165,1,0,0:0:0:0:
256,192,153240,1,0,0:0:0:0:
36,192,153240,1,0,0:0:0:0:
182,192,153315,1,0,0:0:0:0:
402,192,153315,1,0,0:0:0:0:
329,192,153315,1,0,0:0:0:0:
256,192,153390,1,0,0:0:0:0:
475,192,153390,1,0,0:0:0:0:
329,192,153465,1,0,0:0:0:0:
109,192,153465,1,0,0:0:0:0:
402,192,153540,1,0,0:0:0:0:
182,192,153540,1,0,0:0:0:0:
475,192,153615,1,0,0:0:0:0:
36,192,153615,1,0,0:0:0:0:
256,192,153615,1,0,0:0:0:0:
109,192,153690,1,0,0:0:0:0:
329,192,153690,1,0,0:0:0:0:
182,192,153765,1,0,0:0:0:0:
402,192,153765,1,0,0:0:0:0:
256,192,153840,1,0,0:0:0:0:
475,192,153840,1,0,0:0:0:0:
402,192,153915,1,0,0:0:0:0:
36,192,153915,1,0,0:0:0:0:
182,192,153915,1,0,0:0:0:0:
109,192,153990,1,0,0:0:0:0:
329,192,153990,1,0,0:0:0:0:
182,192,154065,1,0,0:0:0:0:
475,192,154065,1,0,0:0:0:0:
256,192,154140,1,0,0:0:0:0:
402,192,154140,1,0,0:0:0:0:
329,192,154215,1,0,0:0:0:0:
182,192,154215,1,0,0:0:0:0:
109,192,154215,1,0,0:0:0:0:
36,192,154290,1,0,0:0:0:0:
256,192,154290,1,0,0:0:0:0:
109,192,154365,1,0,0:0:0:0:
329,192,154365,1,0,0:0:0:0:
182,192,154440,1,0,0:0:0:0:
402,192,154440,1,0,0:0:0:0:
256,192,154515,1,0,0:0:0:0:
475,192,154515,1,0,0:0:0:0:
36,192,154515,1,0,0:0:0:0:
182,192,154590,1,0,0:0:0:0:
402,192,154590,1,0,0:0:0:0:
109,192,154665,1,0,0:0:0:0:
329,192,154665,1,0,0:0:0:0:
36,192,154740,1,0,0:0:0:0:
256,192,154740,1,0,0:0:0:0:
475,192,154815,1,0,0:0:0:0:
182,192,154815,1,0,0:0:0:0:
329,192,154815,1,0,0:0:0:0:
402,192,154890,1,0,0:0:0:0:
109,192,154890,1,0,0:0:0:0:
329,192,154965,1,0,0:0:0:0:
36,192,154965,1,0,0:0:0:0:
256,192,155040,1,0,0:0:0:0:
109,192,155040,1,0,0:0:0:0:
329,192,155115,1,0,0:0:0:0:
182,192,155115,1,0,0:0:0:0:
475,192,155115,1,0,0:0:0:0:
36,192,155115,1,0,0:0:0:0:
402,192,155190,1,0,0:0:0:0:
109,192,155190,1,0,0:0:0:0:
182,192,155265,1,0,0:0:0:0:
329,192,155265,1,0,0:0:0:0:
109,192,155340,1,0,0:0:0:0:
402,192,155340,1,0,0:0:0:0:
329,192,155415,1,0,0:0:0:0:
182,192,155415,1,0,0:0:0:0:
475,192,155415,1,0,0:0:0:0:
36,192,155415,1,0,0:0:0:0:
256,192,155490,1,0,0:0:0:0:
109,192,155490,1,0,0:0:0:0:
402,192,155490,1,0,0:0:0:0:
329,192,155565,1,0,0:0:0:0:
475,192,155565,1,0,0:0:0:0:
182,192,155565,1,0,0:0:0:0:
36,192,155565,1,0,0:0:0:0:
109,192,155640,1,0,0:0:0:0:
256,192,155640,1,0,0:0:0:0:
402,192,155640,1,0,0:0:0:0:
329,192,155715,1,0,0:0:0:0:
182,192,155715,1,0,0:0:0:0:
256,192,155790,1,0,0:0:0:0:
36,192,155865,1,0,0:0:0:0:
475,192,155865,1,0,0:0:0:0:
109,192,155940,1,0,0:0:0:0:
402,192,155940,1,0,0:0:0:0:
182,192,156015,1,0,0:0:0:0:
329,192,156015,1,0,0:0:0:0:
475,192,156015,1,0,0:0:0:0:
36,192,156015,1,0,0:0:0:0:
256,192,156090,1,0,0:0:0:0:
109,192,156090,1,0,0:0:0:0:
329,192,156165,1,0,0:0:0:0:
36,192,156165,1,0,0:0:0:0:
182,192,156165,1,0,0:0:0:0:
402,192,156165,1,0,0:0:0:0:
475,192,156240,1,0,0:0:0:0:
256,192,156240,1,0,0:0:0:0:
402,192,156315,1,0,0:0:0:0:
109,192,156315,1,0,0:0:0:0:
329,192,156315,1,0,0:0:0:0:
182,192,156315,1,0,0:0:0:0:
256,192,156390,1,0,0:0:0:0:
36,192,156390,1,0,0:0:0:0:
329,192,156465,1,0,0:0:0:0:
109,192,156465,1,0,0:0:0:0:
475,192,156465,1,0,0:0:0:0:
182,192,156465,1,0,0:0:0:0:
402,192,156540,1,0,0:0:0:0:
36,192,156540,1,0,0:0:0:0:
475,192,156615,1,0,0:0:0:0:
256,192,156615,1,0,0:0:0:0:
182,192,156615,1,0,0:0:0:0:
329,192,156615,1,0,0:0:0:0:
109,192,156690,1,0,0:0:0:0:
402,192,156690,1,0,0:0:0:0:
182,192,156765,1,0,0:0:0:0:
475,192,156765,1,0,0:0:0:0:
329,192,156765,1,0,0:0:0:0:
36,192,156765,1,0,0:0:0:0:
256,192,156840,1,0,0:0:0:0:
402,192,156840,1,0,0:0:0:0:
329,192,156915,1,0,0:0:0:0:
182,192,156915,1,0,0:0:0:0:
109,192,156915,1,0,0:0:0:0:
475,192,156915,1,0,0:0:0:0:
36,192,156990,1,0,0:0:0:0:
256,192,156990,1,0,0:0:0:0:
109,192,157065,1,0,0:0:0:0:
329,192,157065,1,0,0:0:0:0:
475,192,157065,1,0,0:0:0:0:
182,192,157065,1,0,0:0:0:0:
36,192,157140,1,0,0:0:0:0:
402,192,157140,1,0,0:0:0:0:
256,192,157215,1,0,0:0:0:0:
475,192,157215,1,0,0:0:0:0:
109,192,157215,1,0,0:0:0:0:
329,192,157215,1,0,0:0:0:0:
182,192,157290,1,0,0:0:0:0:
36,192,157290,1,0,0:0:0:0:
109,192,157365,1,0,0:0:0:0:
402,192,157365,1,0,0:0:0:0:
329,192,157365,1,0,0:0:0:0:
475,192,157365,1,0,0:0:0:0:
256,192,157440,1,0,0:0:0:0:
182,192,157440,1,0,0:0:0:0:
329,192,157515,1,0,0:0:0:0:
475,192,157515,1,0,0:0:0:0:
109,192,157515,1,0,0:0:0:0:
36,192,157515,1,0,0:0:0:0:
256,192,157590,1,0,0:0:0:0:
402,192,157590,1,0,0:0:0:0:
36,192,157665,1,0,0:0:0:0:
329,192,157665,1,0,0:0:0:0:
182,192,157665,1,0,0:0:0:0:
475,192,157665,1,0,0:0:0:0:
109,192,157740,1,0,0:0:0:0:
402,192,157740,1,0,0:0:0:0:
182,192,157815,1,0,0:0:0:0:
36,192,157815,1,0,0:0:0:0:
475,192,157815,1,0,0:0:0:0:
256,192,157815,1,0,0:0:0:0:
329,192,157890,1,0,0:0:0:0:
109,192,157890,1,0,0:0:0:0:
256,192,157965,1,0,0:0:0:0:
36,192,157965,1,0,0:0:0:0:
475,192,157965,1,0,0:0:0:0:
402,192,157965,1,0,0:0:0:0:
182,192,158040,1,0,0:0:0:0:
329,192,158040,1,0,0:0:0:0:
475,192,158115,1,0,0:0:0:0:
256,192,158115,1,0,0:0:0:0:
109,192,158115,1,0,0:0:0:0:
36,192,158115,1,0,0:0:0:0:
329,192,158190,1,0,0:0:0:0:
182,192,158190,1,0,0:0:0:0:
402,192,158265,1,0,0:0:0:0:
109,192,158265,1,0,0:0:0:0:
256,192,158265,1,0,0:0:0:0:
475,192,158265,1,0,0:0:0:0:
182,192,158340,1,0,0:0:0:0:
36,192,158340,1,0,0:0:0:0:
329,192,158415,1,0,0:0:0:0:
109,192,158415,1,0,0:0:0:0:
475,192,158415,1,0,0:0:0:0:
256,192,158415,1,0,0:0:0:0:
402,192,158490,1,0,0:0:0:0:
182,192,158490,1,0,0:0:0:0:
475,192,158565,1,0,0:0:0:0:
36,192,158565,1,0,0:0:0:0:
109,192,158565,1,0,0:0:0:0:
329,192,158565,1,0,0:0:0:0:
256,192,158640,1,0,0:0:0:0:
402,192,158640,1,0,0:0:0:0:
109,192,158715,1,0,0:0:0:0:
475,192,158715,1,0,0:0:0:0:
329,192,158715,1,0,0:0:0:0:
182,192,158715,1,0,0:0:0:0:
256,192,158790,1,0,0:0:0:0:
402,192,158790,1,0,0:0:0:0:
182,192,158865,1,0,0:0:0:0:
36,192,158865,1,0,0:0:0:0:
329,192,158865,1,0,0:0:0:0:
475,192,158865,1,0,0:0:0:0:
256,192,158940,1,0,0:0:0:0:
109,192,158940,1,0,0:0:0:0:
402,192,159015,1,0,0:0:0:0:
182,192,159015,1,0,0:0:0:0:
329,192,159015,1,0,0:0:0:0:
36,192,159015,1,0,0:0:0:0:
475,192,159090,1,0,0:0:0:0:
109,192,159090,1,0,0:0:0:0:
256,192,159165,1,0,0:0:0:0:
36,192,159165,1,0,0:0:0:0:
182,192,159165,1,0,0:0:0:0:
402,192,159165,1,0,0:0:0:0:
109,192,159240,1,0,0:0:0:0:
329,192,159240,1,0,0:0:0:0:
182,192,159315,1,0,0:0:0:0:
402,192,159315,1,0,0:0:0:0:
475,192,159315,1,0,0:0:0:0:
36,192,159315,1,0,0:0:0:0:
109,192,159390,1,0,0:0:0:0:
256,192,159390,1,0,0:0:0:0:
329,192,159465,1,0,0:0:0:0:
182,192,159465,1,0,0:0:0:0:
402,192,159465,1,0,0:0:0:0:
36,192,159465,1,0,0:0:0:0:
256,192,159540,1,0,0:0:0:0:
109,192,159540,1,0,0:0:0:0:
182,192,159615,1,0,0:0:0:0:
329,192,159615,1,0,0:0:0:0:
36,192,159615,1,0,0:0:0:0:
475,192,159615,1,0,0:0:0:0:
109,192,159690,1,0,0:0:0:0:
402,192,159690,1,0,0:0:0:0:
182,192,159765,1,0,0:0:0:0:
475,192,159765,1,0,0:0:0:0:
256,192,159765,1,0,0:0:0:0:
36,192,159765,1,0,0:0:0:0:
402,192,159840,1,0,0:0:0:0:
109,192,159840,1,0,0:0:0:0:
329,192,159915,1,0,0:0:0:0:
36,192,159915,1,0,0:0:0:0:
182,192,159915,1,0,0:0:0:0:
475,192,159915,1,0,0:0:0:0:
402,192,159990,1,0,0:0:0:0:
109,192,159990,1,0,0:0:0:0:
475,192,160065,1,0,0:0:0:0:
329,192,160065,1,0,0:0:0:0:
182,192,160065,1,0,0:0:0:0:
36,192,160065,1,0,0:0:0:0:
109,192,160140,1,0,0:0:0:0:
256,192,160140,1,0,0:0:0:0:
36,192,160215,1,0,0:0:0:0:
475,192,160215,1,0,0:0:0:0:
182,192,160215,1,0,0:0:0:0:
402,192,160215,1,0,0:0:0:0:
329,192,160290,1,0,0:0:0:0:
109,192,160290,1,0,0:0:0:0:
402,192,160365,1,0,0:0:0:0:
475,192,160365,1,0,0:0:0:0:
182,192,160365,1,0,0:0:0:0:
36,192,160365,1,0,0:0:0:0:
256,192,160440,1,0,0:0:0:0:
109,192,160440,1,0,0:0:0:0:
182,192,160515,1,0,0:0:0:0:
36,192,160515,1,0,0:0:0:0:
475,192,160515,1,0,0:0:0:0:
329,192,160515,1,0,0:0:0:0:
256,192,160590,1,0,0:0:0:0:
109,192,160590,1,0,0:0:0:0:
402,192,160665,1,0,0:0:0:0:
329,192,160665,1,0,0:0:0:0:
182,192,160665,1,0,0:0:0:0:
36,192,160665,1,0,0:0:0:0:
475,192,160740,1,0,0:0:0:0:
256,192,160740,1,0,0:0:0:0:
329,192,160815,1,0,0:0:0:0:
402,192,160815,1,0,0:0:0:0:
109,192,160815,1,0,0:0:0:0:
36,192,160815,1,0,0:0:0:0:
182,192,160890,1,0,0:0:0:0:
475,192,160890,1,0,0:0:0:0:
109,192,160965,1,0,0:0:0:0:
256,192,160965,1,0,0:0:0:0:
36,192,161040,1,0,0:0:0:0:
182,192,161040,1,0,0:0:0:0:
329,192,161115,1,0,0:0:0:0:
109,192,161115,1,0,0:0:0:0:
402,192,161115,1,0,0:0:0:0:
256,192,161115,1,0,0:0:0:0:
182,192,161190,1,0,0:0:0:0:
36,192,161190,1,0,0:0:0:0:
109,192,161265,1,0,0:0:0:0:
256,192,161265,1,0,0:0:0:0:
36,192,161340,1,0,0:0:0:0:
329,192,161340,1,0,0:0:0:0:
402,192,161415,1,0,0:0:0:0:
109,192,161415,1,0,0:0:0:0:
475,192,161415,1,0,0:0:0:0:
329,192,161490,1,0,0:0:0:0:
182,192,161490,1,0,0:0:0:0:
256,192,161565,1,0,0:0:0:0:
109,192,161565,1,0,0:0:0:0:
182,192,161640,1,0,0:0:0:0:
329,192,161640,1,0,0:0:0:0:
109,192,161715,1,0,0:0:0:0:
402,192,161715,1,0,0:0:0:0:
36,192,161715,1,0,0:0:0:0:
329,192,161790,1,0,0:0:0:0:
182,192,161790,1,0,0:0:0:0:
402,192,161865,1,0,0:0:0:0:
256,192,161865,1,0,0:0:0:0:
475,192,161940,1,0,0:0:0:0:
182,192,161940,1,0,0:0:0:0:
109,192,162015,1,0,0:0:0:0:
402,192,162015,1,0,0:0:0:0:
36,192,162015,1,0,0:0:0:0:
256,192,162090,1,0,0:0:0:0:
475,192,162090,1,0,0:0:0:0:
109,192,162165,1,0,0:0:0:0:
182,192,162165,1,0,0:0:0:0:
475,192,162240,1,0,0:0:0:0:
36,192,162240,1,0,0:0:0:0:
256,192,162315,1,0,0:0:0:0:
402,192,162315,1,0,0:0:0:0:
182,192,162315,1,0,0:0:0:0:
36,192,162390,1,0,0:0:0:0:
329,192,162390,1,0,0:0:0:0:
402,192,162465,1,0,0:0:0:0:
109,192,162465,1,0,0:0:0:0:
329,192,162540,1,0,0:0:0:0:
475,192,162540,1,0,0:0:0:0:
36,192,162615,1,0,0:0:0:0:
182,192,162615,1,0,0:0:0:0:
256,192,162615,1,0,0:0:0:0:
109,192,162690,1,0,0:0:0:0:
329,192,162690,1,0,0:0:0:0:
475,192,162765,1,0,0:0:0:0:
36,192,162765,1,0,0:0:0:0:
109,192,162840,1,0,0:0:0:0:
402,192,162840,1,0,0:0:0:0:
182,192,162915,1,0,0:0:0:0:
329,192,162915,1,0,0:0:0:0:
475,192,162915,1,0,0:0:0:0:
36,192,162915,1,0,0:0:0:0:
109,192,162990,1,0,0:0:0:0:
256,192,162990,1,0,0:0:0:0:
36,192,163065,1,0,0:0:0:0:
475,192,163065,1,0,0:0:0:0:
402,192,163140,1,0,0:0:0:0:
109,192,163140,1,0,0:0:0:0:
329,192,163215,1,0,0:0:0:0:
475,192,163215,1,0,0:0:0:0:
182,192,163215,1,0,0:0:0:0:
36,192,163215,1,0,0:0:0:0:
109,192,163290,1,0,0:0:0:0:
256,192,163290,1,0,0:0:0:0:
402,192,163290,1,0,0:0:0:0:
475,192,163365,1,0,0:0:0:0:
329,192,163365,1,0,0:0:0:0:
182,192,163365,1,0,0:0:0:0:
36,192,163365,1,0,0:0:0:0:
109,192,163440,1,0,0:0:0:0:
256,192,163440,1,0,0:0:0:0:
402,192,163440,1,0,0:0:0:0:
329,192,163515,1,0,0:0:0:0:
182,192,163515,1,0,0:0:0:0:
256,192,163590,1,0,0:0:0:0:
36,192,163665,1,0,0:0:0:0:
475,192,163665,1,0,0:0:0:0:
109,192,163740,1,0,0:0:0:0:
402,192,163740,1,0,0:0:0:0:
182,192,163815,1,0,0:0:0:0:
256,192,163815,1,0,0:0:0:0:
329,192,163815,1,0,0:0:0:0:
402,192,163890,1,0,0:0:0:0:
475,192,163890,1,0,0:0:0:0:
109,192,163890,1,0,0:0:0:0:
36,192,163890,1,0,0:0:0:0:
329,192,163965,1,0,0:0:0:0:
256,192,163965,1,0,0:0:0:0:
182,192,163965,1,0,0:0:0:0:
36,192,164040,1,0,0:0:0:0:
109,192,164040,1,0,0:0:0:0:
402,192,164040,1,0,0:0:0:0:
475,192,164040,1,0,0:0:0:0:
329,192,164115,1,0,0:0:0:0:
182,192,164115,1,0,0:0:0:0:
256,192,164190,1,0,0:0:0:0:
109,192,164265,1,0,0:0:0:0:
402,192,164265,1,0,0:0:0:0:
182,192,164340,1,0,0:0:0:0:
329,192,164340,1,0,0:0:0:0:
256,192,164415,1,0,0:0:0:0:
475,192,164415,1,0,0:0:0:0:
36,192,164415,1,0,0:0:0:0:
109,192,164490,1,0,0:0:0:0:
182,192,164490,1,0,0:0:0:0:
329,192,164490,1,0,0:0:0:0:
402,192,164490,1,0,0:0:0:0:
256,192,164565,1,0,0:0:0:0:
475,192,164565,1,0,0:0:0:0:
36,192,164565,1,0,0:0:0:0:
402,192,164640,1,0,0:0:0:0:
329,192,164640,1,0,0:0:0:0:
109,192,164640,1,0,0:0:0:0:
182,192,164640,1,0,0:0:0:0:
256,192,164715,1,0,0:0:0:0:
475,192,164715,1,0,0:0:0:0:
36,192,164715,1,0,0:0:0:0:
402,192,164790,1,0,0:0:0:0:
109,192,164790,1,0,0:0:0:0:
36,192,164865,1,0,0:0:0:0:
475,192,164865,1,0,0:0:0:0:
256,192,164865,1,0,0:0:0:0:
182,192,164940,1,0,0:0:0:0:
329,192,164940,1,0,0:0:0:0:
402,192,165015,128,0,165165:0:0:0:0:
256,192,165015,128,0,165165:0:0:0:0:
36,192,165015,128,0,165165:0:0:0:0:
329,192,165165,128,0,165315:0:0:0:0:
475,192,165165,128,0,165315:0:0:0:0:
109,192,165165,128,0,165315:0:0:0:0:
182,192,165315,128,0,165465:0:0:0:0:
36,192,165315,128,0,165465:0:0:0:0:
402,192,165315,128,0,165465:0:0:0:0:
475,192,165465,128,0,165615:0:0:0:0:
256,192,165465,128,0,165615:0:0:0:0:
109,192,165465,128,0,165615:0:0:0:0:
329,192,165615,1,0,0:0:0:0:
182,192,165615,1,0,0:0:0:0:
402,192,165615,1,0,0:0:0:0:
36,192,165615,1,0,0:0:0:0:
256,192,165690,1,0,0:0:0:0:
109,192,165690,1,0,0:0:0:0:
475,192,165765,1,0,0:0:0:0:
36,192,165765,1,0,0:0:0:0:
329,192,165765,1,0,0:0:0:0:
402,192,165765,1,0,0:0:0:0:
256,192,165840,1,0,0:0:0:0:
109,192,165840,1,0,0:0:0:0:
329,192,165915,1,0,0:0:0:0:
36,192,165915,1,0,0:0:0:0:
475,192,165915,1,0,0:0:0:0:
182,192,165915,1,0,0:0:0:0:
402,192,165990,1,0,0:0:0:0:
109,192,165990,1,0,0:0:0:0:
182,192,166065,1,0,0:0:0:0:
329,192,166065,1,0,0:0:0:0:
36,192,166065,1,0,0:0:0:0:
475,192,166065,1,0,0:0:0:0:
256,192,166140,1,0,0:0:0:0:
402,192,166140,1,0,0:0:0:0:
329,192,166215,1,0,0:0:0:0:
475,192,166215,1,0,0:0:0:0:
182,192,166215,1,0,0:0:0:0:
36,192,166215,1,0,0:0:0:0:
109,192,166290,1,0,0:0:0:0:
256,192,166290,1,0,0:0:0:0:
182,192,166365,1,0,0:0:0:0:
329,192,166365,1,0,0:0:0:0:
36,192,166365,1,0,0:0:0:0:
402,192,166365,1,0,0:0:0:0:
256,192,166440,1,0,0:0:0:0:
475,192,166440,1,0,0:0:0:0:
36,192,166515,1,0,0:0:0:0:
402,192,166515,1,0,0:0:0:0:
182,192,166515,1,0,0:0:0:0:
109,192,166515,1,0,0:0:0:0:
256,192,166590,1,0,0:0:0:0:
329,192,166590,1,0,0:0:0:0:
182,192,166665,1,0,0:0:0:0:
402,192,166665,1,0,0:0:0:0:
109,192,166665,1,0,0:0:0:0:
36,192,166665,1,0,0:0:0:0:
256,192,166740,1,0,0:0:0:0:
475,192,166740,1,0,0:0:0:0:
329,192,166815,1,0,0:0:0:0:
109,192,166815,1,0,0:0:0:0:
182,192,166815,1,0,0:0:0:0:
402,192,166815,1,0,0:0:0:0:
256,192,166890,1,0,0:0:0:0:
36,192,166890,1,0,0:0:0:0:
475,192,166965,1,0,0:0:0:0:
329,192,166965,1,0,0:0:0:0:
109,192,166965,1,0,0:0:0:0:
182,192,166965,1,0,0:0:0:0:
256,192,167040,1,0,0:0:0:0:
402,192,167040,1,0,0:0:0:0:
109,192,167115,1,0,0:0:0:0:
36,192,167115,1,0,0:0:0:0:
329,192,167115,1,0,0:0:0:0:
475,192,167115,1,0,0:0:0:0:
402,192,167190,1,0,0:0:0:0:
182,192,167190,1,0,0:0:0:0:
256,192,167265,1,0,0:0:0:0:
329,192,167265,1,0,0:0:0:0:
109,192,167265,1,0,0:0:0:0:
475,192,167265,1,0,0:0:0:0:
182,192,167340,1,0,0:0:0:0:
402,192,167340,1,0,0:0:0:0:
109,192,167415,1,0,0:0:0:0:
475,192,167415,1,0,0:0:0:0:
256,192,167415,1,0,0:0:0:0:
36,192,167415,1,0,0:0:0:0:
329,192,167490,1,0,0:0:0:0:
402,192,167490,1,0,0:0:0:0:
256,192,167565,1,0,0:0:0:0:
475,192,167565,1,0,0:0:0:0:
182,192,167565,1,0,0:0:0:0:
36,192,167565,1,0,0:0:0:0:
329,192,167640,1,0,0:0:0:0:
109,192,167640,1,0,0:0:0:0:
402,192,167715,1,0,0:0:0:0:
36,192,167715,1,0,0:0:0:0:
256,192,167715,1,0,0:0:0:0:
475,192,167715,1,0,0:0:0:0:
329,192,167790,1,0,0:0:0:0:
182,192,167790,1,0,0:0:0:0:
256,192,167865,1,0,0:0:0:0:
36,192,167865,1,0,0:0:0:0:
402,192,167865,1,0,0:0:0:0:
109,192,167865,1,0,0:0:0:0:
475,192,167940,1,0,0:0:0:0:
329,192,167940,1,0,0:0:0:0:
402,192,168015,1,0,0:0:0:0:
182,192,168015,1,0,0:0:0:0:
256,192,168015,1,0,0:0:0:0:
36,192,168015,1,0,0:0:0:0:
329,192,168090,1,0,0:0:0:0:
109,192,168090,1,0,0:0:0:0:
256,192,168165,1,0,0:0:0:0:
36,192,168165,1,0,0:0:0:0:
402,192,168165,1,0,0:0:0:0:
475,192,168165,1,0,0:0:0:0:
182,192,168240,1,0,0:0:0:0:
329,192,168240,1,0,0:0:0:0:
109,192,168315,1,0,0:0:0:0:
402,192,168315,1,0,0:0:0:0:
256,192,168315,1,0,0:0:0:0:
36,192,168315,1,0,0:0:0:0:
182,192,168390,1,0,0:0:0:0:
475,192,168390,1,0,0:0:0:0:
329,192,168465,1,0,0:0:0:0:
256,192,168465,1,0,0:0:0:0:
109,192,168465,1,0,0:0:0:0:
36,192,168465,1,0,0:0:0:0:
402,192,168540,1,0,0:0:0:0:
182,192,168540,1,0,0:0:0:0:
475,192,168615,1,0,0:0:0:0:
109,192,168615,1,0,0:0:0:0:
329,192,168615,1,0,0:0:0:0:
256,192,168615,1,0,0:0:0:0:
402,192,168690,1,0,0:0:0:0:
36,192,168690,1,0,0:0:0:0:
329,192,168765,1,0,0:0:0:0:
109,192,168765,1,0,0:0:0:0:
475,192,168765,1,0,0:0:0:0:
182,192,168765,1,0,0:0:0:0:
402,192,168840,1,0,0:0:0:0:
256,192,168840,1,0,0:0:0:0:
182,192,168915,1,0,0:0:0:0:
329,192,168915,1,0,0:0:0:0:
36,192,168915,1,0,0:0:0:0:
475,192,168915,1,0,0:0:0:0:
109,192,168990,1,0,0:0:0:0:
402,192,168990,1,0,0:0:0:0:
36,192,169065,1,0,0:0:0:0:
475,192,169065,1,0,0:0:0:0:
182,192,169065,1,0,0:0:0:0:
329,192,169065,1,0,0:0:0:0:
256,192,169140,1,0,0:0:0:0:
402,192,169140,1,0,0:0:0:0:
182,192,169215,1,0,0:0:0:0:
329,192,169215,1,0,0:0:0:0:
36,192,169215,1,0,0:0:0:0:
475,192,169215,1,0,0:0:0:0:
109,192,169290,1,0,0:0:0:0:
256,192,169290,1,0,0:0:0:0:
329,192,169365,1,0,0:0:0:0:
182,192,169365,1,0,0:0:0:0:
402,192,169365,1,0,0:0:0:0:
36,192,169365,1,0,0:0:0:0:
475,192,169440,1,0,0:0:0:0:
109,192,169440,1,0,0:0:0:0:
402,192,169515,1,0,0:0:0:0:
36,192,169515,1,0,0:0:0:0:
182,192,169515,1,0,0:0:0:0:
329,192,169515,1,0,0:0:0:0:
256,192,169590,1,0,0:0:0:0:
109,192,169590,1,0,0:0:0:0:
329,192,169665,1,0,0:0:0:0:
182,192,169665,1,0,0:0:0:0:
475,192,169665,1,0,0:0:0:0:
36,192,169665,1,0,0:0:0:0:
402,192,169740,1,0,0:0:0:0:
256,192,169740,1,0,0:0:0:0:
36,192,169815,1,0,0:0:0:0:
329,192,169815,1,0,0:0:0:0:
182,192,169815,1,0,0:0:0:0:
475,192,169815,1,0,0:0:0:0:
109,192,169890,1,0,0:0:0:0:
402,192,169890,1,0,0:0:0:0:
182,192,169965,1,0,0:0:0:0:
475,192,169965,1,0,0:0:0:0:
329,192,169965,1,0,0:0:0:0:
36,192,169965,1,0,0:0:0:0:
256,192,170040,1,0,0:0:0:0:
109,192,170040,1,0,0:0:0:0:
329,192,170115,1,0,0:0:0:0:
36,192,170115,1,0,0:0:0:0:
182,192,170115,1,0,0:0:0:0:
475,192,170115,1,0,0:0:0:0:
402,192,170190,1,0,0:0:0:0:
256,192,170190,1,0,0:0:0:0:
475,192,170265,1,0,0:0:0:0:
109,192,170265,1,0,0:0:0:0:
329,192,170265,1,0,0:0:0:0:
182,192,170265,1,0,0:0:0:0:
256,192,170340,1,0,0:0:0:0:
36,192,170340,1,0,0:0:0:0:
329,192,170415,1,0,0:0:0:0:
475,192,170415,1,0,0:0:0:0:
109,192,170415,1,0,0:0:0:0:
256,192,170490,1,0,0:0:0:0:
402,192,170490,1,0,0:0:0:0:
475,192,170565,1,0,0:0:0:0:
182,192,170565,1,0,0:0:0:0:
329,192,170640,1,0,0:0:0:0:
402,192,170640,1,0,0:0:0:0:
256,192,170715,1,0,0:0:0:0:
109,192,170715,1,0,0:0:0:0:
475,192,170715,1,0,0:0:0:0:
36,192,170715,1,0,0:0:0:0:
182,192,170790,1,0,0:0:0:0:
402,192,170790,1,0,0:0:0:0:
109,192,170865,1,0,0:0:0:0:
329,192,170865,1,0,0:0:0:0:
402,192,170940,1,0,0:0:0:0:
182,192,170940,1,0,0:0:0:0:
109,192,171015,1,0,0:0:0:0:
256,192,171015,1,0,0:0:0:0:
475,192,171015,1,0,0:0:0:0:
402,192,171090,1,0,0:0:0:0:
36,192,171090,1,0,0:0:0:0:
182,192,171165,1,0,0:0:0:0:
329,192,171165,1,0,0:0:0:0:
475,192,171240,1,0,0:0:0:0:
402,192,171240,1,0,0:0:0:0:
256,192,171315,1,0,0:0:0:0:
36,192,171315,1,0,0:0:0:0:
182,192,171315,1,0,0:0:0:0:
329,192,171315,1,0,0:0:0:0:
402,192,171390,1,0,0:0:0:0:
109,192,171390,1,0,0:0:0:0:
182,192,171465,1,0,0:0:0:0:
475,192,171465,1,0,0:0:0:0:
329,192,171540,1,0,0:0:0:0:
402,192,171540,1,0,0:0:0:0:
36,192,171615,1,0,0:0:0:0:
256,192,171615,1,0,0:0:0:0:
182,192,171615,1,0,0:0:0:0:
109,192,171690,1,0,0:0:0:0:
475,192,171690,1,0,0:0:0:0:
329,192,171765,1,0,0:0:0:0:
36,192,171765,1,0,0:0:0:0:
256,192,171840,1,0,0:0:0:0:
475,192,171840,1,0,0:0:0:0:
182,192,171915,1,0,0:0:0:0:
402,192,171915,1,0,0:0:0:0:
36,192,171915,1,0,0:0:0:0:
329,192,171915,1,0,0:0:0:0:
256,192,171990,1,0,0:0:0:0:
475,192,171990,1,0,0:0:0:0:
36,192,172065,1,0,0:0:0:0:
402,192,172065,1,0,0:0:0:0:
182,192,172065,1,0,0:0:0:0:
475,192,172140,1,0,0:0:0:0:
256,192,172140,1,0,0:0:0:0:
329,192,172215,1,0,0:0:0:0:
182,192,172215,1,0,0:0:0:0:
36,192,172215,1,0,0:0:0:0:
256,192,172290,1,0,0:0:0:0:
109,192,172290,1,0,0:0:0:0:
182,192,172365,1,0,0:0:0:0:
475,192,172365,1,0,0:0:0:0:
109,192,172440,1,0,0:0:0:0:
329,192,172440,1,0,0:0:0:0:
36,192,172515,1,0,0:0:0:0:
256,192,172515,1,0,0:0:0:0:
402,192,172515,1,0,0:0:0:0:
182,192,172515,1,0,0:0:0:0:
475,192,172590,1,0,0:0:0:0:
329,192,172590,1,0,0:0:0:0:
109,192,172665,1,0,0:0:0:0:
256,192,172665,1,0,0:0:0:0:
329,192,172740,1,0,0:0:0:0:
36,192,172740,1,0,0:0:0:0:
256,192,172815,1,0,0:0:0:0:
109,192,172815,1,0,0:0:0:0:
475,192,172815,1,0,0:0:0:0:
329,192,172890,1,0,0:0:0:0:
182,192,172890,1,0,0:0:0:0:
402,192,172965,1,0,0:0:0:0:
36,192,172965,1,0,0:0:0:0:
475,192,173040,1,0,0:0:0:0:
329,192,173040,1,0,0:0:0:0:
109,192,173115,1,0,0:0:0:0:
402,192,173115,1,0,0:0:0:0:
256,192,173115,1,0,0:0:0:0:
36,192,173115,1,0,0:0:0:0:
182,192,173190,1,0,0:0:0:0:
475,192,173190,1,0,0:0:0:0:
109,192,173265,1,0,0:0:0:0:
402,192,173265,1,0,0:0:0:0:
329,192,173340,1,0,0:0:0:0:
182,192,173340,1,0,0:0:0:0:
402,192,173415,1,0,0:0:0:0:
256,192,173415,1,0,0:0:0:0:
109,192,173415,1,0,0:0:0:0:
475,192,173490,1,0,0:0:0:0:
182,192,173490,1,0,0:0:0:0:
36,192,173565,1,0,0:0:0:0:
329,192,173565,1,0,0:0:0:0:
109,192,173640,1,0,0:0:0:0:
475,192,173640,1,0,0:0:0:0:
329,192,173715,1,0,0:0:0:0:
402,192,173715,1,0,0:0:0:0:
182,192,173715,1,0,0:0:0:0:
36,192,173715,1,0,0:0:0:0:
256,192,173790,1,0,0:0:0:0:
109,192,173790,1,0,0:0:0:0:
182,192,173865,1,0,0:0:0:0:
475,192,173865,1,0,0:0:0:0:
402,192,173940,1,0,0:0:0:0:
256,192,173940,1,0,0:0:0:0:
182,192,174015,1,0,0:0:0:0:
475,192,174015,1,0,0:0:0:0:
109,192,174015,1,0,0:0:0:0:
256,192,174090,1,0,0:0:0:0:
36,192,174090,1,0,0:0:0:0:
182,192,174165,1,0,0:0:0:0:
402,192,174165,1,0,0:0:0:0:
36,192,174240,1,0,0:0:0:0:
475,192,174240,1,0,0:0:0:0:
109,192,174315,1,0,0:0:0:0:
256,192,174315,1,0,0:0:0:0:
329,192,174315,1,0,0:0:0:0:
402,192,174315,1,0,0:0:0:0:
475,192,174390,1,0,0:0:0:0:
182,192,174390,1,0,0:0:0:0:
402,192,174465,1,0,0:0:0:0:
109,192,174465,1,0,0:0:0:0:
329,192,174540,1,0,0:0:0:0:
182,192,174540,1,0,0:0:0:0:
256,192,174615,1,0,0:0:0:0:
475,192,174615,1,0,0:0:0:0:
109,192,174615,1,0,0:0:0:0:
36,192,174615,1,0,0:0:0:0:
182,192,174690,1,0,0:0:0:0:
402,192,174690,1,0,0:0:0:0:
109,192,174765,1,0,0:0:0:0:
256,192,174765,1,0,0:0:0:0:
475,192,174765,1,0,0:0:0:0:
36,192,174840,1,0,0:0:0:0:
402,192,174840,1,0,0:0:0:0:
475,192,174915,1,0,0:0:0:0:
182,192,174915,1,0,0:0:0:0:
329,192,174915,1,0,0:0:0:0:
256,192,174915,1,0,0:0:0:0:
402,192,174990,1,0,0:0:0:0:
109,192,174990,1,0,0:0:0:0:
36,192,175065,1,0,0:0:0:0:
475,192,175065,1,0,0:0:0:0:
256,192,175140,1,0,0:0:0:0:
109,192,175140,1,0,0:0:0:0:
329,192,175215,1,0,0:0:0:0:
182,192,175215,1,0,0:0:0:0:
475,192,175215,1,0,0:0:0:0:
36,192,175215,1,0,0:0:0:0:
402,192,175290,1,0,0:0:0:0:
109,192,175290,1,0,0:0:0:0:
475,192,175365,1,0,0:0:0:0:
36,192,175365,1,0,0:0:0:0:
256,192,175365,1,0,0:0:0:0:
329,192,175365,1,0,0:0:0:0:
182,192,175440,1,0,0:0:0:0:
402,192,175440,1,0,0:0:0:0:
109,192,175515,1,0,0:0:0:0:
475,192,175515,1,0,0:0:0:0:
329,192,175515,1,0,0:0:0:0:
36,192,175515,1,0,0:0:0:0:
402,192,175590,1,0,0:0:0:0:
182,192,175590,1,0,0:0:0:0:
475,192,175665,1,0,0:0:0:0:
36,192,175665,1,0,0:0:0:0:
256,192,175665,1,0,0:0:0:0:
109,192,175665,1,0,0:0:0:0:
182,192,175740,1,0,0:0:0:0:
329,192,175740,1,0,0:0:0:0:
475,192,175815,1,0,0:0:0:0:
402,192,175815,1,0,0:0:0:0:
36,192,175815,1,0,0:0:0:0:
256,192,175815,1,0,0:0:0:0:
182,192,175890,1,0,0:0:0:0:
329,192,175890,1,0,0:0:0:0:
36,192,175965,1,0,0:0:0:0:
475,192,175965,1,0,0:0:0:0:
109,192,175965,1,0,0:0:0:0:
402,192,175965,1,0,0:0:0:0:
256,192,176040,1,0,0:0:0:0:
182,192,176040,1,0,0:0:0:0:
475,192,176115,1,0,0:0:0:0:
329,192,176115,1,0,0:0:0:0:
402,192,176115,1,0,0:0:0:0:
36,192,176115,1,0,0:0:0:0:
109,192,176190,1,0,0:0:0:0:
256,192,176190,1,0,0:0:0:0:
475,192,176265,1,0,0:0:0:0:
182,192,176265,1,0,0:0:0:0:
329,192,176265,1,0,0:0:0:0:
36,192,176265,1,0,0:0:0:0:
402,192,176340,1,0,0:0:0:0:
109,192,176340,1,0,0:0:0:0:
475,192,176415,1,0,0:0:0:0:
36,192,176415,1,0,0:0:0:0:
329,192,176415,1,0,0:0:0:0:
256,192,176415,1,0,0:0:0:0:
182,192,176490,1,0,0:0:0:0:
402,192,176490,1,0,0:0:0:0:
329,192,176565,1,0,0:0:0:0:
475,192,176565,1,0,0:0:0:0:
109,192,176565,1,0,0:0:0:0:
36,192,176565,1,0,0:0:0:0:
256,192,176640,1,0,0:0:0:0:
402,192,176640,1,0,0:0:0:0:
182,192,176715,1,0,0:0:0:0:
329,192,176715,1,0,0:0:0:0:
36,192,176715,1,0,0:0:0:0:
475,192,176715,1,0,0:0:0:0:
109,192,176790,1,0,0:0:0:0:
256,192,176790,1,0,0:0:0:0:
36,192,176865,1,0,0:0:0:0:
182,192,176865,1,0,0:0:0:0:
402,192,176865,1,0,0:0:0:0:
329,192,176865,1,0,0:0:0:0:
475,192,176940,1,0,0:0:0:0:
109,192,176940,1,0,0:0:0:0:
402,192,177015,1,0,0:0:0:0:
36,192,177015,1,0,0:0:0:0:
329,192,177015,1,0,0:0:0:0:
182,192,177015,1,0,0:0:0:0:
256,192,177090,1,0,0:0:0:0:
109,192,177090,1,0,0:0:0:0:
36,192,177165,1,0,0:0:0:0:
182,192,177165,1,0,0:0:0:0:
475,192,177165,1,0,0:0:0:0:
402,192,177165,1,0,0:0:0:0:
329,192,177240,1,0,0:0:0:0:
109,192,177240,1,0,0:0:0:0:
402,192,177315,1,0,0:0:0:0:
36,192,177315,1,0,0:0:0:0:
256,192,177315,1,0,0:0:0:0:
182,192,177315,1,0,0:0:0:0:
475,192,177390,1,0,0:0:0:0:
109,192,177390,1,0,0:0:0:0:
36,192,177465,1,0,0:0:0:0:
256,192,177465,1,0,0:0:0:0:
402,192,177465,1,0,0:0:0:0:
329,192,177465,1,0,0:0:0:0:
109,192,177540,1,0,0:0:0:0:
182,192,177540,1,0,0:0:0:0:
256,192,177615,1,0,0:0:0:0:
402,192,177615,1,0,0:0:0:0:
36,192,177615,1,0,0:0:0:0:
475,192,177615,1,0,0:0:0:0:
182,192,177690,1,0,0:0:0:0:
329,192,177690,1,0,0:0:0:0:
475,192,177765,1,0,0:0:0:0:
36,192,177765,1,0,0:0:0:0:
256,192,177765,1,0,0:0:0:0:
109,192,177765,1,0,0:0:0:0:
402,192,177840,1,0,0:0:0:0:
182,192,177840,1,0,0:0:0:0:
475,192,177915,1,0,0:0:0:0:
109,192,177915,1,0,0:0:0:0:
36,192,177915,1,0,0:0:0:0:
329,192,177915,1,0,0:0:0:0:
182,192,177990,1,0,0:0:0:0:
256,192,177990,1,0,0:0:0:0:
109,192,178065,1,0,0:0:0:0:
402,192,178065,1,0,0:0:0:0:
329,192,178065,1,0,0:0:0:0:
36,192,178065,1,0,0:0:0:0:
256,192,178140,1,0,0:0:0:0:
475,192,178140,1,0,0:0:0:0:
36,192,178215,1,0,0:0:0:0:
402,192,178215,1,0,0:0:0:0:
182,192,178215,1,0,0:0:0:0:
329,192,178215,1,0,0:0:0:0:
109,192,178290,1,0,0:0:0:0:
475,192,178290,1,0,0:0:0:0:
182,192,178365,1,0,0:0:0:0:
256,192,178365,1,0,0:0:0:0:
329,192,178365,1,0,0:0:0:0:
36,192,178365,1,0,0:0:0:0:
402,192,178440,1,0,0:0:0:0:
109,192,178440,1,0,0:0:0:0:
329,192,178515,1,0,0:0:0:0:
36,192,178515,1,0,0:0:0:0:
182,192,178515,1,0,0:0:0:0:
475,192,178515,1,0,0:0:0:0:
256,192,178590,1,0,0:0:0:0:
109,192,178590,1,0,0:0:0:0:
475,192,178665,1,0,0:0:0:0:
182,192,178665,1,0,0:0:0:0:
329,192,178665,1,0,0:0:0:0:
36,192,178665,1,0,0:0:0:0:
402,192,178740,1,0,0:0:0:0:
256,192,178740,1,0,0:0:0:0:
329,192,178815,1,0,0:0:0:0:
36,192,178815,1,0,0:0:0:0:
182,192,178815,1,0,0:0:0:0:
475,192,178815,1,0,0:0:0:0:
256,192,178890,1,0,0:0:0:0:
109,192,178890,1,0,0:0:0:0:
182,192,178965,1,0,0:0:0:0:
475,192,178965,1,0,0:0:0:0:
329,192,178965,1,0,0:0:0:0:
36,192,178965,1,0,0:0:0:0:
109,192,179040,1,0,0:0:0:0:
402,192,179040,1,0,0:0:0:0:
36,192,179115,1,0,0:0:0:0:
256,192,179115,1,0,0:0:0:0:
182,192,179115,1,0,0:0:0:0:
475,192,179115,1,0,0:0:0:0:
402,192,179190,1,0,0:0:0:0:
256,192,179265,1,0,0:0:0:0:
475,192,179265,1,0,0:0:0:0:
109,192,179265,1,0,0:0:0:0:
329,192,179265,1,0,0:0:0:0:
182,192,179340,1,0,0:0:0:0:
36,192,179340,1,0,0:0:0:0:
109,192,179415,1,0,0:0:0:0:
256,192,179415,1,0,0:0:0:0:
475,192,179415,1,0,0:0:0:0:
402,192,179415,1,0,0:0:0:0:
182,192,179490,1,0,0:0:0:0:
329,192,179490,1,0,0:0:0:0:
256,192,179565,1,0,0:0:0:0:
475,192,179565,1,0,0:0:0:0:
36,192,179565,1,0,0:0:0:0:
109,192,179565,1,0,0:0:0:0:
182,192,179640,1,0,0:0:0:0:
402,192,179640,1,0,0:0:0:0:
109,192,179715,1,0,0:0:0:0:
329,192,179715,1,0,0:0:0:0:
256,192,179715,1,0,0:0:0:0:
475,192,179715,1,0,0:0:0:0:
402,192,179790,1,0,0:0:0:0:
36,192,179790,1,0,0:0:0:0:
475,192,179865,1,0,0:0:0:0:
109,192,179865,1,0,0:0:0:0:
182,192,179865,1,0,0:0:0:0:
329,192,179865,1,0,0:0:0:0:
402,192,179940,1,0,0:0:0:0:
36,192,179940,1,0,0:0:0:0:
475,192,180015,1,0,0:0:0:0:
109,192,180015,1,0,0:0:0:0:
182,192,180015,1,0,0:0:0:0:
256,192,180015,1,0,0:0:0:0:
402,192,180090,1,0,0:0:0:0:
36,192,180090,1,0,0:0:0:0:
329,192,180165,1,0,0:0:0:0:
109,192,180165,1,0,0:0:0:0:
182,192,180240,1,0,0:0:0:0:
402,192,180240,1,0,0:0:0:0:
475,192,180315,1,0,0:0:0:0:
256,192,180315,1,0,0:0:0:0:
329,192,180315,1,0,0:0:0:0:
36,192,180315,1,0,0:0:0:0:
402,192,180390,1,0,0:0:0:0:
182,192,180390,1,0,0:0:0:0:
329,192,180465,1,0,0:0:0:0:
109,192,180465,1,0,0:0:0:0:
256,192,180540,1,0,0:0:0:0:
36,192,180540,1,0,0:0:0:0:
109,192,180615,1,0,0:0:0:0:
329,192,180615,1,0,0:0:0:0:
475,192,180615,1,0,0:0:0:0:
182,192,180615,1,0,0:0:0:0:
36,192,180690,1,0,0:0:0:0:
402,192,180690,1,0,0:0:0:0:
182,192,180765,1,0,0:0:0:0:
475,192,180765,1,0,0:0:0:0:
256,192,180840,1,0,0:0:0:0:
402,192,180840,1,0,0:0:0:0:
182,192,180915,1,0,0:0:0:0:
329,192,180915,1,0,0:0:0:0:
475,192,180915,1,0,0:0:0:0:
36,192,180915,1,0,0:0:0:0:
109,192,180990,1,0,0:0:0:0:
256,192,180990,1,0,0:0:0:0:
36,192,181065,1,0,0:0:0:0:
329,192,181065,1,0,0:0:0:0:
475,192,181140,1,0,0:0:0:0:
109,192,181140,1,0,0:0:0:0:
402,192,181215,1,0,0:0:0:0:
36,192,181215,1,0,0:0:0:0:
182,192,181215,1,0,0:0:0:0:
256,192,181215,1,0,0:0:0:0:
329,192,181290,1,0,0:0:0:0:
109,192,181290,1,0,0:0:0:0:
256,192,181365,1,0,0:0:0:0:
182,192,181365,1,0,0:0:0:0:
329,192,181440,1,0,0:0:0:0:
36,192,181440,1,0,0:0:0:0:
402,192,181515,1,0,0:0:0:0:
109,192,181515,1,0,0:0:0:0:
182,192,181515,1,0,0:0:0:0:
256,192,181515,1,0,0:0:0:0:
475,192,181590,1,0,0:0:0:0:
36,192,181590,1,0,0:0:0:0:
182,192,181665,1,0,0:0:0:0:
329,192,181665,1,0,0:0:0:0:
256,192,181740,1,0,0:0:0:0:
402,192,181740,1,0,0:0:0:0:
329,192,181815,1,0,0:0:0:0:
475,192,181815,1,0,0:0:0:0:
36,192,181815,1,0,0:0:0:0:
182,192,181815,1,0,0:0:0:0:
402,192,181890,1,0,0:0:0:0:
256,192,181890,1,0,0:0:0:0:
109,192,181965,1,0,0:0:0:0:
329,192,181965,1,0,0:0:0:0:
182,192,182040,1,0,0:0:0:0:
402,192,182040,1,0,0:0:0:0:
256,192,182115,1,0,0:0:0:0:
36,192,182115,1,0,0:0:0:0:
109,192,182115,1,0,0:0:0:0:
329,192,182115,1,0,0:0:0:0:
182,192,182190,1,0,0:0:0:0:
475,192,182190,1,0,0:0:0:0:
36,192,182265,1,0,0:0:0:0:
402,192,182265,1,0,0:0:0:0:
109,192,182340,1,0,0:0:0:0:
329,192,182340,1,0,0:0:0:0:
182,192,182415,1,0,0:0:0:0:
475,192,182415,1,0,0:0:0:0:
36,192,182415,1,0,0:0:0:0:
256,192,182490,1,0,0:0:0:0:
402,192,182490,1,0,0:0:0:0:
182,192,182565,1,0,0:0:0:0:
329,192,182565,1,0,0:0:0:0:
109,192,182640,1,0,0:0:0:0:
256,192,182640,1,0,0:0:0:0:
36,192,182715,1,0,0:0:0:0:
182,192,182715,1,0,0:0:0:0:
402,192,182715,1,0,0:0:0:0:
475,192,182715,1,0,0:0:0:0:
329,192,182790,1,0,0:0:0:0:
109,192,182790,1,0,0:0:0:0:
256,192,182865,1,0,0:0:0:0:
36,192,182865,1,0,0:0:0:0:
182,192,182940,1,0,0:0:0:0:
475,192,182940,1,0,0:0:0:0:
109,192,183015,1,0,0:0:0:0:
402,192,183015,1,0,0:0:0:0:
256,192,183015,1,0,0:0:0:0:
329,192,183090,1,0,0:0:0:0:
475,192,183090,1,0,0:0:0:0:
182,192,183090,1,0,0:0:0:0:
36,192,183090,1,0,0:0:0:0:
109,192,183165,1,0,0:0:0:0:
256,192,183165,1,0,0:0:0:0:
402,192,183165,1,0,0:0:0:0:
329,192,183240,1,0,0:0:0:0:
475,192,183240,1,0,0:0:0:0:
182,192,183240,1,0,0:0:0:0:
36,192,183240,1,0,0:0:0:0:
109,192,183315,1,0,0:0:0:0:
402,192,183315,1,0,0:0:0:0:
182,192,183390,1,0,0:0:0:0:
329,192,183390,1,0,0:0:0:0:
256,192,183465,1,0,0:0:0:0:
475,192,183540,1,0,0:0:0:0:
36,192,183540,1,0,0:0:0:0:
109,192,183615,1,0,0:0:0:0:
182,192,183615,1,0,0:0:0:0:
329,192,183615,1,0,0:0:0:0:
402,192,183615,1,0,0:0:0:0:
256,192,183690,1,0,0:0:0:0:
475,192,183690,1,0,0:0:0:0:
36,192,183690,1,0,0:0:0:0:
109,192,183765,1,0,0:0:0:0:
182,192,183765,1,0,0:0:0:0:
329,192,183765,1,0,0:0:0:0:
402,192,183765,1,0,0:0:0:0:
256,192,183840,1,0,0:0:0:0:
36,192,183840,1,0,0:0:0:0:
475,192,183840,1,0,0:0:0:0:
329,192,183915,1,0,0:0:0:0:
182,192,183915,1,0,0:0:0:0:
402,192,183990,1,0,0:0:0:0:
109,192,183990,1,0,0:0:0:0:
36,192,184065,1,0,0:0:0:0:
475,192,184065,1,0,0:0:0:0:
402,192,184140,1,0,0:0:0:0:
109,192,184140,1,0,0:0:0:0:
329,192,184215,1,0,0:0:0:0:
182,192,184215,1,0,0:0:0:0:
256,192,184290,1,0,0:0:0:0:
475,192,184365,1,0,0:0:0:0:
36,192,184365,1,0,0:0:0:0:
402,192,184440,1,0,0:0:0:0:
109,192,184440,1,0,0:0:0:0:
329,192,184515,1,0,0:0:0:0:
182,192,184515,1,0,0:0:0:0:
256,192,184590,1,0,0:0:0:0:
36,192,184665,1,0,0:0:0:0:
475,192,184665,1,0,0:0:0:0:
256,192,184740,1,0,0:0:0:0:
36,192,184815,128,0,184965:0:0:0:0:
475,192,184815,128,0,184890:0:0:0:0:
182,192,184815,128,0,184965:0:0:0:0:
109,192,184815,1,0,0:0:0:0:
402,192,184890,128,0,184965:0:0:0:0:
329,192,184965,128,0,185040:0:0:0:0:
256,192,185040,128,0,185115:0:0:0:0:
36,192,185115,128,0,185190:0:0:0:0:
109,192,185190,128,0,185265:0:0:0:0:
182,192,185265,128,0,185340:0:0:0:0:
256,192,185340,128,0,185415:0:0:0:0:
475,192,185415,128,0,185490:0:0:0:0:
402,192,185490,128,0,185565:0:0:0:0:
329,192,185565,128,0,185640:0:0:0:0:
256,192,185640,128,0,185715:0:0:0:0:
36,192,185715,128,0,185790:0:0:0:0:
109,192,185790,128,0,185865:0:0:0:0:
182,192,185865,128,0,185940:0:0:0:0:
256,192,185940,128,0,186015:0:0:0:0:
329,192,186015,128,0,186165:0:0:0:0:
475,192,186015,128,0,186165:0:0:0:0:
36,192,186015,128,0,186090:0:0:0:0:
402,192,186015,1,0,0:0:0:0:
109,192,186090,128,0,186165:0:0:0:0:
182,192,186165,128,0,186240:0:0:0:0:
256,192,186240,128,0,186315:0:0:0:0:
475,192,186315,128,0,186390:0:0:0:0:
402,192,186390,128,0,186465:0:0:0:0:
329,192,186465,128,0,186540:0:0:0:0:
256,192,186540,128,0,186615:0:0:0:0:
36,192,186615,128,0,186690:0:0:0:0:
109,192,186690,128,0,186765:0:0:0:0:
182,192,186765,128,0,186840:0:0:0:0:
256,192,186840,128,0,186915:0:0:0:0:
475,192,186915,128,0,186990:0:0:0:0:
402,192,186990,128,0,187065:0:0:0:0:
329,192,187065,128,0,187140:0:0:0:0:
256,192,187140,128,0,187215:0:0:0:0:
36,192,187215,128,0,187365:0:0:0:0:
182,192,187215,128,0,187365:0:0:0:0:
475,192,187215,128,0,187290:0:0:0:0:
109,192,187215,1,0,0:0:0:0:
402,192,187290,128,0,187365:0:0:0:0:
329,192,187365,128,0,187440:0:0:0:0:
256,192,187440,128,0,187515:0:0:0:0:
36,192,187515,128,0,187590:0:0:0:0:
109,192,187590,128,0,187665:0:0:0:0:
182,192,187665,128,0,187740:0:0:0:0:
256,192,187740,128,0,187815:0:0:0:0:
475,192,187815,128,0,187890:0:0:0:0:
402,192,187890,128,0,187965:0:0:0:0:
329,192,187965,128,0,188040:0:0:0:0:
256,192,188040,128,0,188115:0:0:0:0:
36,192,188115,128,0,188190:0:0:0:0:
109,192,188190,128,0,188265:0:0:0:0:
182,192,188265,128,0,188340:0:0:0:0:
256,192,188340,128,0,188415:0:0:0:0:
475,192,188415,128,0,188565:0:0:0:0:
329,192,188415,128,0,188565:0:0:0:0:
36,192,188415,128,0,188490:0:0:0:0:
402,192,188415,1,0,0:0:0:0:
109,192,188490,128,0,188565:0:0:0:0:
182,192,188565,128,0,188640:0:0:0:0:
256,192,188640,128,0,188715:0:0:0:0:
475,192,188715,128,0,188790:0:0:0:0:
402,192,188790,128,0,188865:0:0:0:0:
329,192,188865,128,0,188940:0:0:0:0:
256,192,188940,128,0,189015:0:0:0:0:
36,192,189015,128,0,189090:0:0:0:0:
109,192,189090,128,0,189165:0:0:0:0:
182,192,189165,128,0,189240:0:0:0:0:
256,192,189240,128,0,189315:0:0:0:0:
475,192,189315,128,0,189390:0:0:0:0:
402,192,189390,128,0,189465:0:0:0:0:
329,192,189465,128,0,189540:0:0:0:0:
256,192,189540,128,0,189615:0:0:0:0:
475,192,189615,128,0,189690:0:0:0:0:
36,192,189615,128,0,189765:0:0:0:0:
182,192,189615,128,0,189765:0:0:0:0:
109,192,189615,1,0,0:0:0:0:
402,192,189690,128,0,189765:0:0:0:0:
329,192,189765,128,0,189840:0:0:0:0:
256,192,189840,128,0,189915:0:0:0:0:
329,192,189915,128,0,189990:0:0:0:0:
402,192,189990,128,0,190065:0:0:0:0:
475,192,190065,128,0,190140:0:0:0:0:
36,192,190140,128,0,190215:0:0:0:0:
256,192,190215,128,0,190815:0:0:0:0:
36,192,190815,128,0,190890:0:0:0:0:
475,192,190815,128,0,190965:0:0:0:0:
329,192,190815,128,0,190965:0:0:0:0:
402,192,190815,1,0,0:0:0:0:
109,192,190890,128,0,190965:0:0:0:0:
182,192,190965,128,0,191040:0:0:0:0:
256,192,191040,128,0,191115:0:0:0:0:
182,192,191115,128,0,191190:0:0:0:0:
109,192,191190,128,0,191265:0:0:0:0:
36,192,191265,128,0,191340:0:0:0:0:
475,192,191340,128,0,191415:0:0:0:0:
256,192,191415,128,0,192015:0:0:0:0:
182,192,192015,128,0,192165:0:0:0:0:
475,192,192015,128,0,192090:0:0:0:0:
36,192,192015,128,0,192165:0:0:0:0:
109,192,192015,1,0,0:0:0:0:
402,192,192090,128,0,192165:0:0:0:0:
329,192,192165,128,0,192240:0:0:0:0:
256,192,192240,128,0,192315:0:0:0:0:
329,192,192315,128,0,192390:0:0:0:0:
402,192,192390,128,0,192465:0:0:0:0:
475,192,192465,128,0,192540:0:0:0:0:
36,192,192540,128,0,192615:0:0:0:0:
256,192,192615,128,0,193215:0:0:0:0:
402,192,193215,1,0,0:0:0:0:
36,192,193215,128,0,193290:0:0:0:0:
475,192,193215,128,0,193365:0:0:0:0:
329,192,193215,128,0,193365:0:0:0:0:
109,192,193290,128,0,193365:0:0:0:0:
182,192,193365,128,0,193440:0:0:0:0:
256,192,193440,128,0,193515:0:0:0:0:
182,192,193515,128,0,193590:0:0:0:0:
109,192,193590,128,0,193665:0:0:0:0:
36,192,193665,128,0,193740:0:0:0:0:
475,192,193740,128,0,193815:0:0:0:0:
402,192,193815,128,0,193890:0:0:0:0:
329,192,193890,128,0,193965:0:0:0:0:
256,192,193965,128,0,194040:0:0:0:0:
329,192,194040,128,0,194115:0:0:0:0:
402,192,194115,128,0,194190:0:0:0:0:
475,192,194190,128,0,194265:0:0:0:0:
36,192,194265,128,0,194340:0:0:0:0:
109,192,194340,128,0,194415:0:0:0:0:
182,192,194415,128,0,194490:0:0:0:0:
475,192,194415,1,0,0:0:0:0:
256,192,194490,128,0,194565:0:0:0:0:
329,192,194565,128,0,194640:0:0:0:0:
402,192,194640,128,0,194715:0:0:0:0:
475,192,194715,128,0,195165:0:0:0:0:
182,192,195015,1,0,0:0:0:0:
109,192,195015,1,0,0:0:0:0:
109,192,195315,1,0,0:0:0:0:
182,192,195315,1,0,0:0:0:0:
109,192,195615,1,0,0:0:0:0:
402,192,195615,1,0,0:0:0:0:
256,192,195615,1,0,0:0:0:0:
36,192,195615,128,0,196215:0:0:0:0:
329,192,195915,1,0,0:0:0:0:
182,192,195915,1,0,0:0:0:0:
109,192,196215,1,0,0:0:0:0:
256,192,196215,1,0,0:0:0:0:
475,192,196215,128,0,196515:0:0:0:0:
182,192,196315,1,0,0:0:0:0:
109,192,196415,1,0,0:0:0:0:
36,192,196515,1,0,0:0:0:0:
182,192,196515,1,0,0:0:0:0:
329,192,196515,128,0,196815:0:0:0:0:
109,192,196815,1,0,0:0:0:0:
36,192,196815,1,0,0:0:0:0:
182,192,196815,128,0,198015:0:0:0:0:
475,192,196815,128,0,196915:0:0:0:0:
402,192,196915,128,0,197015:0:0:0:0:
329,192,197015,128,0,197115:0:0:0:0:
109,192,197115,1,0,0:0:0:0:
36,192,197115,1,0,0:0:0:0:
256,192,197115,128,0,197215:0:0:0:0:
109,192,197415,1,0,0:0:0:0:
36,192,197415,1,0,0:0:0:0:
402,192,197415,128,0,197515:0:0:0:0:
475,192,197515,128,0,197615:0:0:0:0:
256,192,197615,128,0,197715:0:0:0:0:
109,192,197715,1,0,0:0:0:0:
36,192,197715,1,0,0:0:0:0:
329,192,197715,128,0,197815:0:0:0:0:
402,192,197815,128,0,197915:0:0:0:0:
475,192,197915,128,0,198015:0:0:0:0:
256,192,198015,1,0,0:0:0:0:
36,192,198015,1,0,0:0:0:0:
329,192,198015,128,0,198415:0:0:0:0:
402,192,198315,1,0,0:0:0:0:
109,192,198315,1,0,0:0:0:0:
182,192,198315,1,0,0:0:0:0:
475,192,198415,128,0,198915:0:0:0:0:
402,192,198615,1,0,0:0:0:0:
256,192,198615,1,0,0:0:0:0:
329,192,198715,1,0,0:0:0:0:
256,192,198815,1,0,0:0:0:0:
182,192,198915,1,0,0:0:0:0:
329,192,198915,1,0,0:0:0:0:
36,192,198915,128,0,199215:0:0:0:0:
256,192,199215,1,0,0:0:0:0:
475,192,199215,128,0,199315:0:0:0:0:
36,192,199315,1,0,0:0:0:0:
256,192,199315,128,0,199415:0:0:0:0:
475,192,199415,1,0,0:0:0:0:
36,192,199415,128,0,199515:0:0:0:0:
329,192,199515,1,0,0:0:0:0:
475,192,199515,128,0,199615:0:0:0:0:
182,192,199615,1,0,0:0:0:0:
329,192,199615,128,0,199715:0:0:0:0:
36,192,199715,1,0,0:0:0:0:
182,192,199715,128,0,199815:0:0:0:0:
402,192,199815,1,0,0:0:0:0:
36,192,199815,128,0,199915:0:0:0:0:
256,192,199915,1,0,0:0:0:0:
402,192,199915,128,0,200015:0:0:0:0:
109,192,200015,1,0,0:0:0:0:
256,192,200015,128,0,200115:0:0:0:0:
475,192,200115,1,0,0:0:0:0:
109,192,200115,128,0,200215:0:0:0:0:
36,192,200215,1,0,0:0:0:0:
475,192,200215,128,0,200315:0:0:0:0:
256,192,200315,1,0,0:0:0:0:
36,192,200315,128,0,200415:0:0:0:0:
256,192,200415,128,0,201015:0:0:0:0:
109,192,200715,1,0,0:0:0:0:
402,192,200715,1,0,0:0:0:0:
475,192,201015,128,0,201315:0:0:0:0:
109,192,201015,1,0,0:0:0:0:
182,192,201115,1,0,0:0:0:0:
256,192,201215,1,0,0:0:0:0:
182,192,201315,1,0,0:0:0:0:
329,192,201315,1,0,0:0:0:0:
36,192,201315,128,0,201615:0:0:0:0:
256,192,201615,128,0,201715:0:0:0:0:
182,192,201615,128,0,202815:0:0:0:0:
475,192,201615,1,0,0:0:0:0:
329,192,201715,128,0,201815:0:0:0:0:
402,192,201815,128,0,201915:0:0:0:0:
36,192,201915,1,0,0:0:0:0:
109,192,201915,1,0,0:0:0:0:
475,192,201915,128,0,202015:0:0:0:0:
402,192,202215,128,0,202315:0:0:0:0:
475,192,202215,1,0,0:0:0:0:
329,192,202315,128,0,202415:0:0:0:0:
256,192,202415,128,0,202515:0:0:0:0:
109,192,202515,1,0,0:0:0:0:
36,192,202515,1,0,0:0:0:0:
475,192,202515,128,0,202615:0:0:0:0:
402,192,202615,128,0,202715:0:0:0:0:
329,192,202715,128,0,202815:0:0:0:0:
256,192,202815,1,0,0:0:0:0:
109,192,202815,1,0,0:0:0:0:
475,192,202815,128,0,203415:0:0:0:0:
329,192,203115,1,0,0:0:0:0:
182,192,203115,1,0,0:0:0:0:
36,192,203115,1,0,0:0:0:0:
109,192,203415,1,0,0:0:0:0:
256,192,203415,1,0,0:0:0:0:
329,192,203415,128,0,203715:0:0:0:0:
182,192,203515,1,0,0:0:0:0:
109,192,203615,1,0,0:0:0:0:
402,192,203715,1,0,0:0:0:0:
36,192,203715,1,0,0:0:0:0:
182,192,203715,128,0,204015:0:0:0:0:
475,192,203715,1,0,0:0:0:0:
475,192,204015,128,0,204065:0:0:0:0:
109,192,204015,1,0,0:0:0:0:
256,192,204065,128,0,204115:0:0:0:0:
36,192,204115,128,0,204165:0:0:0:0:
475,192,204165,128,0,204215:0:0:0:0:
329,192,204215,128,0,204265:0:0:0:0:
182,192,204265,128,0,204315:0:0:0:0:
36,192,204315,128,0,204365:0:0:0:0:
402,192,204365,128,0,204415:0:0:0:0:
256,192,204415,128,0,204465:0:0:0:0:
109,192,204465,128,0,204515:0:0:0:0:
475,192,204515,128,0,204565:0:0:0:0:
329,192,204565,128,0,204615:0:0:0:0:
182,192,204615,128,0,204665:0:0:0:0:
36,192,204665,128,0,204715:0:0:0:0:
402,192,204715,128,0,204765:0:0:0:0:
256,192,204765,128,0,204815:0:0:0:0:
109,192,204815,128,0,204865:0:0:0:0:
475,192,204915,128,0,204965:0:0:0:0:
329,192,204965,128,0,205015:0:0:0:0:
182,192,205015,128,0,205065:0:0:0:0:
36,192,205065,128,0,205115:0:0:0:0:
402,192,205115,128,0,205165:0:0:0:0:
109,192,205165,128,0,205215:0:0:0:0:
475,192,205215,1,0,0:0:0:0:
329,192,205215,1,0,0:0:0:0:
256,192,205215,128,0,205815:0:0:0:0:
109,192,205515,1,0,0:0:0:0:
402,192,205515,1,0,0:0:0:0:
36,192,205815,1,0,0:0:0:0:
329,192,205815,1,0,0:0:0:0:
182,192,205815,128,0,206115:0:0:0:0:
402,192,205915,1,0,0:0:0:0:
475,192,206015,1,0,0:0:0:0:
402,192,206115,1,0,0:0:0:0:
256,192,206115,1,0,0:0:0:0:
36,192,206115,128,0,206415:0:0:0:0:
329,192,206415,1,0,0:0:0:0:
475,192,206415,1,0,0:0:0:0:
402,192,206415,128,0,207015:0:0:0:0:
256,192,206415,128,0,206515:0:0:0:0:
182,192,206515,128,0,206615:0:0:0:0:
109,192,206615,128,0,206715:0:0:0:0:
475,192,206715,1,0,0:0:0:0:
329,192,206715,1,0,0:0:0:0:
36,192,206715,128,0,206815:0:0:0:0:
475,192,207015,1,0,0:0:0:0:
182,192,207015,1,0,0:0:0:0:
109,192,207015,128,0,207615:0:0:0:0:
256,192,207115,1,0,0:0:0:0:
329,192,207215,1,0,0:0:0:0:
402,192,207315,1,0,0:0:0:0:
36,192,207315,1,0,0:0:0:0:
256,192,207315,128,0,207415:0:0:0:0:
329,192,207415,128,0,207515:0:0:0:0:
475,192,207415,1,0,0:0:0:0:
402,192,207515,128,0,207615:0:0:0:0:
182,192,207515,1,0,0:0:0:0:
256,192,207615,1,0,0:0:0:0:
329,192,207615,1,0,0:0:0:0:
475,192,207615,128,0,208215:0:0:0:0:
36,192,207915,1,0,0:0:0:0:
109,192,207915,1,0,0:0:0:0:
402,192,208215,1,0,0:0:0:0:
182,192,208215,1,0,0:0:0:0:
36,192,208215,128,0,208515:0:0:0:0:
256,192,208315,1,0,0:0:0:0:
329,192,208415,1,0,0:0:0:0:
475,192,208515,1,0,0:0:0:0:
256,192,208515,1,0,0:0:0:0:
182,192,208515,128,0,208815:0:0:0:0:
36,192,208815,1,0,0:0:0:0:
329,192,208815,128,0,208915:0:0:0:0:
109,192,208915,1,0,0:0:0:0:
402,192,208915,128,0,209015:0:0:0:0:
182,192,209015,1,0,0:0:0:0:
475,192,209015,128,0,209115:0:0:0:0:
36,192,209115,1,0,0:0:0:0:
256,192,209115,128,0,209215:0:0:0:0:
109,192,209215,1,0,0:0:0:0:
329,192,209215,128,0,209315:0:0:0:0:
36,192,209315,1,0,0:0:0:0:
402,192,209315,128,0,209415:0:0:0:0:
475,192,209415,1,0,0:0:0:0:
182,192,209415,128,0,209515:0:0:0:0:
402,192,209515,1,0,0:0:0:0:
109,192,209515,128,0,209615:0:0:0:0:
329,192,209615,1,0,0:0:0:0:
36,192,209615,128,0,209715:0:0:0:0:
475,192,209715,1,0,0:0:0:0:
256,192,209715,128,0,209815:0:0:0:0:
402,192,209815,1,0,0:0:0:0:
182,192,209815,128,0,209915:0:0:0:0:
475,192,209915,1,0,0:0:0:0:
109,192,209915,128,0,210015:0:0:0:0:
182,192,210015,1,0,0:0:0:0:
329,192,210015,1,0,0:0:0:0:
402,192,210015,128,0,210515:0:0:0:0:
256,192,210115,1,0,0:0:0:0:
182,192,210215,1,0,0:0:0:0:
109,192,210315,1,0,0:0:0:0:
256,192,210315,1,0,0:0:0:0:
36,192,210515,128,0,210915:0:0:0:0:
329,192,210615,1,0,0:0:0:0:
182,192,210615,1,0,0:0:0:0:
256,192,210715,1,0,0:0:0:0:
329,192,210815,1,0,0:0:0:0:
402,192,210915,1,0,0:0:0:0:
256,192,210915,1,0,0:0:0:0:
182,192,210915,128,0,211215:0:0:0:0:
402,192,211215,1,0,0:0:0:0:
109,192,211215,1,0,0:0:0:0:
36,192,211215,128,0,211315:0:0:0:0:
256,192,211315,128,0,211415:0:0:0:0:
475,192,211415,128,0,211515:0:0:0:0:
402,192,211515,1,0,0:0:0:0:
109,192,211515,1,0,0:0:0:0:
36,192,211515,128,0,211615:0:0:0:0:
182,192,211615,128,0,211715:0:0:0:0:
329,192,211715,128,0,211815:0:0:0:0:
402,192,211815,1,0,0:0:0:0:
109,192,211815,1,0,0:0:0:0:
475,192,211815,128,0,211915:0:0:0:0:
36,192,211915,128,0,212015:0:0:0:0:
256,192,212015,128,0,212115:0:0:0:0:
402,192,212115,128,0,212215:0:0:0:0:
475,192,212115,128,0,212215:0:0:0:0:
109,192,212215,128,0,212315:0:0:0:0:
182,192,212215,128,0,212315:0:0:0:0:
402,192,212315,128,0,212415:0:0:0:0:
329,192,212315,128,0,212415:0:0:0:0:
109,192,212415,1,0,0:0:0:0:
36,192,212415,1,0,0:0:0:0:
256,192,212415,128,0,213015:0:0:0:0:
475,192,212715,1,0,0:0:0:0:
329,192,212715,1,0,0:0:0:0:
402,192,212815,1,0,0:0:0:0:
475,192,212915,1,0,0:0:0:0:
182,192,213015,1,0,0:0:0:0:
36,192,213015,1,0,0:0:0:0:
402,192,213015,128,0,213315:0:0:0:0:
109,192,213115,1,0,0:0:0:0:
182,192,213215,1,0,0:0:0:0:
329,192,213315,1,0,0:0:0:0:
256,192,213315,1,0,0:0:0:0:
109,192,213315,128,0,213615:0:0:0:0:
36,192,213615,1,0,0:0:0:0:
475,192,213615,1,0,0:0:0:0:
329,192,213615,1,0,0:0:0:0:
256,192,213615,1,0,0:0:0:0:
402,192,213615,1,0,0:0:0:0:
182,192,213690,1,0,0:0:0:0:
256,192,213765,1,0,0:0:0:0:
329,192,213840,1,0,0:0:0:0:
36,192,213915,1,0,0:0:0:0:
109,192,213915,1,0,0:0:0:0:
182,192,213915,1,0,0:0:0:0:
402,192,213915,1,0,0:0:0:0:
475,192,213915,1,0,0:0:0:0:
329,192,213990,1,0,0:0:0:0:
256,192,214065,1,0,0:0:0:0:
182,192,214140,1,0,0:0:0:0:
109,192,214215,1,0,0:0:0:0:
36,192,214215,1,0,0:0:0:0:
256,192,214215,1,0,0:0:0:0:
402,192,214215,1,0,0:0:0:0:
475,192,214215,1,0,0:0:0:0:
329,192,214290,1,0,0:0:0:0:
402,192,214365,1,0,0:0:0:0:
475,192,214440,1,0,0:0:0:0:
402,192,214515,1,0,0:0:0:0:
256,192,214515,1,0,0:0:0:0:
109,192,214515,1,0,0:0:0:0:
36,192,214515,1,0,0:0:0:0:
329,192,214515,1,0,0:0:0:0:
182,192,214590,1,0,0:0:0:0:
109,192,214665,1,0,0:0:0:0:
36,192,214740,1,0,0:0:0:0:
109,192,214815,1,0,0:0:0:0:
182,192,214815,1,0,0:0:0:0:
256,192,214815,1,0,0:0:0:0:
329,192,214815,1,0,0:0:0:0:
402,192,214815,1,0,0:0:0:0:
256,192,215115,1,0,0:0:0:0:
402,192,215115,1,0,0:0:0:0:
475,192,215115,1,0,0:0:0:0:
109,192,215115,1,0,0:0:0:0:
36,192,215115,1,0,0:0:0:0:
36,192,217515,1,0,0:0:0:0:
182,192,217515,1,0,0:0:0:0:
256,192,217515,1,0,0:0:0:0:
329,192,217515,1,0,0:0:0:0:
475,192,217515,1,0,0:0:0:0:
109,192,218415,1,0,0:0:0:0:
182,192,218415,1,0,0:0:0:0:
256,192,218415,1,0,0:0:0:0:
329,192,218415,1,0,0:0:0:0:
402,192,218415,1,0,0:0:0:0:
475,192,218565,1,0,0:0:0:0:
329,192,218565,1,0,0:0:0:0:
256,192,218565,1,0,0:0:0:0:
182,192,218565,1,0,0:0:0:0:
36,192,218565,1,0,0:0:0:0:
109,192,219915,1,0,0:0:0:0:
182,192,219915,1,0,0:0:0:0:
256,192,219915,1,0,0:0:0:0:
329,192,219915,1,0,0:0:0:0:
402,192,219915,1,0,0:0:0:0:
475,192,220515,1,0,0:0:0:0:
329,192,220515,1,0,0:0:0:0:
256,192,220515,1,0,0:0:0:0:
36,192,220515,1,0,0:0:0:0:
182,192,220515,1,0,0:0:0:0:
36,192,220815,1,0,0:0:0:0:
109,192,220815,1,0,0:0:0:0:
256,192,220815,1,0,0:0:0:0:
402,192,220815,1,0,0:0:0:0:
475,192,220815,1,0,0:0:0:0:
109,192,222015,1,0,0:0:0:0:
256,192,222015,1,0,0:0:0:0:
402,192,222015,1,0,0:0:0:0:
36,192,222015,1,0,0:0:0:0:
475,192,222015,1,0,0:0:0:0:
402,192,222165,1,0,0:0:0:0:
329,192,222165,1,0,0:0:0:0:
256,192,222165,1,0,0:0:0:0:
182,192,222165,1,0,0:0:0:0:
109,192,222165,1,0,0:0:0:0:
36,192,222615,1,0,0:0:0:0:
182,192,222615,1,0,0:0:0:0:
256,192,222615,1,0,0:0:0:0:
329,192,222615,1,0,0:0:0:0:
475,192,222615,1,0,0:0:0:0:
402,192,222765,1,0,0:0:0:0:
256,192,222765,1,0,0:0:0:0:
109,192,222765,1,0,0:0:0:0:
182,192,222765,1,0,0:0:0:0:
329,192,222765,1,0,0:0:0:0:
36,192,223515,1,0,0:0:0:0:
256,192,223515,1,0,0:0:0:0:
475,192,223515,1,0,0:0:0:0:
109,192,223815,128,0,224015:0:0:0:0:
256,192,223915,128,0,224115:0:0:0:0:
402,192,224015,128,0,224215:0:0:0:0:
109,192,224115,128,0,224415:0:0:0:0:
256,192,224215,128,0,224315:0:0:0:0:
402,192,224315,128,0,224415:0:0:0:0:
256,192,224415,128,0,225615:0:0:0:0:
475,192,225615,1,0,0:0:0:0:
36,192,225615,1,0,0:0:0:0:
256,192,225915,1,0,0:0:0:0:
182,192,226065,1,0,0:0:0:0:
329,192,226065,1,0,0:0:0:0:
402,192,226215,1,0,0:0:0:0:
109,192,226215,1,0,0:0:0:0:
475,192,226365,1,0,0:0:0:0:
36,192,226365,1,0,0:0:0:0:
402,192,226515,1,0,0:0:0:0:
109,192,226515,1,0,0:0:0:0:
329,192,226665,1,0,0:0:0:0:
182,192,226665,1,0,0:0:0:0:
256,192,226815,128,0,227415:0:0:0:0:
475,192,226815,128,0,227115:0:0:0:0:
36,192,226815,128,0,227115:0:0:0:0:
329,192,227415,1,0,0:0:0:0:
402,192,227415,1,0,0:0:0:0:
475,192,227415,1,0,0:0:0:0:
182,192,227490,1,0,0:0:0:0:
109,192,227490,1,0,0:0:0:0:
36,192,227490,1,0,0:0:0:0:
329,192,227565,1,0,0:0:0:0:
402,192,227565,1,0,0:0:0:0:
475,192,227565,1,0,0:0:0:0:
182,192,227640,1,0,0:0:0:0:
109,192,227640,1,0,0:0:0:0:
36,192,227640,1,0,0:0:0:0:
329,192,227715,1,0,0:0:0:0:
402,192,227715,1,0,0:0:0:0:
182,192,227790,1,0,0:0:0:0:
109,192,227790,1,0,0:0:0:0:
329,192,227865,1,0,0:0:0:0:
402,192,227865,1,0,0:0:0:0:
182,192,227940,1,0,0:0:0:0:
109,192,227940,1,0,0:0:0:0:
402,192,228015,1,0,0:0:0:0:
475,192,228015,1,0,0:0:0:0:
109,192,228090,1,0,0:0:0:0:
36,192,228090,1,0,0:0:0:0:
402,192,228165,1,0,0:0:0:0:
475,192,228165,1,0,0:0:0:0:
109,192,228240,1,0,0:0:0:0:
36,192,228240,1,0,0:0:0:0:
329,192,228315,1,0,0:0:0:0:
402,192,228315,1,0,0:0:0:0:
182,192,228390,1,0,0:0:0:0:
109,192,228390,1,0,0:0:0:0:
402,192,228465,1,0,0:0:0:0:
329,192,228465,1,0,0:0:0:0:
182,192,228540,1,0,0:0:0:0:
109,192,228540,1,0,0:0:0:0:
402,192,228615,1,0,0:0:0:0:
475,192,228615,1,0,0:0:0:0:
109,192,228690,1,0,0:0:0:0:
36,192,228690,1,0,0:0:0:0:
402,192,228765,1,0,0:0:0:0:
475,192,228765,1,0,0:0:0:0:
109,192,228840,1,0,0:0:0:0:
36,192,228840,1,0,0:0:0:0:
329,192,228915,1,0,0:0:0:0:
402,192,228915,1,0,0:0:0:0:
182,192,228990,1,0,0:0:0:0:
109,192,228990,1,0,0:0:0:0:
329,192,229065,1,0,0:0:0:0:
402,192,229065,1,0,0:0:0:0:
182,192,229140,1,0,0:0:0:0:
109,192,229140,1,0,0:0:0:0:
256,192,229215,128,0,231615:0:0:0:0:
475,192,229215,128,0,230415:0:0:0:0:
36,192,229215,128,0,231015:0:0:0:0:
329,192,230415,128,0,231615:0:0:0:0:
475,192,231615,128,0,232215:0:0:0:0:
182,192,231615,128,0,232215:0:0:0:0:
36,192,231615,128,0,232215:0:0:0:0:
256,192,232215,1,0,0:0:0:0:
329,192,232215,1,0,0:0:0:0:
402,192,232215,1,0,0:0:0:0:
182,192,232290,1,0,0:0:0:0:
109,192,232290,1,0,0:0:0:0:
36,192,232290,1,0,0:0:0:0:
329,192,232365,1,0,0:0:0:0:
402,192,232365,1,0,0:0:0:0:
475,192,232365,1,0,0:0:0:0:
256,192,232440,1,0,0:0:0:0:
182,192,232440,1,0,0:0:0:0:
109,192,232440,1,0,0:0:0:0:
329,192,232515,1,0,0:0:0:0:
402,192,232515,1,0,0:0:0:0:
182,192,232590,1,0,0:0:0:0:
109,192,232590,1,0,0:0:0:0:
329,192,232665,1,0,0:0:0:0:
402,192,232665,1,0,0:0:0:0:
182,192,232740,1,0,0:0:0:0:
109,192,232740,1,0,0:0:0:0:
402,192,232815,1,0,0:0:0:0:
475,192,232815,1,0,0:0:0:0:
109,192,232890,1,0,0:0:0:0:
36,192,232890,1,0,0:0:0:0:
402,192,232965,1,0,0:0:0:0:
475,192,232965,1,0,0:0:0:0:
109,192,233040,1,0,0:0:0:0:
36,192,233040,1,0,0:0:0:0:
329,192,233115,1,0,0:0:0:0:
475,192,233115,1,0,0:0:0:0:
182,192,233190,1,0,0:0:0:0:
36,192,233190,1,0,0:0:0:0:
329,192,233265,1,0,0:0:0:0:
475,192,233265,1,0,0:0:0:0:
182,192,233340,1,0,0:0:0:0:
36,192,233340,1,0,0:0:0:0:
256,192,233415,1,0,0:0:0:0:
329,192,233415,1,0,0:0:0:0:
402,192,233415,1,0,0:0:0:0:
182,192,233490,1,0,0:0:0:0:
109,192,233490,1,0,0:0:0:0:
36,192,233490,1,0,0:0:0:0:
329,192,233565,1,0,0:0:0:0:
402,192,233565,1,0,0:0:0:0:
475,192,233565,1,0,0:0:0:0:
256,192,233640,1,0,0:0:0:0:
182,192,233640,1,0,0:0:0:0:
109,192,233640,1,0,0:0:0:0:
329,192,233715,1,0,0:0:0:0:
402,192,233715,1,0,0:0:0:0:
475,192,233715,1,0,0:0:0:0:
182,192,233790,1,0,0:0:0:0:
109,192,233790,1,0,0:0:0:0:
36,192,233790,1,0,0:0:0:0:
256,192,233865,1,0,0:0:0:0:
329,192,233865,1,0,0:0:0:0:
402,192,233865,1,0,0:0:0:0:
182,192,233940,1,0,0:0:0:0:
109,192,233940,1,0,0:0:0:0:
36,192,233940,1,0,0:0:0:0:
475,192,234015,1,0,0:0:0:0:
329,192,234015,1,0,0:0:0:0:
256,192,234015,1,0,0:0:0:0:
402,192,234090,1,0,0:0:0:0:
329,192,234165,1,0,0:0:0:0:
256,192,234240,1,0,0:0:0:0:
329,192,234315,1,0,0:0:0:0:
36,192,234315,1,0,0:0:0:0:
109,192,234315,1,0,0:0:0:0:
182,192,234315,1,0,0:0:0:0:
402,192,234390,1,0,0:0:0:0:
475,192,234465,1,0,0:0:0:0:
182,192,234540,1,0,0:0:0:0:
256,192,234615,1,0,0:0:0:0:
109,192,234615,1,0,0:0:0:0:
402,192,234615,1,0,0:0:0:0:
36,192,234615,1,0,0:0:0:0:
329,192,234690,1,0,0:0:0:0:
402,192,234765,1,0,0:0:0:0:
109,192,234840,1,0,0:0:0:0:
182,192,234915,1,0,0:0:0:0:
329,192,234915,1,0,0:0:0:0:
475,192,234915,1,0,0:0:0:0:
36,192,234915,1,0,0:0:0:0:
256,192,234990,1,0,0:0:0:0:
329,192,235065,1,0,0:0:0:0:
36,192,235140,1,0,0:0:0:0:
109,192,235215,1,0,0:0:0:0:
256,192,235215,1,0,0:0:0:0:
402,192,235215,1,0,0:0:0:0:
475,192,235215,1,0,0:0:0:0:
182,192,235290,1,0,0:0:0:0:
256,192,235365,1,0,0:0:0:0:
329,192,235440,1,0,0:0:0:0:
402,192,235515,1,0,0:0:0:0:
109,192,235515,1,0,0:0:0:0:
36,192,235515,1,0,0:0:0:0:
256,192,235515,1,0,0:0:0:0:
475,192,235590,1,0,0:0:0:0:
256,192,235665,1,0,0:0:0:0:
182,192,235740,1,0,0:0:0:0:
109,192,235815,1,0,0:0:0:0:
329,192,235815,1,0,0:0:0:0:
475,192,235815,1,0,0:0:0:0:
256,192,235815,1,0,0:0:0:0:
36,192,235890,1,0,0:0:0:0:
329,192,235965,1,0,0:0:0:0:
256,192,236040,1,0,0:0:0:0:
182,192,236115,1,0,0:0:0:0:
36,192,236115,1,0,0:0:0:0:
329,192,236115,1,0,0:0:0:0:
475,192,236115,1,0,0:0:0:0:
109,192,236190,1,0,0:0:0:0:
402,192,236265,1,0,0:0:0:0:
329,192,236340,1,0,0:0:0:0:
256,192,236415,1,0,0:0:0:0:
109,192,236415,1,0,0:0:0:0:
36,192,236415,1,0,0:0:0:0:
475,192,236415,1,0,0:0:0:0:
182,192,236490,1,0,0:0:0:0:
475,192,236565,1,0,0:0:0:0:
402,192,236640,1,0,0:0:0:0:
329,192,236715,1,0,0:0:0:0:
182,192,236715,1,0,0:0:0:0:
109,192,236715,1,0,0:0:0:0:
475,192,236715,1,0,0:0:0:0:
256,192,236790,1,0,0:0:0:0:
36,192,236865,1,0,0:0:0:0:
109,192,236940,1,0,0:0:0:0:
182,192,237015,1,0,0:0:0:0:
329,192,237015,1,0,0:0:0:0:
402,192,237015,1,0,0:0:0:0:
36,192,237015,1,0,0:0:0:0:
256,192,237090,1,0,0:0:0:0:
182,192,237165,1,0,0:0:0:0:
109,192,237240,1,0,0:0:0:0:
36,192,237315,1,0,0:0:0:0:
182,192,237315,1,0,0:0:0:0:
329,192,237315,1,0,0:0:0:0:
402,192,237315,1,0,0:0:0:0:
475,192,237390,1,0,0:0:0:0:
402,192,237465,1,0,0:0:0:0:
329,192,237540,1,0,0:0:0:0:
256,192,237615,1,0,0:0:0:0:
109,192,237615,1,0,0:0:0:0:
36,192,237615,1,0,0:0:0:0:
475,192,237615,1,0,0:0:0:0:
182,192,237690,1,0,0:0:0:0:
109,192,237765,1,0,0:0:0:0:
36,192,237840,1,0,0:0:0:0:
475,192,237915,1,0,0:0:0:0:
329,192,237915,1,0,0:0:0:0:
182,192,237915,1,0,0:0:0:0:
109,192,237915,1,0,0:0:0:0:
402,192,237990,1,0,0:0:0:0:
329,192,238065,1,0,0:0:0:0:
256,192,238140,1,0,0:0:0:0:
329,192,238215,1,0,0:0:0:0:
36,192,238215,1,0,0:0:0:0:
109,192,238215,1,0,0:0:0:0:
182,192,238215,1,0,0:0:0:0:
402,192,238290,1,0,0:0:0:0:
475,192,238365,1,0,0:0:0:0:
182,192,238440,1,0,0:0:0:0:
256,192,238515,1,0,0:0:0:0:
402,192,238515,1,0,0:0:0:0:
36,192,238515,1,0,0:0:0:0:
109,192,238515,1,0,0:0:0:0:
329,192,238590,1,0,0:0:0:0:
402,192,238665,1,0,0:0:0:0:
109,192,238740,1,0,0:0:0:0:
182,192,238815,1,0,0:0:0:0:
329,192,238815,1,0,0:0:0:0:
475,192,238815,1,0,0:0:0:0:
36,192,238815,1,0,0:0:0:0:
256,192,238890,1,0,0:0:0:0:
329,192,238965,1,0,0:0:0:0:
36,192,239040,1,0,0:0:0:0:
109,192,239115,1,0,0:0:0:0:
256,192,239115,1,0,0:0:0:0:
402,192,239115,1,0,0:0:0:0:
475,192,239115,1,0,0:0:0:0:
182,192,239190,1,0,0:0:0:0:
256,192,239265,1,0,0:0:0:0:
329,192,239340,1,0,0:0:0:0:
256,192,239415,1,0,0:0:0:0:
402,192,239415,1,0,0:0:0:0:
109,192,239415,1,0,0:0:0:0:
36,192,239415,1,0,0:0:0:0:
182,192,239490,1,0,0:0:0:0:
109,192,239565,1,0,0:0:0:0:
36,192,239640,1,0,0:0:0:0:
475,192,239715,1,0,0:0:0:0:
182,192,239715,1,0,0:0:0:0:
256,192,239715,1,0,0:0:0:0:
109,192,239715,1,0,0:0:0:0:
402,192,239790,1,0,0:0:0:0:
329,192,239865,1,0,0:0:0:0:
256,192,239940,1,0,0:0:0:0:
182,192,240015,1,0,0:0:0:0:
36,192,240015,1,0,0:0:0:0:
109,192,240015,1,0,0:0:0:0:
402,192,240015,1,0,0:0:0:0:
256,192,240090,1,0,0:0:0:0:
329,192,240165,1,0,0:0:0:0:
402,192,240240,1,0,0:0:0:0:
475,192,240315,1,0,0:0:0:0:
329,192,240315,1,0,0:0:0:0:
256,192,240315,1,0,0:0:0:0:
109,192,240315,1,0,0:0:0:0:
182,192,240390,1,0,0:0:0:0:
256,192,240465,1,0,0:0:0:0:
329,192,240540,1,0,0:0:0:0:
402,192,240615,1,0,0:0:0:0:
36,192,240615,1,0,0:0:0:0:
182,192,240615,1,0,0:0:0:0:
475,192,240615,1,0,0:0:0:0:
109,192,240690,1,0,0:0:0:0:
182,192,240765,1,0,0:0:0:0:
256,192,240840,1,0,0:0:0:0:
329,192,240915,1,0,0:0:0:0:
475,192,240915,1,0,0:0:0:0:
402,192,240915,1,0,0:0:0:0:
109,192,240915,1,0,0:0:0:0:
36,192,240990,1,0,0:0:0:0:
109,192,241065,1,0,0:0:0:0:
182,192,241140,1,0,0:0:0:0:
256,192,241215,1,0,0:0:0:0:
329,192,241215,1,0,0:0:0:0:
475,192,241215,1,0,0:0:0:0:
36,192,241215,1,0,0:0:0:0:
182,192,241290,1,0,0:0:0:0:
109,192,241365,1,0,0:0:0:0:
36,192,241440,1,0,0:0:0:0:
329,192,241515,1,0,0:0:0:0:
109,192,241515,1,0,0:0:0:0:
402,192,241515,1,0,0:0:0:0:
182,192,241515,1,0,0:0:0:0:
256,192,241590,1,0,0:0:0:0:
182,192,241665,1,0,0:0:0:0:
109,192,241740,1,0,0:0:0:0:
402,192,241815,1,0,0:0:0:0:
256,192,241815,1,0,0:0:0:0:
36,192,241815,1,0,0:0:0:0:
475,192,241815,1,0,0:0:0:0:
329,192,241890,1,0,0:0:0:0:
256,192,241965,1,0,0:0:0:0:
182,192,242040,1,0,0:0:0:0:
475,192,242115,1,0,0:0:0:0:
256,192,242115,1,0,0:0:0:0:
109,192,242115,1,0,0:0:0:0:
36,192,242115,1,0,0:0:0:0:
402,192,242190,1,0,0:0:0:0:
329,192,242265,1,0,0:0:0:0:
402,192,242340,1,0,0:0:0:0:
256,192,242415,1,0,0:0:0:0:
182,192,242415,1,0,0:0:0:0:
109,192,242415,1,0,0:0:0:0:
329,192,242490,1,0,0:0:0:0:
402,192,242490,1,0,0:0:0:0:
475,192,242490,1,0,0:0:0:0:
182,192,242565,1,0,0:0:0:0:
109,192,242565,1,0,0:0:0:0:
36,192,242565,1,0,0:0:0:0:
256,192,242640,1,0,0:0:0:0:
329,192,242640,1,0,0:0:0:0:
402,192,242640,1,0,0:0:0:0:
475,192,242715,1,0,0:0:0:0:
36,192,242715,1,0,0:0:0:0:
402,192,242790,1,0,0:0:0:0:
109,192,242790,1,0,0:0:0:0:
329,192,242865,1,0,0:0:0:0:
182,192,242865,1,0,0:0:0:0:
475,192,242940,1,0,0:0:0:0:
36,192,242940,1,0,0:0:0:0:
256,192,243015,1,0,0:0:0:0:
329,192,243015,1,0,0:0:0:0:
402,192,243015,1,0,0:0:0:0:
109,192,243090,1,0,0:0:0:0:
182,192,243090,1,0,0:0:0:0:
36,192,243090,1,0,0:0:0:0:
329,192,243165,1,0,0:0:0:0:
402,192,243165,1,0,0:0:0:0:
475,192,243165,1,0,0:0:0:0:
256,192,243240,1,0,0:0:0:0:
182,192,243240,1,0,0:0:0:0:
109,192,243240,1,0,0:0:0:0:
475,192,243315,1,0,0:0:0:0:
36,192,243315,1,0,0:0:0:0:
402,192,243390,1,0,0:0:0:0:
109,192,243390,1,0,0:0:0:0:
329,192,243465,1,0,0:0:0:0:
182,192,243465,1,0,0:0:0:0:
36,192,243540,1,0,0:0:0:0:
475,192,243540,1,0,0:0:0:0:
109,192,243615,1,0,0:0:0:0:
256,192,243615,1,0,0:0:0:0:
402,192,243615,1,0,0:0:0:0:
329,192,243615,1,0,0:0:0:0:
182,192,243690,1,0,0:0:0:0:
256,192,243765,1,0,0:0:0:0:
329,192,243840,1,0,0:0:0:0:
402,192,243915,1,0,0:0:0:0:
36,192,243915,1,0,0:0:0:0:
109,192,243915,1,0,0:0:0:0:
256,192,243915,1,0,0:0:0:0:
475,192,243990,1,0,0:0:0:0:
182,192,244065,1,0,0:0:0:0:
256,192,244140,1,0,0:0:0:0:
329,192,244215,1,0,0:0:0:0:
36,192,244215,1,0,0:0:0:0:
109,192,244215,1,0,0:0:0:0:
475,192,244215,1,0,0:0:0:0:
402,192,244290,1,0,0:0:0:0:
329,192,244365,1,0,0:0:0:0:
256,192,244440,1,0,0:0:0:0:
182,192,244515,1,0,0:0:0:0:
329,192,244515,1,0,0:0:0:0:
475,192,244515,1,0,0:0:0:0:
36,192,244515,1,0,0:0:0:0:
109,192,244590,1,0,0:0:0:0:
36,192,244665,1,0,0:0:0:0:
475,192,244740,1,0,0:0:0:0:
402,192,244815,1,0,0:0:0:0:
109,192,244815,1,0,0:0:0:0:
182,192,244815,1,0,0:0:0:0:
256,192,244815,1,0,0:0:0:0:
329,192,244890,1,0,0:0:0:0:
256,192,244965,1,0,0:0:0:0:
329,192,245040,1,0,0:0:0:0:
402,192,245115,1,0,0:0:0:0:
36,192,245115,1,0,0:0:0:0:
182,192,245115,1,0,0:0:0:0:
256,192,245115,1,0,0:0:0:0:
475,192,245190,1,0,0:0:0:0:
182,192,245265,1,0,0:0:0:0:
256,192,245340,1,0,0:0:0:0:
329,192,245415,1,0,0:0:0:0:
109,192,245415,1,0,0:0:0:0:
182,192,245415,1,0,0:0:0:0:
475,192,245415,1,0,0:0:0:0:
402,192,245490,1,0,0:0:0:0:
109,192,245565,1,0,0:0:0:0:
182,192,245640,1,0,0:0:0:0:
256,192,245715,1,0,0:0:0:0:
475,192,245715,1,0,0:0:0:0:
402,192,245715,1,0,0:0:0:0:
36,192,245715,1,0,0:0:0:0:
329,192,245790,1,0,0:0:0:0:
36,192,245865,1,0,0:0:0:0:
109,192,245940,1,0,0:0:0:0:
182,192,246015,1,0,0:0:0:0:
329,192,246015,1,0,0:0:0:0:
475,192,246015,1,0,0:0:0:0:
402,192,246015,1,0,0:0:0:0:
256,192,246090,1,0,0:0:0:0:
182,192,246165,1,0,0:0:0:0:
109,192,246240,1,0,0:0:0:0:
36,192,246315,1,0,0:0:0:0:
182,192,246315,1,0,0:0:0:0:
256,192,246315,1,0,0:0:0:0:
475,192,246315,1,0,0:0:0:0:
329,192,246390,1,0,0:0:0:0:
256,192,246465,1,0,0:0:0:0:
182,192,246540,1,0,0:0:0:0:
402,192,246615,1,0,0:0:0:0:
475,192,246615,1,0,0:0:0:0:
256,192,246615,1,0,0:0:0:0:
36,192,246615,1,0,0:0:0:0:
329,192,246690,1,0,0:0:0:0:
256,192,246765,1,0,0:0:0:0:
475,192,246840,1,0,0:0:0:0:
402,192,246915,1,0,0:0:0:0:
109,192,246915,1,0,0:0:0:0:
182,192,246915,1,0,0:0:0:0:
256,192,246915,1,0,0:0:0:0:
329,192,246990,1,0,0:0:0:0:
256,192,247065,1,0,0:0:0:0:
182,192,247140,1,0,0:0:0:0:
109,192,247215,1,0,0:0:0:0:
475,192,247215,1,0,0:0:0:0:
329,192,247215,1,0,0:0:0:0:
36,192,247215,1,0,0:0:0:0:
182,192,247290,1,0,0:0:0:0:
256,192,247365,1,0,0:0:0:0:
329,192,247440,1,0,0:0:0:0:
402,192,247515,1,0,0:0:0:0:
36,192,247515,1,0,0:0:0:0:
182,192,247515,1,0,0:0:0:0:
256,192,247515,1,0,0:0:0:0:
475,192,247590,1,0,0:0:0:0:
182,192,247665,1,0,0:0:0:0:
256,192,247740,1,0,0:0:0:0:
329,192,247815,1,0,0:0:0:0:
475,192,247815,1,0,0:0:0:0:
182,192,247815,1,0,0:0:0:0:
36,192,247815,1,0,0:0:0:0:
402,192,247890,1,0,0:0:0:0:
109,192,247965,1,0,0:0:0:0:
182,192,248040,1,0,0:0:0:0:
256,192,248115,1,0,0:0:0:0:
402,192,248115,1,0,0:0:0:0:
475,192,248115,1,0,0:0:0:0:
36,192,248115,1,0,0:0:0:0:
329,192,248190,1,0,0:0:0:0:
36,192,248265,1,0,0:0:0:0:
109,192,248340,1,0,0:0:0:0:
182,192,248415,1,0,0:0:0:0:
329,192,248415,1,0,0:0:0:0:
402,192,248415,1,0,0:0:0:0:
475,192,248415,1,0,0:0:0:0:
36,192,248415,1,0,0:0:0:0:
256,192,248490,1,0,0:0:0:0:
475,192,248565,1,0,0:0:0:0:
402,192,248640,1,0,0:0:0:0:
329,192,248715,1,0,0:0:0:0:
109,192,248715,1,0,0:0:0:0:
36,192,248715,1,0,0:0:0:0:
182,192,248715,1,0,0:0:0:0:
256,192,248790,1,0,0:0:0:0:
329,192,248865,1,0,0:0:0:0:
402,192,248940,1,0,0:0:0:0:
475,192,249015,1,0,0:0:0:0:
182,192,249015,1,0,0:0:0:0:
256,192,249015,1,0,0:0:0:0:
329,192,249015,1,0,0:0:0:0:
109,192,249090,1,0,0:0:0:0:
182,192,249165,1,0,0:0:0:0:
256,192,249240,1,0,0:0:0:0:
329,192,249315,1,0,0:0:0:0:
475,192,249315,1,0,0:0:0:0:
402,192,249315,1,0,0:0:0:0:
109,192,249315,1,0,0:0:0:0:
36,192,249390,1,0,0:0:0:0:
109,192,249465,1,0,0:0:0:0:
182,192,249540,1,0,0:0:0:0:
256,192,249615,1,0,0:0:0:0:
329,192,249615,1,0,0:0:0:0:
475,192,249615,1,0,0:0:0:0:
36,192,249615,1,0,0:0:0:0:
182,192,249690,1,0,0:0:0:0:
109,192,249765,1,0,0:0:0:0:
36,192,249840,1,0,0:0:0:0:
329,192,249915,1,0,0:0:0:0:
109,192,249915,1,0,0:0:0:0:
182,192,249915,1,0,0:0:0:0:
475,192,249915,1,0,0:0:0:0:
256,192,249990,1,0,0:0:0:0:
182,192,250065,1,0,0:0:0:0:
109,192,250140,1,0,0:0:0:0:
402,192,250215,1,0,0:0:0:0:
256,192,250215,1,0,0:0:0:0:
182,192,250215,1,0,0:0:0:0:
36,192,250215,1,0,0:0:0:0:
329,192,250290,1,0,0:0:0:0:
256,192,250365,1,0,0:0:0:0:
182,192,250440,1,0,0:0:0:0:
475,192,250515,1,0,0:0:0:0:
36,192,250515,1,0,0:0:0:0:
109,192,250515,1,0,0:0:0:0:
329,192,250515,1,0,0:0:0:0:
402,192,250590,1,0,0:0:0:0:
329,192,250665,1,0,0:0:0:0:
256,192,250740,1,0,0:0:0:0:
182,192,250815,1,0,0:0:0:0:
475,192,250815,1,0,0:0:0:0:
402,192,250815,1,0,0:0:0:0:
109,192,250815,1,0,0:0:0:0:
36,192,250815,1,0,0:0:0:0:
256,192,250890,1,0,0:0:0:0:
329,192,250965,1,0,0:0:0:0:
402,192,251040,1,0,0:0:0:0:
109,192,251115,1,0,0:0:0:0:
182,192,251190,1,0,0:0:0:0:
256,192,251265,1,0,0:0:0:0:
402,192,251265,1,0,0:0:0:0:
475,192,251265,1,0,0:0:0:0:
109,192,251265,1,0,0:0:0:0:
36,192,251265,1,0,0:0:0:0:
329,192,251340,1,0,0:0:0:0:
36,192,251415,1,0,0:0:0:0:
109,192,251490,1,0,0:0:0:0:
182,192,251565,1,0,0:0:0:0:
256,192,251640,1,0,0:0:0:0:
182,192,251715,1,0,0:0:0:0:
329,192,251715,1,0,0:0:0:0:
402,192,251715,1,0,0:0:0:0:
475,192,251715,1,0,0:0:0:0:
36,192,251715,1,0,0:0:0:0:
109,192,251790,1,0,0:0:0:0:
36,192,251865,1,0,0:0:0:0:
329,192,251940,1,0,0:0:0:0:
256,192,252015,1,0,0:0:0:0:
36,192,252015,1,0,0:0:0:0:
109,192,252015,1,0,0:0:0:0:
402,192,252015,1,0,0:0:0:0:
475,192,252015,1,0,0:0:0:0:
182,192,252090,1,0,0:0:0:0:
109,192,252165,1,0,0:0:0:0:
329,192,252165,1,0,0:0:0:0:
256,192,252165,1,0,0:0:0:0:
36,192,252165,1,0,0:0:0:0:
475,192,252165,1,0,0:0:0:0:
402,192,252240,1,0,0:0:0:0:
329,192,252315,1,0,0:0:0:0:
256,192,252390,1,0,0:0:0:0:
182,192,252465,1,0,0:0:0:0:
36,192,252465,1,0,0:0:0:0:
109,192,252465,1,0,0:0:0:0:
329,192,252465,1,0,0:0:0:0:
402,192,252465,1,0,0:0:0:0:
475,192,252540,1,0,0:0:0:0:
402,192,252615,1,0,0:0:0:0:
329,192,252690,1,0,0:0:0:0:
256,192,252765,1,0,0:0:0:0:
182,192,252840,1,0,0:0:0:0:
109,192,252915,1,0,0:0:0:0:
475,192,252915,1,0,0:0:0:0:
402,192,252915,1,0,0:0:0:0:
329,192,252915,1,0,0:0:0:0:
256,192,252915,1,0,0:0:0:0:
36,192,252990,1,0,0:0:0:0:
256,192,253065,1,0,0:0:0:0:
329,192,253140,1,0,0:0:0:0:
402,192,253215,1,0,0:0:0:0:
36,192,253215,1,0,0:0:0:0:
109,192,253215,1,0,0:0:0:0:
256,192,253215,1,0,0:0:0:0:
182,192,253215,1,0,0:0:0:0:
475,192,253290,1,0,0:0:0:0:
182,192,253365,1,0,0:0:0:0:
36,192,253365,1,0,0:0:0:0:
109,192,253365,1,0,0:0:0:0:
329,192,253365,1,0,0:0:0:0:
402,192,253365,1,0,0:0:0:0:
256,192,253440,1,0,0:0:0:0:
329,192,253515,1,0,0:0:0:0:
402,192,253590,1,0,0:0:0:0:
109,192,253665,1,0,0:0:0:0:
256,192,253665,1,0,0:0:0:0:
329,192,253665,1,0,0:0:0:0:
475,192,253665,1,0,0:0:0:0:
36,192,253665,1,0,0:0:0:0:
182,192,253740,1,0,0:0:0:0:
256,192,253815,1,0,0:0:0:0:
329,192,253890,1,0,0:0:0:0:
36,192,253965,1,0,0:0:0:0:
109,192,254040,1,0,0:0:0:0:
182,192,254115,1,0,0:0:0:0:
402,192,254115,1,0,0:0:0:0:
475,192,254115,1,0,0:0:0:0:
36,192,254115,1,0,0:0:0:0:
329,192,254115,1,0,0:0:0:0:
256,192,254190,1,0,0:0:0:0:
329,192,254265,1,0,0:0:0:0:
402,192,254340,1,0,0:0:0:0:
109,192,254415,1,0,0:0:0:0:
182,192,254415,1,0,0:0:0:0:
256,192,254415,1,0,0:0:0:0:
329,192,254490,1,0,0:0:0:0:
402,192,254490,1,0,0:0:0:0:
475,192,254490,1,0,0:0:0:0:
182,192,254565,1,0,0:0:0:0:
109,192,254565,1,0,0:0:0:0:
36,192,254565,1,0,0:0:0:0:
256,192,254640,1,0,0:0:0:0:
329,192,254640,1,0,0:0:0:0:
402,192,254640,1,0,0:0:0:0:
475,192,254715,1,0,0:0:0:0:
36,192,254715,1,0,0:0:0:0:
402,192,254790,1,0,0:0:0:0:
109,192,254790,1,0,0:0:0:0:
329,192,254865,1,0,0:0:0:0:
182,192,254865,1,0,0:0:0:0:
475,192,254940,1,0,0:0:0:0:
36,192,254940,1,0,0:0:0:0:
256,192,255015,1,0,0:0:0:0:
329,192,255015,1,0,0:0:0:0:
402,192,255015,1,0,0:0:0:0:
182,192,255090,1,0,0:0:0:0:
109,192,255090,1,0,0:0:0:0:
36,192,255090,1,0,0:0:0:0:
329,192,255165,1,0,0:0:0:0:
402,192,255165,1,0,0:0:0:0:
475,192,255165,1,0,0:0:0:0:
256,192,255240,1,0,0:0:0:0:
182,192,255240,1,0,0:0:0:0:
109,192,255240,1,0,0:0:0:0:
329,192,255315,1,0,0:0:0:0:
402,192,255315,1,0,0:0:0:0:
475,192,255315,1,0,0:0:0:0:
36,192,255390,1,0,0:0:0:0:
109,192,255390,1,0,0:0:0:0:
182,192,255390,1,0,0:0:0:0:
256,192,255465,1,0,0:0:0:0:
329,192,255465,1,0,0:0:0:0:
402,192,255465,1,0,0:0:0:0:
182,192,255540,1,0,0:0:0:0:
109,192,255540,1,0,0:0:0:0:
36,192,255540,1,0,0:0:0:0:
475,192,255615,1,0,0:0:0:0:
256,192,255615,128,0,255690:0:0:0:0:
402,192,255690,1,0,0:0:0:0:
182,192,255690,128,0,255765:0:0:0:0:
109,192,255765,128,0,255840:0:0:0:0:
329,192,255765,1,0,0:0:0:0:
256,192,255765,1,0,0:0:0:0:
475,192,255765,1,0,0:0:0:0:
402,192,255840,1,0,0:0:0:0:
36,192,255840,128,0,255915:0:0:0:0:
256,192,255915,1,0,0:0:0:0:
475,192,255915,128,0,256065:0:0:0:0:
182,192,255990,1,0,0:0:0:0:
256,192,256065,1,0,0:0:0:0:
36,192,256065,1,0,0:0:0:0:
402,192,256065,128,0,256140:0:0:0:0:
109,192,256065,1,0,0:0:0:0:
182,192,256140,1,0,0:0:0:0:
329,192,256140,128,0,256215:0:0:0:0:
475,192,256215,1,0,0:0:0:0:
256,192,256215,128,0,256290:0:0:0:0:
402,192,256290,1,0,0:0:0:0:
182,192,256290,128,0,256515:0:0:0:0:
36,192,256365,1,0,0:0:0:0:
109,192,256365,1,0,0:0:0:0:
329,192,256365,1,0,0:0:0:0:
402,192,256440,1,0,0:0:0:0:
475,192,256515,1,0,0:0:0:0:
36,192,256590,1,0,0:0:0:0:
402,192,256665,1,0,0:0:0:0:
256,192,256665,1,0,0:0:0:0:
109,192,256665,1,0,0:0:0:0:
182,192,256740,1,0,0:0:0:0:
256,192,256815,1,0,0:0:0:0:
475,192,256890,1,0,0:0:0:0:
36,192,256965,1,0,0:0:0:0:
182,192,256965,1,0,0:0:0:0:
402,192,256965,1,0,0:0:0:0:
329,192,257040,1,0,0:0:0:0:
256,192,257115,1,0,0:0:0:0:
329,192,257190,1,0,0:0:0:0:
256,192,257265,1,0,0:0:0:0:
109,192,257265,1,0,0:0:0:0:
402,192,257265,1,0,0:0:0:0:
475,192,257340,1,0,0:0:0:0:
182,192,257415,1,0,0:0:0:0:
256,192,257490,1,0,0:0:0:0:
475,192,257565,1,0,0:0:0:0:
182,192,257565,1,0,0:0:0:0:
329,192,257565,1,0,0:0:0:0:
109,192,257640,1,0,0:0:0:0:
402,192,257640,1,0,0:0:0:0:
182,192,257715,1,0,0:0:0:0:
256,192,257790,1,0,0:0:0:0:
182,192,257865,1,0,0:0:0:0:
475,192,257865,1,0,0:0:0:0:
329,192,257865,1,0,0:0:0:0:
402,192,257940,1,0,0:0:0:0:
36,192,258015,1,0,0:0:0:0:
475,192,258015,128,0,258090:0:0:0:0:
109,192,258090,1,0,0:0:0:0:
329,192,258090,128,0,258165:0:0:0:0:
402,192,258165,1,0,0:0:0:0:
475,192,258165,1,0,0:0:0:0:
182,192,258165,128,0,258240:0:0:0:0:
256,192,258165,1,0,0:0:0:0:
329,192,258240,1,0,0:0:0:0:
36,192,258240,128,0,258315:0:0:0:0:
256,192,258315,1,0,0:0:0:0:
182,192,258390,1,0,0:0:0:0:
329,192,258465,1,0,0:0:0:0:
402,192,258465,1,0,0:0:0:0:
109,192,258465,1,0,0:0:0:0:
256,192,258540,1,0,0:0:0:0:
475,192,258615,1,0,0:0:0:0:
36,192,258615,128,0,258690:0:0:0:0:
402,192,258690,1,0,0:0:0:0:
182,192,258690,128,0,258765:0:0:0:0:
109,192,258765,1,0,0:0:0:0:
36,192,258765,1,0,0:0:0:0:
256,192,258765,1,0,0:0:0:0:
329,192,258765,128,0,258840:0:0:0:0:
475,192,258840,128,0,258915:0:0:0:0:
182,192,258840,1,0,0:0:0:0:
256,192,258915,1,0,0:0:0:0:
329,192,258990,1,0,0:0:0:0:
182,192,259065,1,0,0:0:0:0:
109,192,259065,1,0,0:0:0:0:
402,192,259065,1,0,0:0:0:0:
475,192,259140,1,0,0:0:0:0:
329,192,259215,1,0,0:0:0:0:
182,192,259290,1,0,0:0:0:0:
36,192,259365,1,0,0:0:0:0:
402,192,259365,1,0,0:0:0:0:
256,192,259365,1,0,0:0:0:0:
329,192,259440,1,0,0:0:0:0:
109,192,259515,1,0,0:0:0:0:
182,192,259590,1,0,0:0:0:0:
475,192,259665,1,0,0:0:0:0:
329,192,259665,1,0,0:0:0:0:
256,192,259665,1,0,0:0:0:0:
36,192,259740,1,0,0:0:0:0:
109,192,259815,1,0,0:0:0:0:
182,192,259890,1,0,0:0:0:0:
109,192,259965,1,0,0:0:0:0:
475,192,259965,1,0,0:0:0:0:
329,192,259965,1,0,0:0:0:0:
256,192,260040,1,0,0:0:0:0:
182,192,260115,1,0,0:0:0:0:
402,192,260190,1,0,0:0:0:0:
36,192,260265,1,0,0:0:0:0:
256,192,260265,1,0,0:0:0:0:
329,192,260265,1,0,0:0:0:0:
475,192,260415,1,0,0:0:0:0:
182,192,260415,1,0,0:0:0:0:
109,192,260415,1,0,0:0:0:0:
256,192,260615,1,0,0:0:0:0:
329,192,260615,1,0,0:0:0:0:
402,192,260615,1,0,0:0:0:0:
36,192,260715,1,0,0:0:0:0:
109,192,260715,1,0,0:0:0:0:
182,192,260715,1,0,0:0:0:0:
475,192,260815,1,0,0:0:0:0:
402,192,260815,1,0,0:0:0:0:
329,192,260815,1,0,0:0:0:0:
36,192,261015,1,0,0:0:0:0:
109,192,261015,1,0,0:0:0:0:
256,192,261015,1,0,0:0:0:0:
329,192,261115,1,0,0:0:0:0:
256,192,261215,1,0,0:0:0:0:
182,192,261215,1,0,0:0:0:0:
402,192,261215,1,0,0:0:0:0:
475,192,261315,1,0,0:0:0:0:
36,192,261415,1,0,0:0:0:0:
109,192,261415,1,0,0:0:0:0:
402,192,261415,1,0,0:0:0:0:
329,192,261515,1,0,0:0:0:0:
475,192,261615,1,0,0:0:0:0:
402,192,261615,1,0,0:0:0:0:
256,192,261615,1,0,0:0:0:0:
402,192,261815,1,0,0:0:0:0:
329,192,261815,1,0,0:0:0:0:
109,192,261815,1,0,0:0:0:0:
182,192,261915,1,0,0:0:0:0:
475,192,262015,1,0,0:0:0:0:
402,192,262015,1,0,0:0:0:0:
256,192,262015,1,0,0:0:0:0:
36,192,262215,1,0,0:0:0:0:
109,192,262315,1,0,0:0:0:0:
475,192,262415,1,0,0:0:0:0:
329,192,262415,1,0,0:0:0:0:
182,192,262415,1,0,0:0:0:0:
109,192,262515,1,0,0:0:0:0:
402,192,262515,1,0,0:0:0:0:
256,192,262515,1,0,0:0:0:0:
182,192,262615,1,0,0:0:0:0:
109,192,262715,1,0,0:0:0:0:
36,192,262815,128,0,262915:0:0:0:0:
475,192,262815,128,0,262915:0:0:0:0:
256,192,262815,1,0,0:0:0:0:
182,192,262915,1,0,0:0:0:0:
329,192,262915,1,0,0:0:0:0:
402,192,262915,128,0,263015:0:0:0:0:
109,192,262915,128,0,263015:0:0:0:0:
256,192,263015,1,0,0:0:0:0:
36,192,263015,128,0,263115:0:0:0:0:
475,192,263015,128,0,263115:0:0:0:0:
329,192,263115,128,0,263415:0:0:0:0:
182,192,263115,128,0,263415:0:0:0:0:
256,192,263415,1,0,0:0:0:0:
109,192,263415,128,0,263515:0:0:0:0:
402,192,263415,128,0,263515:0:0:0:0:
182,192,263515,1,0,0:0:0:0:
329,192,263515,1,0,0:0:0:0:
475,192,263515,128,0,263615:0:0:0:0:
36,192,263515,128,0,263615:0:0:0:0:
256,192,263615,1,0,0:0:0:0:
109,192,263615,128,0,263715:0:0:0:0:
402,192,263615,128,0,263715:0:0:0:0:
182,192,263715,128,0,264015:0:0:0:0:
329,192,263715,128,0,264015:0:0:0:0:
36,192,264015,1,0,0:0:0:0:
109,192,264015,1,0,0:0:0:0:
475,192,264015,128,0,264315:0:0:0:0:
402,192,264315,1,0,0:0:0:0:
329,192,264315,128,0,264915:0:0:0:0:
182,192,264415,128,0,265015:0:0:0:0:
36,192,264515,128,0,265115:0:0:0:0:
256,192,264615,1,0,0:0:0:0:
475,192,264615,128,0,264915:0:0:0:0:
109,192,264915,1,0,0:0:0:0:
402,192,264915,128,0,265215:0:0:0:0:
256,192,265015,128,0,265215:0:0:0:0:
109,192,265115,128,0,265215:0:0:0:0:
36,192,265215,1,0,0:0:0:0:
475,192,265215,1,0,0:0:0:0:
182,192,265215,1,0,0:0:0:0:
256,192,265290,1,0,0:0:0:0:
109,192,265365,1,0,0:0:0:0:
475,192,265365,1,0,0:0:0:0:
329,192,265365,1,0,0:0:0:0:
402,192,265440,1,0,0:0:0:0:
109,192,265515,1,0,0:0:0:0:
182,192,265590,1,0,0:0:0:0:
475,192,265665,1,0,0:0:0:0:
36,192,265665,1,0,0:0:0:0:
256,192,265665,1,0,0:0:0:0:
329,192,265740,1,0,0:0:0:0:
36,192,265815,1,0,0:0:0:0:
109,192,265890,1,0,0:0:0:0:
475,192,265965,1,0,0:0:0:0:
329,192,265965,1,0,0:0:0:0:
182,192,265965,1,0,0:0:0:0:
256,192,266040,1,0,0:0:0:0:
475,192,266115,1,0,0:0:0:0:
402,192,266190,1,0,0:0:0:0:
475,192,266265,1,0,0:0:0:0:
109,192,266265,1,0,0:0:0:0:
329,192,266265,1,0,0:0:0:0:
402,192,266340,1,0,0:0:0:0:
256,192,266415,1,0,0:0:0:0:
475,192,266415,1,0,0:0:0:0:
182,192,266490,1,0,0:0:0:0:
475,192,266565,1,0,0:0:0:0:
256,192,266565,1,0,0:0:0:0:
109,192,266565,1,0,0:0:0:0:
36,192,266640,1,0,0:0:0:0:
329,192,266715,1,0,0:0:0:0:
256,192,266790,1,0,0:0:0:0:
36,192,266865,1,0,0:0:0:0:
475,192,266865,1,0,0:0:0:0:
182,192,266865,1,0,0:0:0:0:
109,192,266940,1,0,0:0:0:0:
402,192,267015,1,0,0:0:0:0:
329,192,267090,1,0,0:0:0:0:
475,192,267165,1,0,0:0:0:0:
36,192,267165,1,0,0:0:0:0:
256,192,267165,1,0,0:0:0:0:
182,192,267240,1,0,0:0:0:0:
256,192,267315,1,0,0:0:0:0:
329,192,267390,1,0,0:0:0:0:
182,192,267465,1,0,0:0:0:0:
109,192,267465,1,0,0:0:0:0:
402,192,267465,1,0,0:0:0:0:
475,192,267540,1,0,0:0:0:0:
256,192,267615,1,0,0:0:0:0:
36,192,267615,128,0,267690:0:0:0:0:
329,192,267690,1,0,0:0:0:0:
109,192,267690,128,0,267765:0:0:0:0:
36,192,267765,1,0,0:0:0:0:
256,192,267765,1,0,0:0:0:0:
182,192,267765,128,0,267840:0:0:0:0:
402,192,267765,1,0,0:0:0:0:
329,192,267840,1,0,0:0:0:0:
475,192,267840,128,0,267915:0:0:0:0:
256,192,267915,1,0,0:0:0:0:
402,192,267915,128,0,267990:0:0:0:0:
182,192,267990,1,0,0:0:0:0:
329,192,267990,128,0,268065:0:0:0:0:
402,192,268065,1,0,0:0:0:0:
475,192,268065,1,0,0:0:0:0:
36,192,268065,128,0,268140:0:0:0:0:
256,192,268065,1,0,0:0:0:0:
329,192,268140,1,0,0:0:0:0:
109,192,268140,128,0,268215:0:0:0:0:
402,192,268215,1,0,0:0:0:0:
182,192,268215,128,0,268290:0:0:0:0:
329,192,268290,1,0,0:0:0:0:
475,192,268290,128,0,268365:0:0:0:0:
109,192,268365,1,0,0:0:0:0:
36,192,268365,1,0,0:0:0:0:
402,192,268365,128,0,268440:0:0:0:0:
256,192,268365,1,0,0:0:0:0:
182,192,268440,1,0,0:0:0:0:
329,192,268440,128,0,268515:0:0:0:0:
109,192,268515,1,0,0:0:0:0:
256,192,268515,128,0,268815:0:0:0:0:
475,192,268590,1,0,0:0:0:0:
36,192,268665,1,0,0:0:0:0:
182,192,268665,1,0,0:0:0:0:
402,192,268665,1,0,0:0:0:0:
329,192,268740,1,0,0:0:0:0:
402,192,268815,1,0,0:0:0:0:
475,192,268890,1,0,0:0:0:0:
402,192,268965,1,0,0:0:0:0:
182,192,268965,1,0,0:0:0:0:
36,192,268965,1,0,0:0:0:0:
109,192,269040,1,0,0:0:0:0:
182,192,269115,1,0,0:0:0:0:
109,192,269190,1,0,0:0:0:0:
402,192,269265,1,0,0:0:0:0:
256,192,269265,1,0,0:0:0:0:
36,192,269265,1,0,0:0:0:0:
475,192,269340,1,0,0:0:0:0:
402,192,269415,1,0,0:0:0:0:
329,192,269490,1,0,0:0:0:0:
475,192,269565,1,0,0:0:0:0:
36,192,269565,1,0,0:0:0:0:
256,192,269565,1,0,0:0:0:0:
182,192,269640,1,0,0:0:0:0:
109,192,269715,1,0,0:0:0:0:
36,192,269790,1,0,0:0:0:0:
329,192,269865,1,0,0:0:0:0:
182,192,269865,1,0,0:0:0:0:
475,192,269865,1,0,0:0:0:0:
402,192,269940,1,0,0:0:0:0:
329,192,270015,1,0,0:0:0:0:
256,192,270215,1,0,0:0:0:0:
182,192,270215,1,0,0:0:0:0:
109,192,270215,1,0,0:0:0:0:
475,192,270315,1,0,0:0:0:0:
402,192,270315,1,0,0:0:0:0:
329,192,270315,1,0,0:0:0:0:
36,192,270415,1,0,0:0:0:0:
109,192,270415,1,0,0:0:0:0:
182,192,270415,1,0,0:0:0:0:
402,192,270515,1,0,0:0:0:0:
329,192,270515,1,0,0:0:0:0:
256,192,270515,1,0,0:0:0:0:
36,192,270615,1,0,0:0:0:0:
109,192,270615,1,0,0:0:0:0:
475,192,270615,1,0,0:0:0:0:
329,192,270715,1,0,0:0:0:0:
182,192,270715,1,0,0:0:0:0:
36,192,270815,1,0,0:0:0:0:
475,192,270815,1,0,0:0:0:0:
402,192,270815,1,0,0:0:0:0:
256,192,270915,1,0,0:0:0:0:
109,192,270915,1,0,0:0:0:0:
182,192,271015,1,0,0:0:0:0:
402,192,271015,1,0,0:0:0:0:
329,192,271015,1,0,0:0:0:0:
475,192,271115,1,0,0:0:0:0:
256,192,271115,1,0,0:0:0:0:
36,192,271215,1,0,0:0:0:0:
329,192,271215,1,0,0:0:0:0:
402,192,271215,1,0,0:0:0:0:
256,192,271415,1,0,0:0:0:0:
109,192,271415,1,0,0:0:0:0:
475,192,271515,1,0,0:0:0:0:
329,192,271515,1,0,0:0:0:0:
182,192,271515,1,0,0:0:0:0:
402,192,271615,1,0,0:0:0:0:
256,192,271615,1,0,0:0:0:0:
36,192,271815,1,0,0:0:0:0:
256,192,271815,1,0,0:0:0:0:
475,192,271815,1,0,0:0:0:0:
402,192,271915,1,0,0:0:0:0:
182,192,271915,1,0,0:0:0:0:
109,192,272015,1,0,0:0:0:0:
329,192,272015,1,0,0:0:0:0:
36,192,272115,1,0,0:0:0:0:
402,192,272115,1,0,0:0:0:0:
182,192,272115,1,0,0:0:0:0:
475,192,272215,1,0,0:0:0:0:
256,192,272215,1,0,0:0:0:0:
402,192,272315,1,0,0:0:0:0:
182,192,272315,1,0,0:0:0:0:
475,192,272415,128,0,272515:0:0:0:0:
36,192,272415,128,0,272515:0:0:0:0:
256,192,272415,1,0,0:0:0:0:
402,192,272515,128,0,272615:0:0:0:0:
329,192,272515,1,0,0:0:0:0:
182,192,272515,1,0,0:0:0:0:
109,192,272515,128,0,272615:0:0:0:0:
256,192,272615,1,0,0:0:0:0:
475,192,272615,128,0,272715:0:0:0:0:
36,192,272615,128,0,272715:0:0:0:0:
329,192,272715,128,0,273015:0:0:0:0:
182,192,272715,128,0,273015:0:0:0:0:
256,192,273015,1,0,0:0:0:0:
402,192,273015,128,0,273115:0:0:0:0:
109,192,273015,128,0,273115:0:0:0:0:
182,192,273115,1,0,0:0:0:0:
329,192,273115,1,0,0:0:0:0:
36,192,273115,128,0,273215:0:0:0:0:
475,192,273115,128,0,273215:0:0:0:0:
256,192,273215,1,0,0:0:0:0:
402,192,273215,128,0,273315:0:0:0:0:
109,192,273215,128,0,273315:0:0:0:0:
329,192,273315,128,0,273615:0:0:0:0:
182,192,273315,128,0,273615:0:0:0:0:
475,192,273615,1,0,0:0:0:0:
256,192,273615,1,0,0:0:0:0:
36,192,273615,1,0,0:0:0:0:
109,192,273815,1,0,0:0:0:0:
256,192,273815,1,0,0:0:0:0:
402,192,273815,1,0,0:0:0:0:
329,192,273915,1,0,0:0:0:0:
475,192,274015,1,0,0:0:0:0:
36,192,274015,1,0,0:0:0:0:
256,192,274015,1,0,0:0:0:0:
182,192,274115,1,0,0:0:0:0:
402,192,274215,1,0,0:0:0:0:
109,192,274215,1,0,0:0:0:0:
256,192,274215,1,0,0:0:0:0:
256,192,274415,1,0,0:0:0:0:
36,192,274515,1,0,0:0:0:0:
329,192,274515,1,0,0:0:0:0:
182,192,274515,1,0,0:0:0:0:
475,192,274515,1,0,0:0:0:0:
256,192,274615,1,0,0:0:0:0:
109,192,274715,1,0,0:0:0:0:
329,192,274815,1,0,0:0:0:0:
36,192,274815,1,0,0:0:0:0:
475,192,274815,1,0,0:0:0:0:
109,192,275115,1,0,0:0:0:0:
402,192,275115,1,0,0:0:0:0:
182,192,275415,1,0,0:0:0:0:
475,192,275415,1,0,0:0:0:0:
256,192,275715,1,0,0:0:0:0:
402,192,275715,1,0,0:0:0:0:
36,192,276015,1,0,0:0:0:0:
109,192,276015,1,0,0:0:0:0:
109,192,276315,1,0,0:0:0:0:
36,192,276315,1,0,0:0:0:0:
256,192,276615,1,0,0:0:0:0:
475,192,276615,1,0,0:0:0:0:
182,192,276915,1,0,0:0:0:0:
402,192,276915,1,0,0:0:0:0:
329,192,277215,1,0,0:0:0:0:
109,192,277215,1,0,0:0:0:0:
36,192,277215,1,0,0:0:0:0:
402,192,277515,1,0,0:0:0:0:
256,192,277515,1,0,0:0:0:0:
182,192,277515,1,0,0:0:0:0:
36,192,277815,1,0,0:0:0:0:
329,192,277815,1,0,0:0:0:0:
475,192,277815,1,0,0:0:0:0:
402,192,278115,1,0,0:0:0:0:
256,192,278115,1,0,0:0:0:0:
109,192,278115,1,0,0:0:0:0:
329,192,278415,1,0,0:0:0:0:
182,192,278415,1,0,0:0:0:0:
36,192,278715,1,0,0:0:0:0:
109,192,278715,1,0,0:0:0:0:
109,192,279015,1,0,0:0:0:0:
36,192,279015,1,0,0:0:0:0:
329,192,279015,1,0,0:0:0:0:
182,192,279315,1,0,0:0:0:0:
475,192,279315,1,0,0:0:0:0:
402,192,279315,1,0,0:0:0:0:
182,192,279615,1,0,0:0:0:0:
402,192,279615,1,0,0:0:0:0:
475,192,279615,1,0,0:0:0:0:
475,192,281115,1,0,0:0:0:0:
256,192,281115,1,0,0:0:0:0:
182,192,281415,1,0,0:0:0:0:
402,192,281415,1,0,0:0:0:0:
36,192,281715,1,0,0:0:0:0:
256,192,281715,1,0,0:0:0:0:
475,192,282015,1,0,0:0:0:0:
329,192,282015,1,0,0:0:0:0:
109,192,282015,1,0,0:0:0:0:
109,192,283215,1,0,0:0:0:0:
402,192,283215,1,0,0:0:0:0:
256,192,283215,1,0,0:0:0:0:
256,192,283815,1,0,0:0:0:0:
182,192,284415,1,0,0:0:0:0:
402,192,284415,1,0,0:0:0:0:
475,192,284415,1,0,0:0:0:0:
36,192,284415,1,0,0:0:0:0:
256,192,284490,1,0,0:0:0:0:
329,192,284490,1,0,0:0:0:0:
109,192,284565,1,0,0:0:0:0:
182,192,284565,1,0,0:0:0:0:
402,192,284565,1,0,0:0:0:0:
475,192,284640,1,0,0:0:0:0:
256,192,284640,1,0,0:0:0:0:
402,192,284715,1,0,0:0:0:0:
182,192,284715,1,0,0:0:0:0:
36,192,284715,1,0,0:0:0:0:
329,192,284790,1,0,0:0:0:0:
109,192,284790,1,0,0:0:0:0:
36,192,284865,1,0,0:0:0:0:
475,192,284865,1,0,0:0:0:0:
256,192,284865,1,0,0:0:0:0:
402,192,284940,1,0,0:0:0:0:
109,192,284940,1,0,0:0:0:0:
475,192,285015,1,0,0:0:0:0:
182,192,285015,1,0,0:0:0:0:
36,192,285015,1,0,0:0:0:0:
109,192,285090,1,0,0:0:0:0:
256,192,285090,1,0,0:0:0:0:
36,192,285165,1,0,0:0:0:0:
329,192,285165,1,0,0:0:0:0:
182,192,285165,1,0,0:0:0:0:
109,192,285240,1,0,0:0:0:0:
402,192,285240,1,0,0:0:0:0:
475,192,285315,1,0,0:0:0:0:
182,192,285315,1,0,0:0:0:0:
329,192,285315,1,0,0:0:0:0:
109,192,285390,1,0,0:0:0:0:
256,192,285390,1,0,0:0:0:0:
329,192,285465,1,0,0:0:0:0:
182,192,285465,1,0,0:0:0:0:
475,192,285465,1,0,0:0:0:0:
256,192,285540,1,0,0:0:0:0:
109,192,285540,1,0,0:0:0:0:
182,192,285615,1,0,0:0:0:0:
36,192,285615,1,0,0:0:0:0:
402,192,285615,1,0,0:0:0:0:
109,192,285690,1,0,0:0:0:0:
329,192,285690,1,0,0:0:0:0:
36,192,285765,1,0,0:0:0:0:
256,192,285765,1,0,0:0:0:0:
475,192,285765,1,0,0:0:0:0:
402,192,285840,1,0,0:0:0:0:
109,192,285840,1,0,0:0:0:0:
329,192,285915,1,0,0:0:0:0:
36,192,285915,1,0,0:0:0:0:
182,192,285915,1,0,0:0:0:0:
256,192,285990,1,0,0:0:0:0:
109,192,285990,1,0,0:0:0:0:
475,192,286065,1,0,0:0:0:0:
329,192,286065,1,0,0:0:0:0:
36,192,286065,1,0,0:0:0:0:
256,192,286140,1,0,0:0:0:0:
402,192,286140,1,0,0:0:0:0:
329,192,286215,1,0,0:0:0:0:
182,192,286215,1,0,0:0:0:0:
109,192,286215,1,0,0:0:0:0:
475,192,286290,1,0,0:0:0:0:
256,192,286290,1,0,0:0:0:0:
182,192,286365,1,0,0:0:0:0:
36,192,286365,1,0,0:0:0:0:
329,192,286365,1,0,0:0:0:0:
256,192,286440,1,0,0:0:0:0:
109,192,286440,1,0,0:0:0:0:
329,192,286515,1,0,0:0:0:0:
36,192,286515,1,0,0:0:0:0:
402,192,286515,1,0,0:0:0:0:
182,192,286590,1,0,0:0:0:0:
109,192,286665,1,0,0:0:0:0:
475,192,286665,1,0,0:0:0:0:
256,192,286665,1,0,0:0:0:0:
36,192,286740,1,0,0:0:0:0:
402,192,286740,1,0,0:0:0:0:
329,192,286815,1,0,0:0:0:0:
256,192,286815,1,0,0:0:0:0:
109,192,286815,1,0,0:0:0:0:
402,192,286890,1,0,0:0:0:0:
182,192,286890,1,0,0:0:0:0:
475,192,286965,1,0,0:0:0:0:
109,192,286965,1,0,0:0:0:0:
36,192,286965,1,0,0:0:0:0:
402,192,287040,1,0,0:0:0:0:
182,192,287040,1,0,0:0:0:0:
36,192,287115,1,0,0:0:0:0:
475,192,287115,1,0,0:0:0:0:
256,192,287115,1,0,0:0:0:0:
402,192,287190,1,0,0:0:0:0:
109,192,287190,1,0,0:0:0:0:
182,192,287265,1,0,0:0:0:0:
36,192,287265,1,0,0:0:0:0:
329,192,287265,1,0,0:0:0:0:
109,192,287340,1,0,0:0:0:0:
475,192,287340,1,0,0:0:0:0:
402,192,287415,1,0,0:0:0:0:
182,192,287415,1,0,0:0:0:0:
36,192,287415,1,0,0:0:0:0:
109,192,287490,1,0,0:0:0:0:
256,192,287490,1,0,0:0:0:0:
182,192,287565,1,0,0:0:0:0:
475,192,287565,1,0,0:0:0:0:
36,192,287565,1,0,0:0:0:0:
256,192,287640,1,0,0:0:0:0:
402,192,287640,1,0,0:0:0:0:
36,192,287715,1,0,0:0:0:0:
329,192,287715,1,0,0:0:0:0:
475,192,287715,1,0,0:0:0:0:
109,192,287790,1,0,0:0:0:0:
256,192,287790,1,0,0:0:0:0:
182,192,287865,1,0,0:0:0:0:
329,192,287865,1,0,0:0:0:0:
36,192,287865,1,0,0:0:0:0:
109,192,287940,1,0,0:0:0:0:
402,192,287940,1,0,0:0:0:0:
36,192,288015,1,0,0:0:0:0:
475,192,288015,1,0,0:0:0:0:
256,192,288015,1,0,0:0:0:0:
402,192,288090,1,0,0:0:0:0:
109,192,288090,1,0,0:0:0:0:
329,192,288165,1,0,0:0:0:0:
36,192,288165,1,0,0:0:0:0:
256,192,288165,1,0,0:0:0:0:
475,192,288240,1,0,0:0:0:0:
109,192,288240,1,0,0:0:0:0:
182,192,288315,1,0,0:0:0:0:
329,192,288315,1,0,0:0:0:0:
402,192,288315,1,0,0:0:0:0:
475,192,288390,1,0,0:0:0:0:
36,192,288390,1,0,0:0:0:0:
109,192,288465,1,0,0:0:0:0:
402,192,288465,1,0,0:0:0:0:
182,192,288465,1,0,0:0:0:0:
256,192,288540,1,0,0:0:0:0:
36,192,288540,1,0,0:0:0:0:
109,192,288615,1,0,0:0:0:0:
329,192,288615,1,0,0:0:0:0:
475,192,288615,1,0,0:0:0:0:
402,192,288690,1,0,0:0:0:0:
256,192,288690,1,0,0:0:0:0:
475,192,288765,1,0,0:0:0:0:
36,192,288765,1,0,0:0:0:0:
182,192,288765,1,0,0:0:0:0:
402,192,288840,1,0,0:0:0:0:
109,192,288840,1,0,0:0:0:0:
36,192,288915,1,0,0:0:0:0:
475,192,288915,1,0,0:0:0:0:
329,192,288915,1,0,0:0:0:0:
402,192,288990,1,0,0:0:0:0:
256,192,288990,1,0,0:0:0:0:
329,192,289065,1,0,0:0:0:0:
182,192,289065,1,0,0:0:0:0:
475,192,289065,1,0,0:0:0:0:
402,192,289140,1,0,0:0:0:0:
109,192,289140,1,0,0:0:0:0:
329,192,289215,1,0,0:0:0:0:
36,192,289215,1,0,0:0:0:0:
256,192,289290,1,0,0:0:0:0:
109,192,289290,1,0,0:0:0:0:
182,192,289365,1,0,0:0:0:0:
475,192,289365,1,0,0:0:0:0:
109,192,289440,1,0,0:0:0:0:
402,192,289440,1,0,0:0:0:0:
36,192,289515,1,0,0:0:0:0:
329,192,289515,1,0,0:0:0:0:
182,192,289515,1,0,0:0:0:0:
475,192,289515,1,0,0:0:0:0:
402,192,289590,1,0,0:0:0:0:
256,192,289590,1,0,0:0:0:0:
329,192,289665,1,0,0:0:0:0:
182,192,289665,1,0,0:0:0:0:
256,192,289740,1,0,0:0:0:0:
109,192,289740,1,0,0:0:0:0:
182,192,289815,1,0,0:0:0:0:
36,192,289815,1,0,0:0:0:0:
109,192,289890,1,0,0:0:0:0:
329,192,289890,1,0,0:0:0:0:
475,192,289965,1,0,0:0:0:0:
256,192,289965,1,0,0:0:0:0:
402,192,290040,1,0,0:0:0:0:
182,192,290040,1,0,0:0:0:0:
329,192,290115,1,0,0:0:0:0:
109,192,290115,1,0,0:0:0:0:
475,192,290115,1,0,0:0:0:0:
182,192,290190,1,0,0:0:0:0:
36,192,290190,1,0,0:0:0:0:
109,192,290265,1,0,0:0:0:0:
402,192,290265,1,0,0:0:0:0:
256,192,290340,1,0,0:0:0:0:
475,192,290340,1,0,0:0:0:0:
329,192,290415,1,0,0:0:0:0:
109,192,290415,1,0,0:0:0:0:
36,192,290415,1,0,0:0:0:0:
402,192,290490,1,0,0:0:0:0:
182,192,290490,1,0,0:0:0:0:
475,192,290565,1,0,0:0:0:0:
256,192,290565,1,0,0:0:0:0:
109,192,290640,1,0,0:0:0:0:
329,192,290640,1,0,0:0:0:0:
182,192,290715,1,0,0:0:0:0:
402,192,290715,1,0,0:0:0:0:
36,192,290715,1,0,0:0:0:0:
329,192,290790,1,0,0:0:0:0:
475,192,290790,1,0,0:0:0:0:
402,192,290865,1,0,0:0:0:0:
109,192,290865,1,0,0:0:0:0:
329,192,290940,1,0,0:0:0:0:
182,192,290940,1,0,0:0:0:0:
36,192,291015,1,0,0:0:0:0:
475,192,291015,1,0,0:0:0:0:
402,192,291015,1,0,0:0:0:0:
109,192,291090,1,0,0:0:0:0:
329,192,291090,1,0,0:0:0:0:
182,192,291165,1,0,0:0:0:0:
402,192,291165,1,0,0:0:0:0:
256,192,291240,1,0,0:0:0:0:
475,192,291240,1,0,0:0:0:0:
329,192,291315,1,0,0:0:0:0:
109,192,291315,1,0,0:0:0:0:
182,192,291315,1,0,0:0:0:0:
256,192,291390,1,0,0:0:0:0:
36,192,291390,1,0,0:0:0:0:
182,192,291465,1,0,0:0:0:0:
402,192,291465,1,0,0:0:0:0:
109,192,291540,1,0,0:0:0:0:
329,192,291540,1,0,0:0:0:0:
36,192,291615,1,0,0:0:0:0:
475,192,291615,1,0,0:0:0:0:
256,192,291615,1,0,0:0:0:0:
402,192,291690,1,0,0:0:0:0:
182,192,291690,1,0,0:0:0:0:
329,192,291765,1,0,0:0:0:0:
109,192,291765,1,0,0:0:0:0:
256,192,291840,1,0,0:0:0:0:
36,192,291840,1,0,0:0:0:0:
109,192,291915,1,0,0:0:0:0:
475,192,291915,1,0,0:0:0:0:
329,192,291915,1,0,0:0:0:0:
402,192,291990,1,0,0:0:0:0:
182,192,291990,1,0,0:0:0:0:
329,192,292065,1,0,0:0:0:0:
36,192,292065,1,0,0:0:0:0:
256,192,292140,1,0,0:0:0:0:
109,192,292140,1,0,0:0:0:0:
182,192,292215,1,0,0:0:0:0:
329,192,292215,1,0,0:0:0:0:
402,192,292215,1,0,0:0:0:0:
475,192,292290,1,0,0:0:0:0:
256,192,292290,1,0,0:0:0:0:
402,192,292365,1,0,0:0:0:0:
182,192,292365,1,0,0:0:0:0:
329,192,292440,1,0,0:0:0:0:
109,192,292440,1,0,0:0:0:0:
256,192,292515,1,0,0:0:0:0:
36,192,292515,1,0,0:0:0:0:
475,192,292515,1,0,0:0:0:0:
329,192,292590,1,0,0:0:0:0:
109,192,292590,1,0,0:0:0:0:
402,192,292665,1,0,0:0:0:0:
182,192,292665,1,0,0:0:0:0:
475,192,292740,1,0,0:0:0:0:
256,192,292740,1,0,0:0:0:0:
36,192,292815,1,0,0:0:0:0:
329,192,292815,1,0,0:0:0:0:
182,192,292815,1,0,0:0:0:0:
109,192,292890,1,0,0:0:0:0:
402,192,292890,1,0,0:0:0:0:
182,192,292965,1,0,0:0:0:0:
475,192,292965,1,0,0:0:0:0:
256,192,293040,1,0,0:0:0:0:
402,192,293040,1,0,0:0:0:0:
182,192,293115,1,0,0:0:0:0:
329,192,293115,1,0,0:0:0:0:
36,192,293115,1,0,0:0:0:0:
475,192,293115,1,0,0:0:0:0:
109,192,293190,1,0,0:0:0:0:
402,192,293190,1,0,0:0:0:0:
329,192,293265,1,0,0:0:0:0:
182,192,293265,1,0,0:0:0:0:
402,192,293340,1,0,0:0:0:0:
109,192,293340,1,0,0:0:0:0:
182,192,293415,1,0,0:0:0:0:
329,192,293415,1,0,0:0:0:0:
36,192,293415,1,0,0:0:0:0:
475,192,293415,1,0,0:0:0:0:
256,192,293490,1,0,0:0:0:0:
402,192,293490,1,0,0:0:0:0:
109,192,293490,1,0,0:0:0:0:
182,192,293565,1,0,0:0:0:0:
36,192,293565,1,0,0:0:0:0:
329,192,293565,1,0,0:0:0:0:
475,192,293565,1,0,0:0:0:0:
402,192,293640,1,0,0:0:0:0:
256,192,293640,1,0,0:0:0:0:
109,192,293640,1,0,0:0:0:0:
182,192,293715,1,0,0:0:0:0:
329,192,293715,1,0,0:0:0:0:
256,192,293790,1,0,0:0:0:0:
475,192,293865,1,0,0:0:0:0:
36,192,293865,1,0,0:0:0:0:
402,192,293940,1,0,0:0:0:0:
109,192,293940,1,0,0:0:0:0:
329,192,294015,1,0,0:0:0:0:
182,192,294015,1,0,0:0:0:0:
36,192,294015,1,0,0:0:0:0:
475,192,294015,1,0,0:0:0:0:
256,192,294090,1,0,0:0:0:0:
402,192,294090,1,0,0:0:0:0:
182,192,294165,1,0,0:0:0:0:
475,192,294165,1,0,0:0:0:0:
329,192,294165,1,0,0:0:0:0:
109,192,294165,1,0,0:0:0:0:
36,192,294240,1,0,0:0:0:0:
256,192,294240,1,0,0:0:0:0:
109,192,294315,1,0,0:0:0:0:
402,192,294315,1,0,0:0:0:0:
182,192,294315,1,0,0:0:0:0:
329,192,294315,1,0,0:0:0:0:
256,192,294390,1,0,0:0:0:0:
475,192,294390,1,0,0:0:0:0:
182,192,294465,1,0,0:0:0:0:
402,192,294465,1,0,0:0:0:0:
36,192,294465,1,0,0:0:0:0:
329,192,294465,1,0,0:0:0:0:
109,192,294540,1,0,0:0:0:0:
475,192,294540,1,0,0:0:0:0:
36,192,294615,1,0,0:0:0:0:
256,192,294615,1,0,0:0:0:0:
329,192,294615,1,0,0:0:0:0:
182,192,294615,1,0,0:0:0:0:
402,192,294690,1,0,0:0:0:0:
109,192,294690,1,0,0:0:0:0:
329,192,294765,1,0,0:0:0:0:
36,192,294765,1,0,0:0:0:0:
182,192,294765,1,0,0:0:0:0:
475,192,294765,1,0,0:0:0:0:
256,192,294840,1,0,0:0:0:0:
109,192,294840,1,0,0:0:0:0:
182,192,294915,1,0,0:0:0:0:
329,192,294915,1,0,0:0:0:0:
402,192,294915,1,0,0:0:0:0:
36,192,294915,1,0,0:0:0:0:
475,192,294990,1,0,0:0:0:0:
256,192,294990,1,0,0:0:0:0:
402,192,295065,1,0,0:0:0:0:
182,192,295065,1,0,0:0:0:0:
36,192,295065,1,0,0:0:0:0:
329,192,295065,1,0,0:0:0:0:
475,192,295140,1,0,0:0:0:0:
109,192,295140,1,0,0:0:0:0:
256,192,295215,1,0,0:0:0:0:
36,192,295215,1,0,0:0:0:0:
402,192,295215,1,0,0:0:0:0:
182,192,295215,1,0,0:0:0:0:
329,192,295290,1,0,0:0:0:0:
475,192,295290,1,0,0:0:0:0:
402,192,295365,1,0,0:0:0:0:
109,192,295365,1,0,0:0:0:0:
182,192,295365,1,0,0:0:0:0:
36,192,295365,1,0,0:0:0:0:
256,192,295440,1,0,0:0:0:0:
329,192,295440,1,0,0:0:0:0:
182,192,295515,1,0,0:0:0:0:
36,192,295515,1,0,0:0:0:0:
402,192,295515,1,0,0:0:0:0:
475,192,295515,1,0,0:0:0:0:
256,192,295590,1,0,0:0:0:0:
109,192,295590,1,0,0:0:0:0:
475,192,295665,1,0,0:0:0:0:
182,192,295665,1,0,0:0:0:0:
329,192,295665,1,0,0:0:0:0:
36,192,295665,1,0,0:0:0:0:
402,192,295740,1,0,0:0:0:0:
109,192,295740,1,0,0:0:0:0:
329,192,295815,1,0,0:0:0:0:
475,192,295815,1,0,0:0:0:0:
36,192,295815,1,0,0:0:0:0:
256,192,295815,1,0,0:0:0:0:
182,192,295890,1,0,0:0:0:0:
402,192,295890,1,0,0:0:0:0:
256,192,295965,1,0,0:0:0:0:
475,192,295965,1,0,0:0:0:0:
36,192,295965,1,0,0:0:0:0:
109,192,295965,1,0,0:0:0:0:
329,192,296040,1,0,0:0:0:0:
182,192,296040,1,0,0:0:0:0:
36,192,296115,1,0,0:0:0:0:
256,192,296115,1,0,0:0:0:0:
402,192,296115,1,0,0:0:0:0:
475,192,296115,1,0,0:0:0:0:
182,192,296190,1,0,0:0:0:0:
329,192,296190,1,0,0:0:0:0:
109,192,296265,1,0,0:0:0:0:
402,192,296265,1,0,0:0:0:0:
256,192,296265,1,0,0:0:0:0:
36,192,296265,1,0,0:0:0:0:
329,192,296340,1,0,0:0:0:0:
475,192,296340,1,0,0:0:0:0:
182,192,296415,1,0,0:0:0:0:
402,192,296415,1,0,0:0:0:0:
36,192,296415,1,0,0:0:0:0:
256,192,296415,1,0,0:0:0:0:
109,192,296490,1,0,0:0:0:0:
329,192,296490,1,0,0:0:0:0:
36,192,296565,1,0,0:0:0:0:
475,192,296565,1,0,0:0:0:0:
402,192,296565,1,0,0:0:0:0:
182,192,296565,1,0,0:0:0:0:
256,192,296640,1,0,0:0:0:0:
109,192,296640,1,0,0:0:0:0:
402,192,296715,1,0,0:0:0:0:
36,192,296715,1,0,0:0:0:0:
182,192,296715,1,0,0:0:0:0:
329,192,296715,1,0,0:0:0:0:
256,192,296790,1,0,0:0:0:0:
109,192,296790,1,0,0:0:0:0:
329,192,296865,1,0,0:0:0:0:
475,192,296865,1,0,0:0:0:0:
182,192,296865,1,0,0:0:0:0:
36,192,296865,1,0,0:0:0:0:
256,192,296940,1,0,0:0:0:0:
402,192,296940,1,0,0:0:0:0:
109,192,297015,1,0,0:0:0:0:
329,192,297015,1,0,0:0:0:0:
182,192,297015,1,0,0:0:0:0:
475,192,297015,1,0,0:0:0:0:
36,192,297090,1,0,0:0:0:0:
402,192,297090,1,0,0:0:0:0:
256,192,297165,1,0,0:0:0:0:
475,192,297165,1,0,0:0:0:0:
329,192,297165,1,0,0:0:0:0:
109,192,297165,1,0,0:0:0:0:
402,192,297240,1,0,0:0:0:0:
182,192,297240,1,0,0:0:0:0:
329,192,297315,1,0,0:0:0:0:
109,192,297315,1,0,0:0:0:0:
36,192,297315,1,0,0:0:0:0:
475,192,297315,1,0,0:0:0:0:
402,192,297390,1,0,0:0:0:0:
256,192,297390,1,0,0:0:0:0:
182,192,297465,1,0,0:0:0:0:
329,192,297465,1,0,0:0:0:0:
109,192,297465,1,0,0:0:0:0:
475,192,297465,1,0,0:0:0:0:
256,192,297540,1,0,0:0:0:0:
402,192,297540,1,0,0:0:0:0:
329,192,297615,1,0,0:0:0:0:
182,192,297615,1,0,0:0:0:0:
475,192,297615,1,0,0:0:0:0:
36,192,297615,1,0,0:0:0:0:
402,192,297690,1,0,0:0:0:0:
109,192,297690,1,0,0:0:0:0:
329,192,297765,1,0,0:0:0:0:
36,192,297765,1,0,0:0:0:0:
256,192,297765,1,0,0:0:0:0:
475,192,297765,1,0,0:0:0:0:
109,192,297840,1,0,0:0:0:0:
402,192,297840,1,0,0:0:0:0:
182,192,297915,1,0,0:0:0:0:
475,192,297915,1,0,0:0:0:0:
329,192,297915,1,0,0:0:0:0:
36,192,297915,1,0,0:0:0:0:
109,192,297990,1,0,0:0:0:0:
402,192,297990,1,0,0:0:0:0:
36,192,298065,1,0,0:0:0:0:
182,192,298065,1,0,0:0:0:0:
329,192,298065,1,0,0:0:0:0:
475,192,298065,1,0,0:0:0:0:
402,192,298140,1,0,0:0:0:0:
256,192,298140,1,0,0:0:0:0:
475,192,298215,1,0,0:0:0:0:
36,192,298215,1,0,0:0:0:0:
329,192,298215,1,0,0:0:0:0:
109,192,298215,1,0,0:0:0:0:
182,192,298290,1,0,0:0:0:0:
402,192,298290,1,0,0:0:0:0:
109,192,298365,1,0,0:0:0:0:
36,192,298365,1,0,0:0:0:0:
329,192,298365,1,0,0:0:0:0:
475,192,298365,1,0,0:0:0:0:
256,192,298440,1,0,0:0:0:0:
402,192,298440,1,0,0:0:0:0:
329,192,298515,1,0,0:0:0:0:
475,192,298515,1,0,0:0:0:0:
36,192,298515,1,0,0:0:0:0:
182,192,298515,1,0,0:0:0:0:
256,192,298590,1,0,0:0:0:0:
402,192,298590,1,0,0:0:0:0:
109,192,298665,1,0,0:0:0:0:
182,192,298665,1,0,0:0:0:0:
329,192,298665,1,0,0:0:0:0:
475,192,298665,1,0,0:0:0:0:
36,192,298740,1,0,0:0:0:0:
256,192,298740,1,0,0:0:0:0:
182,192,298815,1,0,0:0:0:0:
109,192,298815,1,0,0:0:0:0:
402,192,298815,1,0,0:0:0:0:
475,192,298815,1,0,0:0:0:0:
329,192,298890,1,0,0:0:0:0:
36,192,298890,1,0,0:0:0:0:
402,192,298965,1,0,0:0:0:0:
256,192,298965,1,0,0:0:0:0:
475,192,299040,1,0,0:0:0:0:
329,192,299040,1,0,0:0:0:0:
182,192,299115,1,0,0:0:0:0:
402,192,299115,1,0,0:0:0:0:
109,192,299115,1,0,0:0:0:0:
256,192,299115,1,0,0:0:0:0:
329,192,299190,1,0,0:0:0:0:
475,192,299190,1,0,0:0:0:0:
402,192,299265,1,0,0:0:0:0:
256,192,299265,1,0,0:0:0:0:
475,192,299340,1,0,0:0:0:0:
182,192,299340,1,0,0:0:0:0:
109,192,299415,1,0,0:0:0:0:
402,192,299415,1,0,0:0:0:0:
36,192,299415,1,0,0:0:0:0:
182,192,299490,1,0,0:0:0:0:
329,192,299490,1,0,0:0:0:0:
256,192,299565,1,0,0:0:0:0:
402,192,299565,1,0,0:0:0:0:
329,192,299640,1,0,0:0:0:0:
182,192,299640,1,0,0:0:0:0:
402,192,299715,1,0,0:0:0:0:
109,192,299715,1,0,0:0:0:0:
475,192,299715,1,0,0:0:0:0:
182,192,299790,1,0,0:0:0:0:
329,192,299790,1,0,0:0:0:0:
109,192,299865,1,0,0:0:0:0:
256,192,299865,1,0,0:0:0:0:
36,192,299940,1,0,0:0:0:0:
329,192,299940,1,0,0:0:0:0:
402,192,300015,1,0,0:0:0:0:
109,192,300015,1,0,0:0:0:0:
475,192,300015,1,0,0:0:0:0:
256,192,300090,1,0,0:0:0:0:
36,192,300090,1,0,0:0:0:0:
402,192,300165,1,0,0:0:0:0:
329,192,300165,1,0,0:0:0:0:
36,192,300240,1,0,0:0:0:0:
475,192,300240,1,0,0:0:0:0:
256,192,300315,1,0,0:0:0:0:
109,192,300315,1,0,0:0:0:0:
329,192,300315,1,0,0:0:0:0:
475,192,300390,1,0,0:0:0:0:
182,192,300390,1,0,0:0:0:0:
109,192,300465,1,0,0:0:0:0:
402,192,300465,1,0,0:0:0:0:
182,192,300540,1,0,0:0:0:0:
36,192,300540,1,0,0:0:0:0:
475,192,300615,1,0,0:0:0:0:
329,192,300615,1,0,0:0:0:0:
256,192,300615,1,0,0:0:0:0:
402,192,300690,1,0,0:0:0:0:
182,192,300690,1,0,0:0:0:0:
36,192,300765,1,0,0:0:0:0:
475,192,300765,1,0,0:0:0:0:
402,192,300840,1,0,0:0:0:0:
109,192,300840,1,0,0:0:0:0:
329,192,300915,1,0,0:0:0:0:
182,192,300915,1,0,0:0:0:0:
36,192,300915,1,0,0:0:0:0:
475,192,300915,1,0,0:0:0:0:
402,192,300990,1,0,0:0:0:0:
256,192,300990,1,0,0:0:0:0:
475,192,301065,1,0,0:0:0:0:
36,192,301065,1,0,0:0:0:0:
109,192,301140,1,0,0:0:0:0:
402,192,301140,1,0,0:0:0:0:
182,192,301215,1,0,0:0:0:0:
36,192,301215,1,0,0:0:0:0:
329,192,301215,1,0,0:0:0:0:
475,192,301215,1,0,0:0:0:0:
402,192,301290,1,0,0:0:0:0:
256,192,301290,1,0,0:0:0:0:
109,192,301290,1,0,0:0:0:0:
36,192,301365,1,0,0:0:0:0:
182,192,301365,1,0,0:0:0:0:
329,192,301365,1,0,0:0:0:0:
475,192,301365,1,0,0:0:0:0:
402,192,301440,1,0,0:0:0:0:
256,192,301440,1,0,0:0:0:0:
109,192,301440,1,0,0:0:0:0:
182,192,301515,1,0,0:0:0:0:
329,192,301515,1,0,0:0:0:0:
256,192,301590,1,0,0:0:0:0:
475,192,301665,1,0,0:0:0:0:
36,192,301665,1,0,0:0:0:0:
402,192,301740,1,0,0:0:0:0:
109,192,301740,1,0,0:0:0:0:
329,192,301815,1,0,0:0:0:0:
256,192,301815,1,0,0:0:0:0:
182,192,301815,1,0,0:0:0:0:
109,192,301890,1,0,0:0:0:0:
36,192,301890,1,0,0:0:0:0:
402,192,301890,1,0,0:0:0:0:
475,192,301890,1,0,0:0:0:0:
182,192,301965,1,0,0:0:0:0:
256,192,301965,1,0,0:0:0:0:
329,192,301965,1,0,0:0:0:0:
475,192,302040,1,0,0:0:0:0:
402,192,302040,1,0,0:0:0:0:
109,192,302040,1,0,0:0:0:0:
36,192,302040,1,0,0:0:0:0:
182,192,302115,1,0,0:0:0:0:
329,192,302115,1,0,0:0:0:0:
256,192,302190,1,0,0:0:0:0:
402,192,302265,1,0,0:0:0:0:
109,192,302265,1,0,0:0:0:0:
329,192,302340,1,0,0:0:0:0:
182,192,302340,1,0,0:0:0:0:
256,192,302415,1,0,0:0:0:0:
36,192,302415,1,0,0:0:0:0:
475,192,302415,1,0,0:0:0:0:
402,192,302490,1,0,0:0:0:0:
329,192,302490,1,0,0:0:0:0:
182,192,302490,1,0,0:0:0:0:
109,192,302490,1,0,0:0:0:0:
256,192,302565,1,0,0:0:0:0:
36,192,302565,1,0,0:0:0:0:
475,192,302565,1,0,0:0:0:0:
109,192,302640,1,0,0:0:0:0:
182,192,302640,1,0,0:0:0:0:
402,192,302640,1,0,0:0:0:0:
329,192,302640,1,0,0:0:0:0:
256,192,302715,1,0,0:0:0:0:
36,192,302715,1,0,0:0:0:0:
475,192,302715,1,0,0:0:0:0:
109,192,302790,1,0,0:0:0:0:
402,192,302790,1,0,0:0:0:0:
475,192,302865,1,0,0:0:0:0:
36,192,302865,1,0,0:0:0:0:
256,192,302865,1,0,0:0:0:0:
329,192,302940,1,0,0:0:0:0:
182,192,302940,1,0,0:0:0:0:
109,192,303015,128,0,303165:0:0:0:0:
256,192,303015,128,0,303165:0:0:0:0:
475,192,303015,128,0,303165:0:0:0:0:
182,192,303165,128,0,303315:0:0:0:0:
36,192,303165,128,0,303315:0:0:0:0:
402,192,303165,128,0,303315:0:0:0:0:
329,192,303315,128,0,303465:0:0:0:0:
475,192,303315,128,0,303465:0:0:0:0:
109,192,303315,128,0,303465:0:0:0:0:
36,192,303465,128,0,303615:0:0:0:0:
256,192,303465,128,0,303615:0:0:0:0:
402,192,303465,128,0,303615:0:0:0:0:
182,192,303615,1,0,0:0:0:0:
329,192,303615,1,0,0:0:0:0:
109,192,303615,1,0,0:0:0:0:
475,192,303615,1,0,0:0:0:0:
256,192,303690,1,0,0:0:0:0:
402,192,303690,1,0,0:0:0:0:
36,192,303765,1,0,0:0:0:0:
475,192,303765,1,0,0:0:0:0:
182,192,303765,1,0,0:0:0:0:
109,192,303765,1,0,0:0:0:0:
256,192,303840,1,0,0:0:0:0:
402,192,303840,1,0,0:0:0:0:
182,192,303915,1,0,0:0:0:0:
475,192,303915,1,0,0:0:0:0:
36,192,303915,1,0,0:0:0:0:
329,192,303915,1,0,0:0:0:0:
109,192,303990,1,0,0:0:0:0:
402,192,303990,1,0,0:0:0:0:
329,192,304065,1,0,0:0:0:0:
182,192,304065,1,0,0:0:0:0:
475,192,304065,1,0,0:0:0:0:
36,192,304065,1,0,0:0:0:0:
256,192,304140,1,0,0:0:0:0:
109,192,304140,1,0,0:0:0:0:
182,192,304215,1,0,0:0:0:0:
36,192,304215,1,0,0:0:0:0:
329,192,304215,1,0,0:0:0:0:
475,192,304215,1,0,0:0:0:0:
402,192,304290,1,0,0:0:0:0:
256,192,304290,1,0,0:0:0:0:
329,192,304365,1,0,0:0:0:0:
182,192,304365,1,0,0:0:0:0:
475,192,304365,1,0,0:0:0:0:
109,192,304365,1,0,0:0:0:0:
256,192,304440,1,0,0:0:0:0:
36,192,304440,1,0,0:0:0:0:
475,192,304515,1,0,0:0:0:0:
109,192,304515,1,0,0:0:0:0:
329,192,304515,1,0,0:0:0:0:
402,192,304515,1,0,0:0:0:0:
256,192,304590,1,0,0:0:0:0:
182,192,304590,1,0,0:0:0:0:
329,192,304665,1,0,0:0:0:0:
109,192,304665,1,0,0:0:0:0:
402,192,304665,1,0,0:0:0:0:
475,192,304665,1,0,0:0:0:0:
256,192,304740,1,0,0:0:0:0:
36,192,304740,1,0,0:0:0:0:
182,192,304815,1,0,0:0:0:0:
402,192,304815,1,0,0:0:0:0:
329,192,304815,1,0,0:0:0:0:
109,192,304815,1,0,0:0:0:0:
256,192,304890,1,0,0:0:0:0:
475,192,304890,1,0,0:0:0:0:
36,192,304965,1,0,0:0:0:0:
182,192,304965,1,0,0:0:0:0:
402,192,304965,1,0,0:0:0:0:
329,192,304965,1,0,0:0:0:0:
256,192,305040,1,0,0:0:0:0:
109,192,305040,1,0,0:0:0:0:
402,192,305115,1,0,0:0:0:0:
475,192,305115,1,0,0:0:0:0:
182,192,305115,1,0,0:0:0:0:
36,192,305115,1,0,0:0:0:0:
109,192,305190,1,0,0:0:0:0:
329,192,305190,1,0,0:0:0:0:
256,192,305265,1,0,0:0:0:0:
182,192,305265,1,0,0:0:0:0:
402,192,305265,1,0,0:0:0:0:
36,192,305265,1,0,0:0:0:0:
329,192,305340,1,0,0:0:0:0:
109,192,305340,1,0,0:0:0:0:
402,192,305415,1,0,0:0:0:0:
36,192,305415,1,0,0:0:0:0:
256,192,305415,1,0,0:0:0:0:
475,192,305415,1,0,0:0:0:0:
182,192,305490,1,0,0:0:0:0:
109,192,305490,1,0,0:0:0:0:
256,192,305565,1,0,0:0:0:0:
36,192,305565,1,0,0:0:0:0:
329,192,305565,1,0,0:0:0:0:
475,192,305565,1,0,0:0:0:0:
182,192,305640,1,0,0:0:0:0:
402,192,305640,1,0,0:0:0:0:
109,192,305715,1,0,0:0:0:0:
475,192,305715,1,0,0:0:0:0:
256,192,305715,1,0,0:0:0:0:
36,192,305715,1,0,0:0:0:0:
182,192,305790,1,0,0:0:0:0:
329,192,305790,1,0,0:0:0:0:
256,192,305865,1,0,0:0:0:0:
475,192,305865,1,0,0:0:0:0:
109,192,305865,1,0,0:0:0:0:
402,192,305865,1,0,0:0:0:0:
36,192,305940,1,0,0:0:0:0:
182,192,305940,1,0,0:0:0:0:
109,192,306015,1,0,0:0:0:0:
329,192,306015,1,0,0:0:0:0:
256,192,306015,1,0,0:0:0:0:
475,192,306015,1,0,0:0:0:0:
182,192,306090,1,0,0:0:0:0:
402,192,306090,1,0,0:0:0:0:
256,192,306165,1,0,0:0:0:0:
475,192,306165,1,0,0:0:0:0:
109,192,306165,1,0,0:0:0:0:
36,192,306165,1,0,0:0:0:0:
329,192,306240,1,0,0:0:0:0:
182,192,306240,1,0,0:0:0:0:
402,192,306315,1,0,0:0:0:0:
109,192,306315,1,0,0:0:0:0:
256,192,306315,1,0,0:0:0:0:
475,192,306315,1,0,0:0:0:0:
329,192,306390,1,0,0:0:0:0:
36,192,306390,1,0,0:0:0:0:
182,192,306465,1,0,0:0:0:0:
256,192,306465,1,0,0:0:0:0:
402,192,306465,1,0,0:0:0:0:
475,192,306465,1,0,0:0:0:0:
109,192,306540,1,0,0:0:0:0:
329,192,306540,1,0,0:0:0:0:
36,192,306615,1,0,0:0:0:0:
402,192,306615,1,0,0:0:0:0:
182,192,306615,1,0,0:0:0:0:
256,192,306615,1,0,0:0:0:0:
109,192,306690,1,0,0:0:0:0:
475,192,306690,1,0,0:0:0:0:
182,192,306765,1,0,0:0:0:0:
402,192,306765,1,0,0:0:0:0:
36,192,306765,1,0,0:0:0:0:
329,192,306765,1,0,0:0:0:0:
109,192,306840,1,0,0:0:0:0:
256,192,306840,1,0,0:0:0:0:
329,192,306915,1,0,0:0:0:0:
182,192,306915,1,0,0:0:0:0:
475,192,306915,1,0,0:0:0:0:
36,192,306915,1,0,0:0:0:0:
402,192,306990,1,0,0:0:0:0:
109,192,306990,1,0,0:0:0:0:
475,192,307065,1,0,0:0:0:0:
36,192,307065,1,0,0:0:0:0:
329,192,307065,1,0,0:0:0:0:
182,192,307065,1,0,0:0:0:0:
256,192,307140,1,0,0:0:0:0:
109,192,307140,1,0,0:0:0:0:
329,192,307215,1,0,0:0:0:0:
182,192,307215,1,0,0:0:0:0:
475,192,307215,1,0,0:0:0:0:
36,192,307215,1,0,0:0:0:0:
402,192,307290,1,0,0:0:0:0:
256,192,307290,1,0,0:0:0:0:
182,192,307365,1,0,0:0:0:0:
329,192,307365,1,0,0:0:0:0:
109,192,307365,1,0,0:0:0:0:
475,192,307365,1,0,0:0:0:0:
36,192,307440,1,0,0:0:0:0:
402,192,307440,1,0,0:0:0:0:
109,192,307515,1,0,0:0:0:0:
475,192,307515,1,0,0:0:0:0:
329,192,307515,1,0,0:0:0:0:
182,192,307515,1,0,0:0:0:0:
256,192,307590,1,0,0:0:0:0:
402,192,307590,1,0,0:0:0:0:
182,192,307665,1,0,0:0:0:0:
329,192,307665,1,0,0:0:0:0:
36,192,307665,1,0,0:0:0:0:
475,192,307665,1,0,0:0:0:0:
109,192,307740,1,0,0:0:0:0:
256,192,307740,1,0,0:0:0:0:
475,192,307815,1,0,0:0:0:0:
182,192,307815,1,0,0:0:0:0:
329,192,307815,1,0,0:0:0:0:
36,192,307815,1,0,0:0:0:0:
402,192,307890,1,0,0:0:0:0:
109,192,307890,1,0,0:0:0:0:
329,192,307965,1,0,0:0:0:0:
36,192,307965,1,0,0:0:0:0:
182,192,307965,1,0,0:0:0:0:
475,192,307965,1,0,0:0:0:0:
256,192,308040,1,0,0:0:0:0:
402,192,308040,1,0,0:0:0:0:
182,192,308115,1,0,0:0:0:0:
475,192,308115,1,0,0:0:0:0:
329,192,308115,1,0,0:0:0:0:
36,192,308115,1,0,0:0:0:0:
109,192,308190,1,0,0:0:0:0:
256,192,308190,1,0,0:0:0:0:
36,192,308265,1,0,0:0:0:0:
402,192,308265,1,0,0:0:0:0:
182,192,308265,1,0,0:0:0:0:
329,192,308265,1,0,0:0:0:0:
256,192,308340,1,0,0:0:0:0:
475,192,308340,1,0,0:0:0:0:
182,192,308415,1,0,0:0:0:0:
36,192,308415,1,0,0:0:0:0:
402,192,308415,1,0,0:0:0:0:
256,192,308490,1,0,0:0:0:0:
109,192,308490,1,0,0:0:0:0:
36,192,308565,1,0,0:0:0:0:
329,192,308565,1,0,0:0:0:0:
182,192,308640,1,0,0:0:0:0:
109,192,308640,1,0,0:0:0:0:
256,192,308715,1,0,0:0:0:0:
402,192,308715,1,0,0:0:0:0:
36,192,308715,1,0,0:0:0:0:
475,192,308715,1,0,0:0:0:0:
329,192,308790,1,0,0:0:0:0:
109,192,308790,1,0,0:0:0:0:
402,192,308865,1,0,0:0:0:0:
182,192,308865,1,0,0:0:0:0:
109,192,308940,1,0,0:0:0:0:
329,192,308940,1,0,0:0:0:0:
402,192,309015,1,0,0:0:0:0:
256,192,309015,1,0,0:0:0:0:
36,192,309015,1,0,0:0:0:0:
109,192,309090,1,0,0:0:0:0:
475,192,309090,1,0,0:0:0:0:
329,192,309165,1,0,0:0:0:0:
182,192,309165,1,0,0:0:0:0:
36,192,309240,1,0,0:0:0:0:
109,192,309240,1,0,0:0:0:0:
256,192,309315,1,0,0:0:0:0:
475,192,309315,1,0,0:0:0:0:
329,192,309315,1,0,0:0:0:0:
182,192,309315,1,0,0:0:0:0:
109,192,309390,1,0,0:0:0:0:
402,192,309390,1,0,0:0:0:0:
329,192,309465,1,0,0:0:0:0:
36,192,309465,1,0,0:0:0:0:
182,192,309540,1,0,0:0:0:0:
109,192,309540,1,0,0:0:0:0:
475,192,309615,1,0,0:0:0:0:
256,192,309615,1,0,0:0:0:0:
329,192,309615,1,0,0:0:0:0:
402,192,309690,1,0,0:0:0:0:
36,192,309690,1,0,0:0:0:0:
182,192,309765,1,0,0:0:0:0:
475,192,309765,1,0,0:0:0:0:
256,192,309840,1,0,0:0:0:0:
36,192,309840,1,0,0:0:0:0:
329,192,309915,1,0,0:0:0:0:
109,192,309915,1,0,0:0:0:0:
475,192,309915,1,0,0:0:0:0:
182,192,309915,1,0,0:0:0:0:
256,192,309990,1,0,0:0:0:0:
36,192,309990,1,0,0:0:0:0:
475,192,310065,1,0,0:0:0:0:
109,192,310065,1,0,0:0:0:0:
329,192,310065,1,0,0:0:0:0:
36,192,310140,1,0,0:0:0:0:
256,192,310140,1,0,0:0:0:0:
182,192,310215,1,0,0:0:0:0:
329,192,310215,1,0,0:0:0:0:
475,192,310215,1,0,0:0:0:0:
256,192,310290,1,0,0:0:0:0:
402,192,310290,1,0,0:0:0:0:
329,192,310365,1,0,0:0:0:0:
36,192,310365,1,0,0:0:0:0:
402,192,310440,1,0,0:0:0:0:
182,192,310440,1,0,0:0:0:0:
475,192,310515,1,0,0:0:0:0:
256,192,310515,1,0,0:0:0:0:
109,192,310515,1,0,0:0:0:0:
329,192,310515,1,0,0:0:0:0:
36,192,310590,1,0,0:0:0:0:
182,192,310590,1,0,0:0:0:0:
402,192,310665,1,0,0:0:0:0:
256,192,310665,1,0,0:0:0:0:
182,192,310740,1,0,0:0:0:0:
475,192,310740,1,0,0:0:0:0:
256,192,310815,1,0,0:0:0:0:
402,192,310815,1,0,0:0:0:0:
36,192,310815,1,0,0:0:0:0:
182,192,310890,1,0,0:0:0:0:
329,192,310890,1,0,0:0:0:0:
109,192,310965,1,0,0:0:0:0:
475,192,310965,1,0,0:0:0:0:
36,192,311040,1,0,0:0:0:0:
182,192,311040,1,0,0:0:0:0:
402,192,311115,1,0,0:0:0:0:
109,192,311115,1,0,0:0:0:0:
256,192,311115,1,0,0:0:0:0:
475,192,311115,1,0,0:0:0:0:
329,192,311190,1,0,0:0:0:0:
36,192,311190,1,0,0:0:0:0:
402,192,311265,1,0,0:0:0:0:
109,192,311265,1,0,0:0:0:0:
182,192,311340,1,0,0:0:0:0:
329,192,311340,1,0,0:0:0:0:
109,192,311415,1,0,0:0:0:0:
256,192,311415,1,0,0:0:0:0:
402,192,311415,1,0,0:0:0:0:
36,192,311490,1,0,0:0:0:0:
329,192,311490,1,0,0:0:0:0:
475,192,311565,1,0,0:0:0:0:
182,192,311565,1,0,0:0:0:0:
402,192,311640,1,0,0:0:0:0:
36,192,311640,1,0,0:0:0:0:
182,192,311715,1,0,0:0:0:0:
109,192,311715,1,0,0:0:0:0:
329,192,311715,1,0,0:0:0:0:
475,192,311715,1,0,0:0:0:0:
256,192,311790,1,0,0:0:0:0:
402,192,311790,1,0,0:0:0:0:
329,192,311865,1,0,0:0:0:0:
36,192,311865,1,0,0:0:0:0:
109,192,311940,1,0,0:0:0:0:
256,192,311940,1,0,0:0:0:0:
329,192,312015,1,0,0:0:0:0:
36,192,312015,1,0,0:0:0:0:
402,192,312015,1,0,0:0:0:0:
256,192,312090,1,0,0:0:0:0:
475,192,312090,1,0,0:0:0:0:
329,192,312165,1,0,0:0:0:0:
109,192,312165,1,0,0:0:0:0:
475,192,312240,1,0,0:0:0:0:
36,192,312240,1,0,0:0:0:0:
402,192,312315,1,0,0:0:0:0:
256,192,312315,1,0,0:0:0:0:
182,192,312315,1,0,0:0:0:0:
109,192,312315,1,0,0:0:0:0:
36,192,312390,1,0,0:0:0:0:
329,192,312390,1,0,0:0:0:0:
109,192,312465,1,0,0:0:0:0:
402,192,312465,1,0,0:0:0:0:
182,192,312540,1,0,0:0:0:0:
329,192,312540,1,0,0:0:0:0:
256,192,312615,1,0,0:0:0:0:
36,192,312615,1,0,0:0:0:0:
402,192,312615,1,0,0:0:0:0:
475,192,312615,1,0,0:0:0:0:
329,192,312690,1,0,0:0:0:0:
109,192,312690,1,0,0:0:0:0:
402,192,312765,1,0,0:0:0:0:
256,192,312765,1,0,0:0:0:0:
36,192,312765,1,0,0:0:0:0:
475,192,312840,1,0,0:0:0:0:
109,192,312840,1,0,0:0:0:0:
36,192,312915,1,0,0:0:0:0:
329,192,312915,1,0,0:0:0:0:
182,192,312915,1,0,0:0:0:0:
256,192,312915,1,0,0:0:0:0:
109,192,312990,1,0,0:0:0:0:
402,192,312990,1,0,0:0:0:0:
475,192,313065,1,0,0:0:0:0:
36,192,313065,1,0,0:0:0:0:
256,192,313140,1,0,0:0:0:0:
402,192,313140,1,0,0:0:0:0:
182,192,313215,1,0,0:0:0:0:
329,192,313215,1,0,0:0:0:0:
36,192,313215,1,0,0:0:0:0:
475,192,313215,1,0,0:0:0:0:
109,192,313290,1,0,0:0:0:0:
402,192,313290,1,0,0:0:0:0:
36,192,313365,1,0,0:0:0:0:
475,192,313365,1,0,0:0:0:0:
256,192,313365,1,0,0:0:0:0:
182,192,313365,1,0,0:0:0:0:
329,192,313440,1,0,0:0:0:0:
109,192,313440,1,0,0:0:0:0:
402,192,313515,1,0,0:0:0:0:
36,192,313515,1,0,0:0:0:0:
182,192,313515,1,0,0:0:0:0:
475,192,313515,1,0,0:0:0:0:
109,192,313590,1,0,0:0:0:0:
329,192,313590,1,0,0:0:0:0:
36,192,313665,1,0,0:0:0:0:
475,192,313665,1,0,0:0:0:0:
256,192,313665,1,0,0:0:0:0:
402,192,313665,1,0,0:0:0:0:
329,192,313740,1,0,0:0:0:0:
182,192,313740,1,0,0:0:0:0:
36,192,313815,1,0,0:0:0:0:
109,192,313815,1,0,0:0:0:0:
475,192,313815,1,0,0:0:0:0:
256,192,313815,1,0,0:0:0:0:
329,192,313890,1,0,0:0:0:0:
182,192,313890,1,0,0:0:0:0:
475,192,313965,1,0,0:0:0:0:
36,192,313965,1,0,0:0:0:0:
402,192,313965,1,0,0:0:0:0:
109,192,313965,1,0,0:0:0:0:
256,192,314040,1,0,0:0:0:0:
329,192,314040,1,0,0:0:0:0:
36,192,314115,1,0,0:0:0:0:
182,192,314115,1,0,0:0:0:0:
109,192,314115,1,0,0:0:0:0:
475,192,314115,1,0,0:0:0:0:
402,192,314190,1,0,0:0:0:0:
256,192,314190,1,0,0:0:0:0:
36,192,314265,1,0,0:0:0:0:
329,192,314265,1,0,0:0:0:0:
182,192,314265,1,0,0:0:0:0:
475,192,314265,1,0,0:0:0:0:
109,192,314340,1,0,0:0:0:0:
402,192,314340,1,0,0:0:0:0:
36,192,314415,1,0,0:0:0:0:
475,192,314415,1,0,0:0:0:0:
182,192,314415,1,0,0:0:0:0:
256,192,314415,1,0,0:0:0:0:
329,192,314490,1,0,0:0:0:0:
109,192,314490,1,0,0:0:0:0:
182,192,314565,1,0,0:0:0:0:
36,192,314565,1,0,0:0:0:0:
402,192,314565,1,0,0:0:0:0:
475,192,314565,1,0,0:0:0:0:
256,192,314640,1,0,0:0:0:0:
109,192,314640,1,0,0:0:0:0:
329,192,314715,1,0,0:0:0:0:
182,192,314715,1,0,0:0:0:0:
475,192,314715,1,0,0:0:0:0:
36,192,314715,1,0,0:0:0:0:
402,192,314790,1,0,0:0:0:0:
256,192,314790,1,0,0:0:0:0:
475,192,314865,1,0,0:0:0:0:
329,192,314865,1,0,0:0:0:0:
109,192,314865,1,0,0:0:0:0:
182,192,314865,1,0,0:0:0:0:
36,192,314940,1,0,0:0:0:0:
402,192,314940,1,0,0:0:0:0:
109,192,315015,1,0,0:0:0:0:
475,192,315015,1,0,0:0:0:0:
182,192,315015,1,0,0:0:0:0:
329,192,315015,1,0,0:0:0:0:
256,192,315090,1,0,0:0:0:0:
402,192,315090,1,0,0:0:0:0:
475,192,315165,1,0,0:0:0:0:
329,192,315165,1,0,0:0:0:0:
36,192,315165,1,0,0:0:0:0:
109,192,315165,1,0,0:0:0:0:
182,192,315240,1,0,0:0:0:0:
402,192,315240,1,0,0:0:0:0:
109,192,315315,1,0,0:0:0:0:
475,192,315315,1,0,0:0:0:0:
256,192,315315,1,0,0:0:0:0:
329,192,315315,1,0,0:0:0:0:
36,192,315390,1,0,0:0:0:0:
402,192,315390,1,0,0:0:0:0:
475,192,315465,1,0,0:0:0:0:
256,192,315465,1,0,0:0:0:0:
109,192,315465,1,0,0:0:0:0:
182,192,315465,1,0,0:0:0:0:
402,192,315540,1,0,0:0:0:0:
329,192,315540,1,0,0:0:0:0:
256,192,315615,1,0,0:0:0:0:
109,192,315615,1,0,0:0:0:0:
475,192,315615,1,0,0:0:0:0:
36,192,315615,1,0,0:0:0:0:
329,192,315690,1,0,0:0:0:0:
182,192,315690,1,0,0:0:0:0:
36,192,315765,1,0,0:0:0:0:
475,192,315765,1,0,0:0:0:0:
256,192,315765,1,0,0:0:0:0:
402,192,315765,1,0,0:0:0:0:
109,192,315840,1,0,0:0:0:0:
329,192,315840,1,0,0:0:0:0:
36,192,315915,1,0,0:0:0:0:
402,192,315915,1,0,0:0:0:0:
475,192,315915,1,0,0:0:0:0:
182,192,315915,1,0,0:0:0:0:
329,192,315990,1,0,0:0:0:0:
256,192,315990,1,0,0:0:0:0:
402,192,316065,1,0,0:0:0:0:
109,192,316065,1,0,0:0:0:0:
182,192,316065,1,0,0:0:0:0:
475,192,316065,1,0,0:0:0:0:
256,192,316140,1,0,0:0:0:0:
36,192,316140,1,0,0:0:0:0:
475,192,316215,1,0,0:0:0:0:
109,192,316215,1,0,0:0:0:0:
329,192,316215,1,0,0:0:0:0:
182,192,316215,1,0,0:0:0:0:
402,192,316290,1,0,0:0:0:0:
36,192,316290,1,0,0:0:0:0:
329,192,316365,1,0,0:0:0:0:
256,192,316365,1,0,0:0:0:0:
182,192,316365,1,0,0:0:0:0:
475,192,316365,1,0,0:0:0:0:
109,192,316440,1,0,0:0:0:0:
402,192,316440,1,0,0:0:0:0:
182,192,316515,1,0,0:0:0:0:
475,192,316515,1,0,0:0:0:0:
329,192,316515,1,0,0:0:0:0:
36,192,316515,1,0,0:0:0:0:
256,192,316590,1,0,0:0:0:0:
402,192,316590,1,0,0:0:0:0:
36,192,316665,1,0,0:0:0:0:
329,192,316665,1,0,0:0:0:0:
182,192,316665,1,0,0:0:0:0:
475,192,316665,1,0,0:0:0:0:
109,192,316740,1,0,0:0:0:0:
256,192,316740,1,0,0:0:0:0:
182,192,316815,1,0,0:0:0:0:
475,192,316815,1,0,0:0:0:0:
329,192,316815,1,0,0:0:0:0:
36,192,316815,1,0,0:0:0:0:
256,192,316890,1,0,0:0:0:0:
402,192,316890,1,0,0:0:0:0:
329,192,316965,1,0,0:0:0:0:
36,192,316965,1,0,0:0:0:0:
182,192,316965,1,0,0:0:0:0:
475,192,316965,1,0,0:0:0:0:
402,192,317040,1,0,0:0:0:0:
109,192,317040,1,0,0:0:0:0:
475,192,317115,1,0,0:0:0:0:
256,192,317115,1,0,0:0:0:0:
329,192,317115,1,0,0:0:0:0:
36,192,317115,1,0,0:0:0:0:
109,192,317190,1,0,0:0:0:0:
256,192,317265,1,0,0:0:0:0:
36,192,317265,1,0,0:0:0:0:
402,192,317265,1,0,0:0:0:0:
182,192,317265,1,0,0:0:0:0:
329,192,317340,1,0,0:0:0:0:
475,192,317340,1,0,0:0:0:0:
402,192,317415,1,0,0:0:0:0:
256,192,317415,1,0,0:0:0:0:
36,192,317415,1,0,0:0:0:0:
109,192,317415,1,0,0:0:0:0:
329,192,317490,1,0,0:0:0:0:
182,192,317490,1,0,0:0:0:0:
256,192,317565,1,0,0:0:0:0:
36,192,317565,1,0,0:0:0:0:
475,192,317565,1,0,0:0:0:0:
402,192,317565,1,0,0:0:0:0:
329,192,317640,1,0,0:0:0:0:
109,192,317640,1,0,0:0:0:0:
402,192,317715,1,0,0:0:0:0:
182,192,317715,1,0,0:0:0:0:
256,192,317715,1,0,0:0:0:0:
36,192,317715,1,0,0:0:0:0:
109,192,317790,1,0,0:0:0:0:
475,192,317790,1,0,0:0:0:0:
36,192,317865,1,0,0:0:0:0:
402,192,317865,1,0,0:0:0:0:
329,192,317865,1,0,0:0:0:0:
182,192,317865,1,0,0:0:0:0:
109,192,317940,1,0,0:0:0:0:
475,192,317940,1,0,0:0:0:0:
36,192,318015,1,0,0:0:0:0:
402,192,318015,1,0,0:0:0:0:
329,192,318015,1,0,0:0:0:0:
256,192,318015,1,0,0:0:0:0:
109,192,318090,1,0,0:0:0:0:
475,192,318090,1,0,0:0:0:0:
182,192,318165,1,0,0:0:0:0:
402,192,318165,1,0,0:0:0:0:
329,192,318240,1,0,0:0:0:0:
109,192,318240,1,0,0:0:0:0:
36,192,318315,1,0,0:0:0:0:
256,192,318315,1,0,0:0:0:0:
182,192,318315,1,0,0:0:0:0:
475,192,318315,1,0,0:0:0:0:
109,192,318390,1,0,0:0:0:0:
329,192,318390,1,0,0:0:0:0:
182,192,318465,1,0,0:0:0:0:
402,192,318465,1,0,0:0:0:0:
256,192,318540,1,0,0:0:0:0:
475,192,318540,1,0,0:0:0:0:
402,192,318615,1,0,0:0:0:0:
182,192,318615,1,0,0:0:0:0:
36,192,318615,1,0,0:0:0:0:
329,192,318615,1,0,0:0:0:0:
475,192,318690,1,0,0:0:0:0:
109,192,318690,1,0,0:0:0:0:
329,192,318765,1,0,0:0:0:0:
36,192,318765,1,0,0:0:0:0:
256,192,318840,1,0,0:0:0:0:
109,192,318840,1,0,0:0:0:0:
329,192,318915,1,0,0:0:0:0:
182,192,318915,1,0,0:0:0:0:
36,192,318915,1,0,0:0:0:0:
475,192,318915,1,0,0:0:0:0:
402,192,318990,1,0,0:0:0:0:
256,192,318990,1,0,0:0:0:0:
475,192,319065,1,0,0:0:0:0:
182,192,319065,1,0,0:0:0:0:
36,192,319140,1,0,0:0:0:0:
402,192,319140,1,0,0:0:0:0:
109,192,319215,1,0,0:0:0:0:
475,192,319215,1,0,0:0:0:0:
329,192,319215,1,0,0:0:0:0:
256,192,319215,1,0,0:0:0:0:
182,192,319290,1,0,0:0:0:0:
402,192,319290,1,0,0:0:0:0:
256,192,319365,1,0,0:0:0:0:
329,192,319365,1,0,0:0:0:0:
182,192,319440,1,0,0:0:0:0:
475,192,319440,1,0,0:0:0:0:
109,192,319515,1,0,0:0:0:0:
402,192,319515,1,0,0:0:0:0:
329,192,319515,1,0,0:0:0:0:
256,192,319515,1,0,0:0:0:0:
36,192,319590,1,0,0:0:0:0:
475,192,319590,1,0,0:0:0:0:
329,192,319665,1,0,0:0:0:0:
182,192,319665,1,0,0:0:0:0:
256,192,319740,1,0,0:0:0:0:
109,192,319740,1,0,0:0:0:0:
182,192,319815,1,0,0:0:0:0:
36,192,319815,1,0,0:0:0:0:
475,192,319815,1,0,0:0:0:0:
329,192,319815,1,0,0:0:0:0:
109,192,319890,1,0,0:0:0:0:
256,192,319890,1,0,0:0:0:0:
402,192,319965,1,0,0:0:0:0:
182,192,319965,1,0,0:0:0:0:
329,192,320040,1,0,0:0:0:0:
109,192,320040,1,0,0:0:0:0:
256,192,320115,1,0,0:0:0:0:
475,192,320115,1,0,0:0:0:0:
402,192,320115,1,0,0:0:0:0:
182,192,320115,1,0,0:0:0:0:
329,192,320190,1,0,0:0:0:0:
36,192,320190,1,0,0:0:0:0:
475,192,320265,1,0,0:0:0:0:
109,192,320265,1,0,0:0:0:0:
402,192,320340,1,0,0:0:0:0:
182,192,320340,1,0,0:0:0:0:
329,192,320415,1,0,0:0:0:0:
36,192,320415,1,0,0:0:0:0:
475,192,320415,1,0,0:0:0:0:
256,192,320490,1,0,0:0:0:0:
109,192,320490,1,0,0:0:0:0:
329,192,320565,1,0,0:0:0:0:
182,192,320565,1,0,0:0:0:0:
402,192,320640,1,0,0:0:0:0:
256,192,320640,1,0,0:0:0:0:
475,192,320715,1,0,0:0:0:0:
329,192,320715,1,0,0:0:0:0:
109,192,320715,1,0,0:0:0:0:
36,192,320715,1,0,0:0:0:0:
182,192,320790,1,0,0:0:0:0:
402,192,320790,1,0,0:0:0:0:
256,192,320865,1,0,0:0:0:0:
475,192,320865,1,0,0:0:0:0:
329,192,320940,1,0,0:0:0:0:
36,192,320940,1,0,0:0:0:0:
402,192,321015,1,0,0:0:0:0:
109,192,321015,1,0,0:0:0:0:
256,192,321015,1,0,0:0:0:0:
182,192,321090,1,0,0:0:0:0:
36,192,321090,1,0,0:0:0:0:
329,192,321090,1,0,0:0:0:0:
475,192,321090,1,0,0:0:0:0:
402,192,321165,1,0,0:0:0:0:
256,192,321165,1,0,0:0:0:0:
109,192,321165,1,0,0:0:0:0:
182,192,321240,1,0,0:0:0:0:
36,192,321240,1,0,0:0:0:0:
329,192,321240,1,0,0:0:0:0:
475,192,321240,1,0,0:0:0:0:
402,192,321315,1,0,0:0:0:0:
109,192,321315,1,0,0:0:0:0:
329,192,321390,1,0,0:0:0:0:
182,192,321390,1,0,0:0:0:0:
256,192,321465,1,0,0:0:0:0:
36,192,321540,1,0,0:0:0:0:
475,192,321540,1,0,0:0:0:0:
402,192,321615,1,0,0:0:0:0:
329,192,321615,1,0,0:0:0:0:
182,192,321615,1,0,0:0:0:0:
109,192,321615,1,0,0:0:0:0:
256,192,321690,5,0,0:0:0:0:
36,192,321690,1,0,0:0:0:0:
475,192,321690,1,0,0:0:0:0:
402,192,321765,1,0,0:0:0:0:
329,192,321765,1,0,0:0:0:0:
182,192,321765,1,0,0:0:0:0:
109,192,321765,1,0,0:0:0:0:
256,192,321840,1,0,0:0:0:0:
475,192,321840,1,0,0:0:0:0:
36,192,321840,1,0,0:0:0:0:
182,192,321915,1,0,0:0:0:0:
329,192,321915,1,0,0:0:0:0:
109,192,321990,1,0,0:0:0:0:
402,192,321990,1,0,0:0:0:0:
475,192,322065,1,0,0:0:0:0:
36,192,322065,1,0,0:0:0:0:
109,192,322140,1,0,0:0:0:0:
402,192,322140,1,0,0:0:0:0:
182,192,322215,1,0,0:0:0:0:
329,192,322215,1,0,0:0:0:0:
256,192,322290,1,0,0:0:0:0:
36,192,322365,1,0,0:0:0:0:
475,192,322365,1,0,0:0:0:0:
109,192,322440,1,0,0:0:0:0:
402,192,322440,1,0,0:0:0:0:
182,192,322515,1,0,0:0:0:0:
329,192,322515,1,0,0:0:0:0:
256,192,322590,1,0,0:0:0:0:
475,192,322665,1,0,0:0:0:0:
36,192,322665,1,0,0:0:0:0:
109,192,322740,1,0,0:0:0:0:
402,192,322740,1,0,0:0:0:0:
182,192,322815,5,0,0:0:0:0:
329,192,322815,1,0,0:0:0:0:
256,192,322815,1,0,0:0:0:0:
182,192,323265,1,0,0:0:0:0:
109,192,323265,1,0,0:0:0:0:
36,192,323265,1,0,0:0:0:0:
329,192,323715,1,0,0:0:0:0:
402,192,323715,1,0,0:0:0:0:
475,192,323715,1,0,0:0:0:0:
36,192,324165,1,0,0:0:0:0:
256,192,324165,1,0,0:0:0:0:
475,192,324165,1,0,0:0:0:0:
329,192,324615,1,0,0:0:0:0:
402,192,324615,1,0,0:0:0:0:
475,192,324615,1,0,0:0:0:0:
182,192,324915,1,0,0:0:0:0:
36,192,324915,1,0,0:0:0:0:
109,192,324915,1,0,0:0:0:0:
256,192,325215,1,0,0:0:0:0:
475,192,325215,1,0,0:0:0:0:
36,192,325215,1,0,0:0:0:0:
36,192,325665,1,0,0:0:0:0:
109,192,325665,1,0,0:0:0:0:
182,192,325665,1,0,0:0:0:0:
329,192,326115,1,0,0:0:0:0:
402,192,326115,1,0,0:0:0:0:
475,192,326115,1,0,0:0:0:0:
256,192,326565,1,0,0:0:0:0:
36,192,326565,1,0,0:0:0:0:
475,192,326565,1,0,0:0:0:0:
402,192,327015,1,0,0:0:0:0:
109,192,327015,1,0,0:0:0:0:
256,192,327015,1,0,0:0:0:0:
402,192,327315,1,0,0:0:0:0:
109,192,327315,1,0,0:0:0:0:
256,192,327315,1,0,0:0:0:0:
475,192,327615,1,0,0:0:0:0:
256,192,327615,1,0,0:0:0:0:
36,192,327615,1,0,0:0:0:0:
109,192,328065,1,0,0:0:0:0:
182,192,328065,1,0,0:0:0:0:
402,192,328065,1,0,0:0:0:0:
329,192,328515,1,0,0:0:0:0:
402,192,328515,1,0,0:0:0:0:
109,192,328515,1,0,0:0:0:0:
256,192,328965,1,0,0:0:0:0:
475,192,328965,1,0,0:0:0:0:
36,192,328965,1,0,0:0:0:0:
182,192,329415,1,0,0:0:0:0:
329,192,329415,1,0,0:0:0:0:
256,192,329415,1,0,0:0:0:0:
182,192,329715,1,0,0:0:0:0:
329,192,329715,1,0,0:0:0:0:
256,192,329715,1,0,0:0:0:0:
36,192,330015,1,0,0:0:0:0:
256,192,330015,1,0,0:0:0:0:
475,192,330015,1,0,0:0:0:0:
109,192,330465,1,0,0:0:0:0:
256,192,330465,1,0,0:0:0:0:
402,192,330465,1,0,0:0:0:0:
256,192,330915,1,0,0:0:0:0:
182,192,330915,1,0,0:0:0:0:
329,192,330915,1,0,0:0:0:0:
256,192,331365,1,0,0:0:0:0:
475,192,331365,1,0,0:0:0:0:
36,192,331365,1,0,0:0:0:0:
329,192,331815,1,0,0:0:0:0:
402,192,331815,1,0,0:0:0:0:
475,192,331815,1,0,0:0:0:0:
182,192,332115,1,0,0:0:0:0:
109,192,332115,1,0,0:0:0:0:
36,192,332115,1,0,0:0:0:0:
256,192,332415,1,0,0:0:0:0:
329,192,332415,1,0,0:0:0:0:
475,192,332415,1,0,0:0:0:0:
256,192,332865,1,0,0:0:0:0:
182,192,332865,1,0,0:0:0:0:
402,192,332865,1,0,0:0:0:0:
182,192,333315,1,0,0:0:0:0:
109,192,333315,1,0,0:0:0:0:
329,192,333315,1,0,0:0:0:0:
256,192,333765,1,0,0:0:0:0:
36,192,333765,1,0,0:0:0:0:
475,192,333765,1,0,0:0:0:0:
402,192,334215,1,0,0:0:0:0:
329,192,334215,1,0,0:0:0:0:
109,192,334215,1,0,0:0:0:0:
109,192,334515,1,0,0:0:0:0:
182,192,334515,1,0,0:0:0:0:
402,192,334515,1,0,0:0:0:0:
256,192,334815,1,0,0:0:0:0:
36,192,334815,1,0,0:0:0:0:
475,192,334815,1,0,0:0:0:0:
402,192,335265,1,0,0:0:0:0:
256,192,335265,1,0,0:0:0:0:
109,192,335265,1,0,0:0:0:0:
256,192,335715,1,0,0:0:0:0:
36,192,335715,1,0,0:0:0:0:
475,192,335715,1,0,0:0:0:0:
329,192,336165,1,0,0:0:0:0:
256,192,336165,1,0,0:0:0:0:
182,192,336165,1,0,0:0:0:0:
402,192,336615,1,0,0:0:0:0:
475,192,336615,1,0,0:0:0:0:
36,192,336615,1,0,0:0:0:0:
36,192,336915,1,0,0:0:0:0:
109,192,336915,1,0,0:0:0:0:
475,192,336915,1,0,0:0:0:0:
36,192,337215,1,0,0:0:0:0:
402,192,337215,1,0,0:0:0:0:
475,192,337215,1,0,0:0:0:0:
256,192,337665,1,0,0:0:0:0:
329,192,337665,1,0,0:0:0:0:
182,192,337665,1,0,0:0:0:0:
256,192,338115,1,0,0:0:0:0:
109,192,338115,1,0,0:0:0:0:
402,192,338115,1,0,0:0:0:0:
475,192,338565,1,0,0:0:0:0:
256,192,338565,1,0,0:0:0:0:
36,192,338565,1,0,0:0:0:0:
109,192,339015,1,0,0:0:0:0:
182,192,339015,1,0,0:0:0:0:
402,192,339015,1,0,0:0:0:0:
109,192,339315,1,0,0:0:0:0:
329,192,339315,1,0,0:0:0:0:
402,192,339315,1,0,0:0:0:0:
256,192,339615,1,0,0:0:0:0:
36,192,339615,1,0,0:0:0:0:
475,192,339615,1,0,0:0:0:0:
36,192,342015,1,0,0:0:0:0:
256,192,342015,1,0,0:0:0:0:
475,192,342015,1,0,0:0:0:0:
402,192,342315,1,0,0:0:0:0:
109,192,342315,1,0,0:0:0:0:
256,192,342315,1,0,0:0:0:0:
402,192,342465,1,0,0:0:0:0:
109,192,342465,1,0,0:0:0:0:
256,192,342465,1,0,0:0:0:0:
329,192,342615,1,0,0:0:0:0:
36,192,342615,1,0,0:0:0:0:
182,192,342615,1,0,0:0:0:0:
475,192,342615,1,0,0:0:0:0:
475,192,342915,1,0,0:0:0:0:
256,192,342915,1,0,0:0:0:0:
36,192,342915,1,0,0:0:0:0:
475,192,343065,1,0,0:0:0:0:
256,192,343065,1,0,0:0:0:0:
36,192,343065,1,0,0:0:0:0:
402,192,343365,1,0,0:0:0:0:
256,192,343365,1,0,0:0:0:0:
109,192,343365,1,0,0:0:0:0:
402,192,343515,1,0,0:0:0:0:
256,192,343515,1,0,0:0:0:0:
109,192,343515,1,0,0:0:0:0:
402,192,343665,1,0,0:0:0:0:
256,192,343665,1,0,0:0:0:0:
109,192,343665,1,0,0:0:0:0:
475,192,343815,1,0,0:0:0:0:
182,192,343815,1,0,0:0:0:0:
36,192,343815,1,0,0:0:0:0:
329,192,343815,1,0,0:0:0:0:
109,192,344115,1,0,0:0:0:0:
402,192,344115,1,0,0:0:0:0:
256,192,344415,1,0,0:0:0:0:
182,192,344415,1,0,0:0:0:0:
329,192,344415,1,0,0:0:0:0:
475,192,344715,1,0,0:0:0:0:
256,192,344715,1,0,0:0:0:0:
36,192,344715,1,0,0:0:0:0:
256,192,344865,1,0,0:0:0:0:
475,192,344865,1,0,0:0:0:0:
36,192,344865,1,0,0:0:0:0:
329,192,345015,1,0,0:0:0:0:
402,192,345015,1,0,0:0:0:0:
109,192,345015,1,0,0:0:0:0:
182,192,345015,1,0,0:0:0:0:
256,192,345315,1,0,0:0:0:0:
475,192,345315,1,0,0:0:0:0:
36,192,345315,1,0,0:0:0:0:
256,192,345465,1,0,0:0:0:0:
475,192,345465,1,0,0:0:0:0:
36,192,345465,1,0,0:0:0:0:
109,192,345765,1,0,0:0:0:0:
256,192,345765,1,0,0:0:0:0:
402,192,345765,1,0,0:0:0:0:
182,192,346065,1,0,0:0:0:0:
256,192,346065,1,0,0:0:0:0:
329,192,346065,1,0,0:0:0:0:
402,192,346215,1,0,0:0:0:0:
475,192,346215,1,0,0:0:0:0:
36,192,346215,1,0,0:0:0:0:
109,192,346215,1,0,0:0:0:0:
109,192,346515,1,0,0:0:0:0:
256,192,346515,1,0,0:0:0:0:
402,192,346515,1,0,0:0:0:0:
36,192,346815,1,0,0:0:0:0:
256,192,346815,1,0,0:0:0:0:
475,192,346815,1,0,0:0:0:0:
109,192,347115,1,0,0:0:0:0:
256,192,347115,1,0,0:0:0:0:
402,192,347115,1,0,0:0:0:0:
402,192,347265,1,0,0:0:0:0:
256,192,347265,1,0,0:0:0:0:
109,192,347265,1,0,0:0:0:0:
36,192,347415,1,0,0:0:0:0:
182,192,347415,1,0,0:0:0:0:
329,192,347415,1,0,0:0:0:0:
475,192,347415,1,0,0:0:0:0:
402,192,347715,1,0,0:0:0:0:
256,192,347715,1,0,0:0:0:0:
109,192,347715,1,0,0:0:0:0:
402,192,347865,1,0,0:0:0:0:
256,192,347865,1,0,0:0:0:0:
109,192,347865,1,0,0:0:0:0:
182,192,348165,1,0,0:0:0:0:
256,192,348165,1,0,0:0:0:0:
329,192,348165,1,0,0:0:0:0:
182,192,348315,1,0,0:0:0:0:
256,192,348315,1,0,0:0:0:0:
329,192,348315,1,0,0:0:0:0:
182,192,348465,1,0,0:0:0:0:
256,192,348465,1,0,0:0:0:0:
329,192,348465,1,0,0:0:0:0:
402,192,348615,1,0,0:0:0:0:
475,192,348615,1,0,0:0:0:0:
109,192,348615,1,0,0:0:0:0:
36,192,348615,1,0,0:0:0:0:
182,192,348915,1,0,0:0:0:0:
329,192,348915,1,0,0:0:0:0:
256,192,348915,1,0,0:0:0:0:
475,192,349215,1,0,0:0:0:0:
256,192,349215,1,0,0:0:0:0:
36,192,349215,1,0,0:0:0:0:
109,192,349515,1,0,0:0:0:0:
256,192,349515,1,0,0:0:0:0:
402,192,349515,1,0,0:0:0:0:
109,192,349665,1,0,0:0:0:0:
256,192,349665,1,0,0:0:0:0:
402,192,349665,1,0,0:0:0:0:
329,192,349815,1,0,0:0:0:0:
475,192,349815,1,0,0:0:0:0:
182,192,349815,1,0,0:0:0:0:
36,192,349815,1,0,0:0:0:0:
402,192,350115,1,0,0:0:0:0:
109,192,350115,1,0,0:0:0:0:
256,192,350115,1,0,0:0:0:0:
402,192,350265,1,0,0:0:0:0:
109,192,350265,1,0,0:0:0:0:
256,192,350265,1,0,0:0:0:0:
402,192,350415,1,0,0:0:0:0:
109,192,350415,1,0,0:0:0:0:
256,192,350415,1,0,0:0:0:0:
402,192,350565,1,0,0:0:0:0:
109,192,350565,1,0,0:0:0:0:
36,192,350565,1,0,0:0:0:0:
475,192,350565,1,0,0:0:0:0:
329,192,350715,1,0,0:0:0:0:
182,192,350715,1,0,0:0:0:0:
256,192,350715,1,0,0:0:0:0:
329,192,350865,1,0,0:0:0:0:
182,192,350865,1,0,0:0:0:0:
256,192,350865,1,0,0:0:0:0:
329,192,351015,1,0,0:0:0:0:
182,192,351015,1,0,0:0:0:0:
36,192,351015,1,0,0:0:0:0:
475,192,351015,1,0,0:0:0:0:
329,192,351165,1,0,0:0:0:0:
182,192,351165,1,0,0:0:0:0:
256,192,351165,1,0,0:0:0:0:
329,192,351315,1,0,0:0:0:0:
182,192,351315,1,0,0:0:0:0:
475,192,351315,1,0,0:0:0:0:
36,192,351315,1,0,0:0:0:0:
256,192,351615,1,0,0:0:0:0:
402,192,351615,1,0,0:0:0:0:
109,192,351615,1,0,0:0:0:0:
36,192,351915,1,0,0:0:0:0:
256,192,351915,1,0,0:0:0:0:
475,192,351915,1,0,0:0:0:0:
36,192,352065,1,0,0:0:0:0:
256,192,352065,1,0,0:0:0:0:
475,192,352065,1,0,0:0:0:0:
109,192,352215,1,0,0:0:0:0:
182,192,352215,1,0,0:0:0:0:
329,192,352215,1,0,0:0:0:0:
402,192,352215,1,0,0:0:0:0:
256,192,352515,1,0,0:0:0:0:
475,192,352515,1,0,0:0:0:0:
36,192,352515,1,0,0:0:0:0:
256,192,352665,1,0,0:0:0:0:
475,192,352665,1,0,0:0:0:0:
36,192,352665,1,0,0:0:0:0:
402,192,352965,1,0,0:0:0:0:
256,192,352965,1,0,0:0:0:0:
109,192,352965,1,0,0:0:0:0:
402,192,353115,1,0,0:0:0:0:
256,192,353115,1,0,0:0:0:0:
109,192,353115,1,0,0:0:0:0:
402,192,353265,1,0,0:0:0:0:
256,192,353265,1,0,0:0:0:0:
109,192,353265,1,0,0:0:0:0:
36,192,353415,1,0,0:0:0:0:
182,192,353415,1,0,0:0:0:0:
329,192,353415,1,0,0:0:0:0:
475,192,353415,1,0,0:0:0:0:
256,192,353715,1,0,0:0:0:0:
109,192,353715,1,0,0:0:0:0:
402,192,353715,1,0,0:0:0:0:
475,192,354015,1,0,0:0:0:0:
256,192,354015,1,0,0:0:0:0:
36,192,354015,1,0,0:0:0:0:
402,192,354315,1,0,0:0:0:0:
256,192,354315,1,0,0:0:0:0:
109,192,354315,1,0,0:0:0:0:
402,192,354465,1,0,0:0:0:0:
256,192,354465,1,0,0:0:0:0:
109,192,354465,1,0,0:0:0:0:
475,192,354615,1,0,0:0:0:0:
329,192,354615,1,0,0:0:0:0:
182,192,354615,1,0,0:0:0:0:
36,192,354615,1,0,0:0:0:0:
402,192,354915,1,0,0:0:0:0:
256,192,354915,1,0,0:0:0:0:
109,192,354915,1,0,0:0:0:0:
402,192,355065,1,0,0:0:0:0:
256,192,355065,1,0,0:0:0:0:
109,192,355065,1,0,0:0:0:0:
256,192,355365,1,0,0:0:0:0:
109,192,355365,1,0,0:0:0:0:
402,192,355365,1,0,0:0:0:0:
475,192,355665,1,0,0:0:0:0:
256,192,355665,1,0,0:0:0:0:
36,192,355665,1,0,0:0:0:0:
402,192,355815,1,0,0:0:0:0:
329,192,355815,1,0,0:0:0:0:
109,192,355815,1,0,0:0:0:0:
182,192,355815,1,0,0:0:0:0:
256,192,356115,1,0,0:0:0:0:
36,192,356115,1,0,0:0:0:0:
475,192,356115,1,0,0:0:0:0:
402,192,356415,1,0,0:0:0:0:
256,192,356415,1,0,0:0:0:0:
109,192,356415,1,0,0:0:0:0:
182,192,356715,1,0,0:0:0:0:
256,192,356715,1,0,0:0:0:0:
329,192,356715,1,0,0:0:0:0:
182,192,356865,1,0,0:0:0:0:
256,192,356865,1,0,0:0:0:0:
329,192,356865,1,0,0:0:0:0:
109,192,357015,1,0,0:0:0:0:
402,192,357015,1,0,0:0:0:0:
475,192,357015,1,0,0:0:0:0:
36,192,357015,1,0,0:0:0:0:
36,192,357315,1,0,0:0:0:0:
256,192,357315,1,0,0:0:0:0:
475,192,357315,1,0,0:0:0:0:
36,192,357465,1,0,0:0:0:0:
256,192,357465,1,0,0:0:0:0:
475,192,357465,1,0,0:0:0:0:
402,192,357765,1,0,0:0:0:0:
256,192,357765,1,0,0:0:0:0:
109,192,357765,1,0,0:0:0:0:
402,192,357915,1,0,0:0:0:0:
256,192,357915,1,0,0:0:0:0:
109,192,357915,1,0,0:0:0:0:
256,192,358065,1,0,0:0:0:0:
402,192,358065,1,0,0:0:0:0:
109,192,358065,1,0,0:0:0:0:
36,192,358215,1,0,0:0:0:0:
182,192,358215,1,0,0:0:0:0:
329,192,358215,1,0,0:0:0:0:
475,192,358215,1,0,0:0:0:0:
256,192,358515,1,0,0:0:0:0:
402,192,358515,1,0,0:0:0:0:
109,192,358515,1,0,0:0:0:0:
256,192,358815,1,0,0:0:0:0:
36,192,358815,1,0,0:0:0:0:
475,192,358815,1,0,0:0:0:0:
402,192,359115,1,0,0:0:0:0:
109,192,359115,1,0,0:0:0:0:
256,192,359115,1,0,0:0:0:0:
402,192,359265,1,0,0:0:0:0:
109,192,359265,1,0,0:0:0:0:
256,192,359265,1,0,0:0:0:0:
329,192,359415,1,0,0:0:0:0:
475,192,359415,1,0,0:0:0:0:
182,192,359415,1,0,0:0:0:0:
36,192,359415,1,0,0:0:0:0:
256,192,359715,1,0,0:0:0:0:
109,192,359715,1,0,0:0:0:0:
402,192,359715,1,0,0:0:0:0:
256,192,359865,1,0,0:0:0:0:
109,192,359865,1,0,0:0:0:0:
402,192,359865,1,0,0:0:0:0:
36,192,360015,128,0,360090:0:0:0:0:
182,192,360015,1,0,0:0:0:0:
329,192,360015,1,0,0:0:0:0:
475,192,360015,1,0,0:0:0:0:
109,192,360090,128,0,360165:0:0:0:0:
182,192,360165,128,0,360240:0:0:0:0:
256,192,360240,128,0,360315:0:0:0:0:
475,192,360315,128,0,360390:0:0:0:0:
36,192,360315,1,0,0:0:0:0:
109,192,360315,1,0,0:0:0:0:
329,192,360315,1,0,0:0:0:0:
402,192,360390,128,0,360465:0:0:0:0:
329,192,360465,128,0,360540:0:0:0:0:
256,192,360540,128,0,360615:0:0:0:0:
182,192,360615,128,0,360690:0:0:0:0:
402,192,360615,1,0,0:0:0:0:
475,192,360615,1,0,0:0:0:0:
36,192,360615,1,0,0:0:0:0:
109,192,360690,128,0,360765:0:0:0:0:
36,192,360765,128,0,360840:0:0:0:0:
182,192,360840,128,0,360915:0:0:0:0:
256,192,360915,128,0,360990:0:0:0:0:
402,192,360915,1,0,0:0:0:0:
475,192,360915,1,0,0:0:0:0:
109,192,360915,1,0,0:0:0:0:
329,192,360990,128,0,361065:0:0:0:0:
402,192,361065,128,0,361140:0:0:0:0:
475,192,361140,128,0,361215:0:0:0:0:
256,192,361215,128,0,361665:0:0:0:0:
36,192,361215,1,0,0:0:0:0:
182,192,361215,1,0,0:0:0:0:
329,192,361215,1,0,0:0:0:0:
402,192,361365,1,0,0:0:0:0:
475,192,361440,1,0,0:0:0:0:
402,192,361515,1,0,0:0:0:0:
329,192,361515,1,0,0:0:0:0:
109,192,361515,1,0,0:0:0:0:
182,192,361665,128,0,361740:0:0:0:0:
475,192,361665,1,0,0:0:0:0:
109,192,361740,128,0,361815:0:0:0:0:
402,192,361740,1,0,0:0:0:0:
36,192,361815,128,0,361965:0:0:0:0:
329,192,361815,1,0,0:0:0:0:
256,192,361890,1,0,0:0:0:0:
475,192,361965,128,0,362115:0:0:0:0:
182,192,361965,1,0,0:0:0:0:
256,192,362040,1,0,0:0:0:0:
329,192,362115,1,0,0:0:0:0:
402,192,362115,1,0,0:0:0:0:
36,192,362115,1,0,0:0:0:0:
256,192,362265,128,0,362415:0:0:0:0:
256,192,362565,128,0,362715:0:0:0:0:
475,192,362565,1,0,0:0:0:0:
329,192,362565,1,0,0:0:0:0:
109,192,362565,1,0,0:0:0:0:
256,192,362865,128,0,363015:0:0:0:0:
182,192,362865,1,0,0:0:0:0:
36,192,362865,1,0,0:0:0:0:
402,192,362865,1,0,0:0:0:0:
475,192,363015,128,0,363090:0:0:0:0:
36,192,363015,1,0,0:0:0:0:
109,192,363015,1,0,0:0:0:0:
329,192,363015,1,0,0:0:0:0:
402,192,363090,128,0,363165:0:0:0:0:
329,192,363165,128,0,363240:0:0:0:0:
256,192,363240,128,0,363315:0:0:0:0:
475,192,363315,128,0,363390:0:0:0:0:
36,192,363315,1,0,0:0:0:0:
109,192,363315,1,0,0:0:0:0:
182,192,363315,1,0,0:0:0:0:
402,192,363390,128,0,363465:0:0:0:0:
329,192,363465,128,0,363540:0:0:0:0:
256,192,363540,128,0,363615:0:0:0:0:
182,192,363615,128,0,364065:0:0:0:0:
109,192,363615,1,0,0:0:0:0:
36,192,363615,1,0,0:0:0:0:
475,192,363615,1,0,0:0:0:0:
329,192,363765,1,0,0:0:0:0:
402,192,363840,1,0,0:0:0:0:
475,192,363915,1,0,0:0:0:0:
256,192,363915,1,0,0:0:0:0:
36,192,363915,1,0,0:0:0:0:
329,192,364065,128,0,364140:0:0:0:0:
402,192,364140,128,0,364215:0:0:0:0:
475,192,364215,128,0,364365:0:0:0:0:
36,192,364215,1,0,0:0:0:0:
182,192,364215,1,0,0:0:0:0:
256,192,364215,1,0,0:0:0:0:
329,192,364290,1,0,0:0:0:0:
36,192,364365,128,0,364515:0:0:0:0:
402,192,364365,1,0,0:0:0:0:
109,192,364440,1,0,0:0:0:0:
182,192,364515,1,0,0:0:0:0:
329,192,364515,1,0,0:0:0:0:
475,192,364515,1,0,0:0:0:0:
256,192,364665,128,0,364815:0:0:0:0:
256,192,364965,128,0,365115:0:0:0:0:
475,192,365115,1,0,0:0:0:0:
329,192,365115,1,0,0:0:0:0:
109,192,365115,1,0,0:0:0:0:
256,192,365265,128,0,365415:0:0:0:0:
36,192,365415,128,0,365490:0:0:0:0:
329,192,365415,1,0,0:0:0:0:
475,192,365415,1,0,0:0:0:0:
182,192,365415,1,0,0:0:0:0:
109,192,365490,128,0,365565:0:0:0:0:
402,192,365490,1,0,0:0:0:0:
182,192,365565,128,0,365640:0:0:0:0:
475,192,365565,1,0,0:0:0:0:
256,192,365640,128,0,365715:0:0:0:0:
329,192,365640,1,0,0:0:0:0:
36,192,365715,128,0,365790:0:0:0:0:
402,192,365715,1,0,0:0:0:0:
182,192,365715,1,0,0:0:0:0:
109,192,365790,128,0,365865:0:0:0:0:
475,192,365790,1,0,0:0:0:0:
182,192,365865,128,0,365940:0:0:0:0:
329,192,365865,1,0,0:0:0:0:
256,192,365940,128,0,366015:0:0:0:0:
402,192,365940,1,0,0:0:0:0:
329,192,366015,128,0,366465:0:0:0:0:
475,192,366015,1,0,0:0:0:0:
109,192,366015,1,0,0:0:0:0:
36,192,366015,1,0,0:0:0:0:
182,192,366090,1,0,0:0:0:0:
256,192,366165,1,0,0:0:0:0:
36,192,366240,1,0,0:0:0:0:
109,192,366315,1,0,0:0:0:0:
402,192,366315,1,0,0:0:0:0:
475,192,366315,1,0,0:0:0:0:
182,192,366390,1,0,0:0:0:0:
402,192,366465,128,0,366540:0:0:0:0:
256,192,366465,1,0,0:0:0:0:
475,192,366540,128,0,366615:0:0:0:0:
329,192,366540,1,0,0:0:0:0:
36,192,366615,128,0,366690:0:0:0:0:
402,192,366615,1,0,0:0:0:0:
182,192,366615,1,0,0:0:0:0:
256,192,366615,1,0,0:0:0:0:
109,192,366690,128,0,366765:0:0:0:0:
475,192,366690,1,0,0:0:0:0:
182,192,366765,128,0,366840:0:0:0:0:
402,192,366765,1,0,0:0:0:0:
256,192,366840,128,0,366915:0:0:0:0:
329,192,366840,1,0,0:0:0:0:
182,192,366915,128,0,366990:0:0:0:0:
475,192,366915,1,0,0:0:0:0:
36,192,366915,1,0,0:0:0:0:
402,192,366915,1,0,0:0:0:0:
109,192,366990,128,0,367065:0:0:0:0:
329,192,366990,1,0,0:0:0:0:
36,192,367065,128,0,367140:0:0:0:0:
256,192,367065,1,0,0:0:0:0:
475,192,367140,128,0,367215:0:0:0:0:
182,192,367140,1,0,0:0:0:0:
402,192,367215,128,0,367290:0:0:0:0:
109,192,367215,1,0,0:0:0:0:
256,192,367215,1,0,0:0:0:0:
36,192,367215,1,0,0:0:0:0:
329,192,367290,128,0,367365:0:0:0:0:
182,192,367290,1,0,0:0:0:0:
256,192,367365,128,0,367440:0:0:0:0:
36,192,367365,1,0,0:0:0:0:
182,192,367440,128,0,367515:0:0:0:0:
475,192,367440,1,0,0:0:0:0:
109,192,367515,128,0,367590:0:0:0:0:
402,192,367515,1,0,0:0:0:0:
329,192,367515,1,0,0:0:0:0:
256,192,367515,1,0,0:0:0:0:
36,192,367590,128,0,367665:0:0:0:0:
475,192,367590,1,0,0:0:0:0:
329,192,367665,128,0,367740:0:0:0:0:
256,192,367665,1,0,0:0:0:0:
402,192,367740,128,0,367815:0:0:0:0:
182,192,367740,1,0,0:0:0:0:
475,192,367815,128,0,367890:0:0:0:0:
109,192,367815,1,0,0:0:0:0:
36,192,367815,1,0,0:0:0:0:
329,192,367815,1,0,0:0:0:0:
256,192,367890,128,0,367965:0:0:0:0:
402,192,367890,1,0,0:0:0:0:
329,192,367965,128,0,368040:0:0:0:0:
182,192,367965,1,0,0:0:0:0:
402,192,368040,128,0,368115:0:0:0:0:
109,192,368040,1,0,0:0:0:0:
182,192,368115,128,0,368190:0:0:0:0:
36,192,368115,1,0,0:0:0:0:
329,192,368115,1,0,0:0:0:0:
475,192,368115,1,0,0:0:0:0:
256,192,368190,128,0,368265:0:0:0:0:
109,192,368190,1,0,0:0:0:0:
329,192,368265,128,0,368340:0:0:0:0:
402,192,368265,1,0,0:0:0:0:
475,192,368340,1,0,0:0:0:0:
109,192,368340,128,0,368415:0:0:0:0:
182,192,368415,128,0,368865:0:0:0:0:
256,192,368415,1,0,0:0:0:0:
402,192,368415,1,0,0:0:0:0:
36,192,368415,1,0,0:0:0:0:
329,192,368490,1,0,0:0:0:0:
402,192,368565,1,0,0:0:0:0:
475,192,368640,1,0,0:0:0:0:
36,192,368715,1,0,0:0:0:0:
256,192,368715,1,0,0:0:0:0:
402,192,368715,1,0,0:0:0:0:
109,192,368790,1,0,0:0:0:0:
329,192,368865,128,0,368940:0:0:0:0:
36,192,368865,1,0,0:0:0:0:
402,192,368940,128,0,369015:0:0:0:0:
109,192,368940,1,0,0:0:0:0:
475,192,369015,128,0,369165:0:0:0:0:
182,192,369015,1,0,0:0:0:0:
36,192,369015,1,0,0:0:0:0:
329,192,369015,1,0,0:0:0:0:
256,192,369090,1,0,0:0:0:0:
109,192,369165,128,0,369240:0:0:0:0:
329,192,369165,1,0,0:0:0:0:
182,192,369240,128,0,369315:0:0:0:0:
402,192,369240,1,0,0:0:0:0:
256,192,369315,128,0,369390:0:0:0:0:
475,192,369315,1,0,0:0:0:0:
36,192,369315,1,0,0:0:0:0:
109,192,369315,1,0,0:0:0:0:
329,192,369390,128,0,369465:0:0:0:0:
402,192,369390,1,0,0:0:0:0:
36,192,369465,128,0,369540:0:0:0:0:
182,192,369465,1,0,0:0:0:0:
109,192,369540,128,0,369615:0:0:0:0:
256,192,369540,1,0,0:0:0:0:
182,192,369615,128,0,369765:0:0:0:0:
329,192,369615,1,0,0:0:0:0:
475,192,369615,1,0,0:0:0:0:
36,192,369615,1,0,0:0:0:0:
402,192,369690,1,0,0:0:0:0:
475,192,369765,1,0,0:0:0:0:
402,192,369840,1,0,0:0:0:0:
36,192,369915,128,0,370065:0:0:0:0:
329,192,369915,1,0,0:0:0:0:
109,192,369915,1,0,0:0:0:0:
475,192,369915,1,0,0:0:0:0:
182,192,369915,1,0,0:0:0:0:
256,192,369990,1,0,0:0:0:0:
182,192,370065,1,0,0:0:0:0:
109,192,370140,1,0,0:0:0:0:
475,192,370215,128,0,370365:0:0:0:0:
36,192,370215,1,0,0:0:0:0:
256,192,370215,1,0,0:0:0:0:
402,192,370215,1,0,0:0:0:0:
329,192,370215,1,0,0:0:0:0:
109,192,370290,1,0,0:0:0:0:
182,192,370365,1,0,0:0:0:0:
256,192,370440,1,0,0:0:0:0:
329,192,370515,128,0,370665:0:0:0:0:
36,192,370515,1,0,0:0:0:0:
402,192,370515,1,0,0:0:0:0:
475,192,370515,1,0,0:0:0:0:
182,192,370515,1,0,0:0:0:0:
109,192,370590,1,0,0:0:0:0:
475,192,370665,1,0,0:0:0:0:
402,192,370740,1,0,0:0:0:0:
182,192,370815,1,0,0:0:0:0:
329,192,370815,1,0,0:0:0:0:
256,192,370815,128,0,371265:0:0:0:0:
36,192,370815,1,0,0:0:0:0:
402,192,370965,1,0,0:0:0:0:
475,192,371040,1,0,0:0:0:0:
109,192,371115,1,0,0:0:0:0:
329,192,371115,1,0,0:0:0:0:
402,192,371115,1,0,0:0:0:0:
475,192,371265,1,0,0:0:0:0:
182,192,371265,128,0,371340:0:0:0:0:
402,192,371340,1,0,0:0:0:0:
109,192,371340,128,0,371415:0:0:0:0:
329,192,371415,1,0,0:0:0:0:
36,192,371415,128,0,371565:0:0:0:0:
256,192,371490,1,0,0:0:0:0:
182,192,371565,1,0,0:0:0:0:
475,192,371565,128,0,371715:0:0:0:0:
256,192,371640,1,0,0:0:0:0:
36,192,371715,1,0,0:0:0:0:
402,192,371715,1,0,0:0:0:0:
329,192,371715,1,0,0:0:0:0:
256,192,371865,128,0,372015:0:0:0:0:
329,192,372165,1,0,0:0:0:0:
109,192,372165,1,0,0:0:0:0:
256,192,372165,128,0,372315:0:0:0:0:
475,192,372165,1,0,0:0:0:0:
36,192,372465,1,0,0:0:0:0:
402,192,372465,1,0,0:0:0:0:
256,192,372465,128,0,372615:0:0:0:0:
182,192,372465,1,0,0:0:0:0:
109,192,372615,1,0,0:0:0:0:
329,192,372615,1,0,0:0:0:0:
475,192,372615,128,0,372690:0:0:0:0:
36,192,372615,1,0,0:0:0:0:
402,192,372690,128,0,372765:0:0:0:0:
329,192,372765,128,0,372840:0:0:0:0:
256,192,372840,128,0,372915:0:0:0:0:
109,192,372915,1,0,0:0:0:0:
182,192,372915,1,0,0:0:0:0:
475,192,372915,128,0,372990:0:0:0:0:
36,192,372915,1,0,0:0:0:0:
402,192,372990,128,0,373065:0:0:0:0:
329,192,373065,128,0,373140:0:0:0:0:
256,192,373140,128,0,373215:0:0:0:0:
36,192,373215,1,0,0:0:0:0:
475,192,373215,1,0,0:0:0:0:
182,192,373215,128,0,373665:0:0:0:0:
109,192,373215,1,0,0:0:0:0:
329,192,373365,1,0,0:0:0:0:
402,192,373440,1,0,0:0:0:0:
36,192,373515,1,0,0:0:0:0:
256,192,373515,1,0,0:0:0:0:
475,192,373515,1,0,0:0:0:0:
329,192,373665,128,0,373740:0:0:0:0:
402,192,373740,128,0,373815:0:0:0:0:
182,192,373815,1,0,0:0:0:0:
256,192,373815,1,0,0:0:0:0:
475,192,373815,128,0,373965:0:0:0:0:
36,192,373815,1,0,0:0:0:0:
329,192,373890,1,0,0:0:0:0:
402,192,373965,1,0,0:0:0:0:
36,192,373965,128,0,374115:0:0:0:0:
109,192,374040,1,0,0:0:0:0:
475,192,374115,1,0,0:0:0:0:
329,192,374115,1,0,0:0:0:0:
182,192,374115,1,0,0:0:0:0:
256,192,374265,128,0,374415:0:0:0:0:
256,192,374565,128,0,374715:0:0:0:0:
109,192,374715,1,0,0:0:0:0:
329,192,374715,1,0,0:0:0:0:
475,192,374715,1,0,0:0:0:0:
256,192,374865,128,0,375015:0:0:0:0:
475,192,375015,1,0,0:0:0:0:
182,192,375015,1,0,0:0:0:0:
36,192,375015,128,0,375090:0:0:0:0:
329,192,375015,1,0,0:0:0:0:
402,192,375090,1,0,0:0:0:0:
109,192,375090,128,0,375165:0:0:0:0:
475,192,375165,1,0,0:0:0:0:
182,192,375165,128,0,375240:0:0:0:0:
329,192,375240,1,0,0:0:0:0:
256,192,375240,128,0,375315:0:0:0:0:
182,192,375315,1,0,0:0:0:0:
402,192,375315,1,0,0:0:0:0:
36,192,375315,128,0,375390:0:0:0:0:
475,192,375390,1,0,0:0:0:0:
109,192,375390,128,0,375465:0:0:0:0:
329,192,375465,1,0,0:0:0:0:
182,192,375465,128,0,375540:0:0:0:0:
402,192,375540,1,0,0:0:0:0:
256,192,375540,128,0,375615:0:0:0:0:
109,192,375615,1,0,0:0:0:0:
36,192,375615,1,0,0:0:0:0:
329,192,375615,128,0,376065:0:0:0:0:
475,192,375615,1,0,0:0:0:0:
182,192,375690,1,0,0:0:0:0:
256,192,375765,1,0,0:0:0:0:
36,192,375840,1,0,0:0:0:0:
475,192,375915,1,0,0:0:0:0:
402,192,375915,1,0,0:0:0:0:
109,192,375915,1,0,0:0:0:0:
182,192,375990,1,0,0:0:0:0:
256,192,376065,1,0,0:0:0:0:
402,192,376065,128,0,376140:0:0:0:0:
329,192,376140,1,0,0:0:0:0:
475,192,376140,128,0,376215:0:0:0:0:
182,192,376215,1,0,0:0:0:0:
256,192,376215,1,0,0:0:0:0:
36,192,376215,128,0,376290:0:0:0:0:
402,192,376215,1,0,0:0:0:0:
475,192,376290,1,0,0:0:0:0:
109,192,376290,128,0,376365:0:0:0:0:
402,192,376365,1,0,0:0:0:0:
182,192,376365,128,0,376440:0:0:0:0:
329,192,376440,1,0,0:0:0:0:
256,192,376440,128,0,376515:0:0:0:0:
36,192,376515,1,0,0:0:0:0:
402,192,376515,1,0,0:0:0:0:
182,192,376515,128,0,376590:0:0:0:0:
475,192,376515,1,0,0:0:0:0:
329,192,376590,1,0,0:0:0:0:
109,192,376590,128,0,376665:0:0:0:0:
256,192,376665,1,0,0:0:0:0:
36,192,376665,128,0,376740:0:0:0:0:
182,192,376740,1,0,0:0:0:0:
475,192,376740,128,0,376815:0:0:0:0:
256,192,376815,1,0,0:0:0:0:
36,192,376815,1,0,0:0:0:0:
402,192,376815,128,0,376890:0:0:0:0:
109,192,376815,1,0,0:0:0:0:
182,192,376890,1,0,0:0:0:0:
329,192,376890,128,0,376965:0:0:0:0:
36,192,376965,1,0,0:0:0:0:
256,192,376965,128,0,377040:0:0:0:0:
475,192,377040,1,0,0:0:0:0:
182,192,377040,128,0,377115:0:0:0:0:
329,192,377115,1,0,0:0:0:0:
256,192,377115,1,0,0:0:0:0:
109,192,377115,128,0,377190:0:0:0:0:
402,192,377115,1,0,0:0:0:0:
475,192,377190,1,0,0:0:0:0:
36,192,377190,128,0,377265:0:0:0:0:
256,192,377265,1,0,0:0:0:0:
329,192,377265,128,0,377340:0:0:0:0:
182,192,377340,1,0,0:0:0:0:
402,192,377340,128,0,377415:0:0:0:0:
36,192,377415,1,0,0:0:0:0:
329,192,377415,1,0,0:0:0:0:
475,192,377415,128,0,377490:0:0:0:0:
109,192,377415,1,0,0:0:0:0:
402,192,377490,1,0,0:0:0:0:
256,192,377490,128,0,377565:0:0:0:0:
182,192,377565,1,0,0:0:0:0:
329,192,377565,128,0,377640:0:0:0:0:
109,192,377640,1,0,0:0:0:0:
402,192,377640,128,0,377715:0:0:0:0:
329,192,377715,1,0,0:0:0:0:
475,192,377715,1,0,0:0:0:0:
182,192,377715,128,0,377790:0:0:0:0:
36,192,377715,1,0,0:0:0:0:
109,192,377790,1,0,0:0:0:0:
256,192,377790,128,0,377865:0:0:0:0:
402,192,377865,1,0,0:0:0:0:
329,192,377865,128,0,377940:0:0:0:0:
109,192,377940,128,0,378015:0:0:0:0:
475,192,377940,1,0,0:0:0:0:
402,192,378015,1,0,0:0:0:0:
36,192,378015,1,0,0:0:0:0:
182,192,378015,128,0,378465:0:0:0:0:
256,192,378015,1,0,0:0:0:0:
329,192,378090,1,0,0:0:0:0:
402,192,378165,1,0,0:0:0:0:
475,192,378240,1,0,0:0:0:0:
402,192,378315,1,0,0:0:0:0:
256,192,378315,1,0,0:0:0:0:
36,192,378315,1,0,0:0:0:0:
109,192,378390,1,0,0:0:0:0:
36,192,378465,1,0,0:0:0:0:
329,192,378465,128,0,378540:0:0:0:0:
109,192,378540,1,0,0:0:0:0:
402,192,378540,128,0,378615:0:0:0:0:
36,192,378615,1,0,0:0:0:0:
329,192,378615,1,0,0:0:0:0:
475,192,378615,128,0,378765:0:0:0:0:
182,192,378615,1,0,0:0:0:0:
256,192,378690,1,0,0:0:0:0:
329,192,378765,1,0,0:0:0:0:
109,192,378765,128,0,378840:0:0:0:0:
402,192,378840,1,0,0:0:0:0:
182,192,378840,128,0,378915:0:0:0:0:
36,192,378915,1,0,0:0:0:0:
109,192,378915,1,0,0:0:0:0:
256,192,378915,128,0,378990:0:0:0:0:
475,192,378915,1,0,0:0:0:0:
402,192,378990,1,0,0:0:0:0:
329,192,378990,128,0,379065:0:0:0:0:
182,192,379065,1,0,0:0:0:0:
36,192,379065,128,0,379140:0:0:0:0:
256,192,379140,1,0,0:0:0:0:
109,192,379140,128,0,379215:0:0:0:0:
475,192,379215,1,0,0:0:0:0:
36,192,379215,1,0,0:0:0:0:
182,192,379215,128,0,379365:0:0:0:0:
329,192,379215,1,0,0:0:0:0:
402,192,379290,1,0,0:0:0:0:
475,192,379365,1,0,0:0:0:0:
402,192,379440,1,0,0:0:0:0:
475,192,379515,1,0,0:0:0:0:
182,192,379515,1,0,0:0:0:0:
109,192,379515,1,0,0:0:0:0:
36,192,379515,128,0,379665:0:0:0:0:
329,192,379515,1,0,0:0:0:0:
256,192,379590,1,0,0:0:0:0:
182,192,379665,1,0,0:0:0:0:
109,192,379740,1,0,0:0:0:0:
402,192,379815,1,0,0:0:0:0:
329,192,379815,1,0,0:0:0:0:
256,192,379815,1,0,0:0:0:0:
475,192,379815,128,0,379965:0:0:0:0:
36,192,379815,1,0,0:0:0:0:
109,192,379890,1,0,0:0:0:0:
182,192,379965,1,0,0:0:0:0:
256,192,380040,1,0,0:0:0:0:
475,192,380115,1,0,0:0:0:0:
182,192,380115,1,0,0:0:0:0:
402,192,380115,1,0,0:0:0:0:
329,192,380115,128,0,380265:0:0:0:0:
36,192,380115,1,0,0:0:0:0:
109,192,380190,1,0,0:0:0:0:
182,192,380265,1,0,0:0:0:0:
256,192,380340,1,0,0:0:0:0:
475,192,380415,128,0,381615:0:0:0:0:
36,192,380415,128,0,381315:0:0:0:0:
329,192,380415,1,0,0:0:0:0:
109,192,380415,1,0,0:0:0:0:
402,192,380490,1,0,0:0:0:0:
109,192,380565,1,0,0:0:0:0:
182,192,380640,1,0,0:0:0:0:
256,192,380715,1,0,0:0:0:0:
329,192,380715,1,0,0:0:0:0:
182,192,380790,1,0,0:0:0:0:
109,192,380865,1,0,0:0:0:0:
402,192,380940,1,0,0:0:0:0:
329,192,381015,1,0,0:0:0:0:
256,192,381090,1,0,0:0:0:0:
182,192,381165,1,0,0:0:0:0:
109,192,381240,1,0,0:0:0:0:
402,192,381315,1,0,0:0:0:0:
182,192,381315,1,0,0:0:0:0:
256,192,381315,1,0,0:0:0:0:
329,192,381390,1,0,0:0:0:0:
256,192,381465,1,0,0:0:0:0:
182,192,381540,1,0,0:0:0:0:
256,192,381615,1,0,0:0:0:0:
329,192,381690,1,0,0:0:0:0:
402,192,381765,1,0,0:0:0:0:
475,192,381840,1,0,0:0:0:0:
402,192,381915,128,0,382065:0:0:0:0:
182,192,381915,1,0,0:0:0:0:
109,192,381915,1,0,0:0:0:0:
36,192,381915,1,0,0:0:0:0:
256,192,381990,1,0,0:0:0:0:
329,192,382065,1,0,0:0:0:0:
36,192,382140,1,0,0:0:0:0:
109,192,382215,1,0,0:0:0:0:
256,192,382215,128,0,382365:0:0:0:0:
182,192,382290,1,0,0:0:0:0:
475,192,382365,1,0,0:0:0:0:
402,192,382440,1,0,0:0:0:0:
109,192,382515,128,0,382665:0:0:0:0:
329,192,382515,1,0,0:0:0:0:
475,192,382515,1,0,0:0:0:0:
256,192,382590,1,0,0:0:0:0:
329,192,382665,128,0,382815:0:0:0:0:
182,192,382665,1,0,0:0:0:0:
402,192,382665,1,0,0:0:0:0:
36,192,382740,1,0,0:0:0:0:
475,192,382815,128,0,383115:0:0:0:0:
109,192,382815,1,0,0:0:0:0:
256,192,382815,1,0,0:0:0:0:
182,192,382890,1,0,0:0:0:0:
256,192,382965,1,0,0:0:0:0:
36,192,383040,1,0,0:0:0:0:
329,192,383115,128,0,383265:0:0:0:0:
109,192,383115,1,0,0:0:0:0:
402,192,383115,1,0,0:0:0:0:
36,192,383190,1,0,0:0:0:0:
182,192,383265,128,0,383415:0:0:0:0:
475,192,383265,1,0,0:0:0:0:
402,192,383340,1,0,0:0:0:0:
36,192,383415,128,0,383715:0:0:0:0:
329,192,383415,1,0,0:0:0:0:
256,192,383415,1,0,0:0:0:0:
475,192,383490,1,0,0:0:0:0:
402,192,383565,1,0,0:0:0:0:
329,192,383640,1,0,0:0:0:0:
256,192,383715,128,0,383865:0:0:0:0:
475,192,383715,1,0,0:0:0:0:
182,192,383715,1,0,0:0:0:0:
402,192,383790,1,0,0:0:0:0:
475,192,383865,128,0,384165:0:0:0:0:
329,192,383865,1,0,0:0:0:0:
256,192,383940,1,0,0:0:0:0:
182,192,384015,1,0,0:0:0:0:
109,192,384090,1,0,0:0:0:0:
182,192,384165,1,0,0:0:0:0:
256,192,384165,128,0,384315:0:0:0:0:
36,192,384165,1,0,0:0:0:0:
402,192,384165,1,0,0:0:0:0:
329,192,384240,1,0,0:0:0:0:
36,192,384315,128,0,384615:0:0:0:0:
402,192,384315,1,0,0:0:0:0:
109,192,384315,1,0,0:0:0:0:
182,192,384315,1,0,0:0:0:0:
475,192,384390,1,0,0:0:0:0:
329,192,384465,1,0,0:0:0:0:
402,192,384540,1,0,0:0:0:0:
329,192,384615,128,0,384765:0:0:0:0:
475,192,384615,1,0,0:0:0:0:
109,192,384615,1,0,0:0:0:0:
182,192,384615,1,0,0:0:0:0:
256,192,384690,1,0,0:0:0:0:
109,192,384765,128,0,384915:0:0:0:0:
182,192,384765,1,0,0:0:0:0:
256,192,384840,1,0,0:0:0:0:
402,192,384915,128,0,385065:0:0:0:0:
329,192,384915,1,0,0:0:0:0:
475,192,384915,1,0,0:0:0:0:
182,192,384915,1,0,0:0:0:0:
36,192,384990,1,0,0:0:0:0:
182,192,385065,128,0,385215:0:0:0:0:
109,192,385065,1,0,0:0:0:0:
36,192,385140,1,0,0:0:0:0:
475,192,385215,128,0,385665:0:0:0:0:
402,192,385215,1,0,0:0:0:0:
109,192,385215,1,0,0:0:0:0:
329,192,385290,1,0,0:0:0:0:
256,192,385365,1,0,0:0:0:0:
182,192,385440,1,0,0:0:0:0:
109,192,385515,1,0,0:0:0:0:
256,192,385515,1,0,0:0:0:0:
402,192,385515,1,0,0:0:0:0:
36,192,385590,1,0,0:0:0:0:
329,192,385665,128,0,385965:0:0:0:0:
109,192,385665,1,0,0:0:0:0:
182,192,385740,1,0,0:0:0:0:
256,192,385815,1,0,0:0:0:0:
475,192,385890,1,0,0:0:0:0:
182,192,385965,128,0,386115:0:0:0:0:
402,192,385965,1,0,0:0:0:0:
329,192,386040,1,0,0:0:0:0:
36,192,386115,128,0,386265:0:0:0:0:
256,192,386115,1,0,0:0:0:0:
402,192,386115,1,0,0:0:0:0:
182,192,386190,1,0,0:0:0:0:
475,192,386265,128,0,386415:0:0:0:0:
109,192,386265,1,0,0:0:0:0:
329,192,386265,1,0,0:0:0:0:
36,192,386340,1,0,0:0:0:0:
329,192,386415,128,0,386565:0:0:0:0:
109,192,386415,1,0,0:0:0:0:
256,192,386415,1,0,0:0:0:0:
182,192,386490,1,0,0:0:0:0:
256,192,386565,1,0,0:0:0:0:
329,192,386640,1,0,0:0:0:0:
36,192,386715,128,0,386865:0:0:0:0:
402,192,386715,1,0,0:0:0:0:
182,192,386715,1,0,0:0:0:0:
109,192,386715,1,0,0:0:0:0:
475,192,386790,1,0,0:0:0:0:
256,192,386865,128,0,387015:0:0:0:0:
329,192,386865,1,0,0:0:0:0:
402,192,386940,1,0,0:0:0:0:
109,192,387015,128,0,387165:0:0:0:0:
475,192,387015,1,0,0:0:0:0:
256,192,387090,1,0,0:0:0:0:
329,192,387165,128,0,387315:0:0:0:0:
182,192,387165,1,0,0:0:0:0:
109,192,387240,1,0,0:0:0:0:
182,192,387315,128,0,387465:0:0:0:0:
402,192,387315,1,0,0:0:0:0:
36,192,387315,1,0,0:0:0:0:
475,192,387315,1,0,0:0:0:0:
329,192,387390,1,0,0:0:0:0:
402,192,387465,128,0,387615:0:0:0:0:
256,192,387465,1,0,0:0:0:0:
182,192,387540,1,0,0:0:0:0:
256,192,387615,128,0,387765:0:0:0:0:
109,192,387615,1,0,0:0:0:0:
36,192,387690,1,0,0:0:0:0:
402,192,387765,1,0,0:0:0:0:
329,192,387840,1,0,0:0:0:0:
475,192,387915,128,0,388065:0:0:0:0:
256,192,387915,1,0,0:0:0:0:
109,192,387915,1,0,0:0:0:0:
36,192,387915,1,0,0:0:0:0:
182,192,387990,1,0,0:0:0:0:
329,192,388065,128,0,388215:0:0:0:0:
109,192,388065,1,0,0:0:0:0:
182,192,388140,1,0,0:0:0:0:
36,192,388215,128,0,388365:0:0:0:0:
256,192,388215,1,0,0:0:0:0:
475,192,388215,1,0,0:0:0:0:
402,192,388215,1,0,0:0:0:0:
329,192,388290,1,0,0:0:0:0:
182,192,388365,128,0,388515:0:0:0:0:
402,192,388365,1,0,0:0:0:0:
475,192,388440,1,0,0:0:0:0:
256,192,388515,1,0,0:0:0:0:
36,192,388515,1,0,0:0:0:0:
402,192,388515,1,0,0:0:0:0:
329,192,388590,1,0,0:0:0:0:
402,192,388665,128,0,388815:0:0:0:0:
182,192,388665,1,0,0:0:0:0:
256,192,388740,1,0,0:0:0:0:
109,192,388815,128,0,388965:0:0:0:0:
329,192,388815,1,0,0:0:0:0:
36,192,388815,1,0,0:0:0:0:
475,192,388815,1,0,0:0:0:0:
256,192,388890,1,0,0:0:0:0:
182,192,388965,1,0,0:0:0:0:
402,192,389040,1,0,0:0:0:0:
256,192,389115,1,0,0:0:0:0:
182,192,389115,1,0,0:0:0:0:
109,192,389115,1,0,0:0:0:0:
329,192,389190,1,0,0:0:0:0:
402,192,389190,1,0,0:0:0:0:
475,192,389190,1,0,0:0:0:0:
182,192,389265,1,0,0:0:0:0:
109,192,389265,1,0,0:0:0:0:
36,192,389265,1,0,0:0:0:0:
256,192,389340,1,0,0:0:0:0:
329,192,389340,1,0,0:0:0:0:
402,192,389340,1,0,0:0:0:0:
475,192,389415,1,0,0:0:0:0:
36,192,389415,1,0,0:0:0:0:
182,192,389415,1,0,0:0:0:0:
109,192,389490,1,0,0:0:0:0:
402,192,389490,1,0,0:0:0:0:
329,192,389565,1,0,0:0:0:0:
182,192,389565,1,0,0:0:0:0:
36,192,389640,1,0,0:0:0:0:
475,192,389640,1,0,0:0:0:0:
256,192,389715,1,0,0:0:0:0:
329,192,389715,1,0,0:0:0:0:
402,192,389715,1,0,0:0:0:0:
182,192,389790,1,0,0:0:0:0:
109,192,389790,1,0,0:0:0:0:
36,192,389790,1,0,0:0:0:0:
329,192,389865,1,0,0:0:0:0:
402,192,389865,1,0,0:0:0:0:
475,192,389865,1,0,0:0:0:0:
256,192,389940,1,0,0:0:0:0:
182,192,389940,1,0,0:0:0:0:
109,192,389940,1,0,0:0:0:0:
329,192,390015,1,0,0:0:0:0:
36,192,390015,1,0,0:0:0:0:
475,192,390015,1,0,0:0:0:0:
402,192,390090,1,0,0:0:0:0:
475,192,390165,1,0,0:0:0:0:
256,192,390165,1,0,0:0:0:0:
36,192,390240,1,0,0:0:0:0:
109,192,390315,1,0,0:0:0:0:
182,192,390390,1,0,0:0:0:0:
109,192,390465,1,0,0:0:0:0:
329,192,390465,1,0,0:0:0:0:
36,192,390540,1,0,0:0:0:0:
256,192,390615,128,0,390690:0:0:0:0:
475,192,390615,1,0,0:0:0:0:
182,192,390690,128,0,390765:0:0:0:0:
402,192,390690,1,0,0:0:0:0:
109,192,390765,128,0,390840:0:0:0:0:
329,192,390765,1,0,0:0:0:0:
256,192,390765,1,0,0:0:0:0:
36,192,390840,128,0,390915:0:0:0:0:
475,192,390840,1,0,0:0:0:0:
329,192,390915,128,0,390990:0:0:0:0:
402,192,390915,1,0,0:0:0:0:
256,192,390990,128,0,391065:0:0:0:0:
475,192,390990,1,0,0:0:0:0:
182,192,391065,128,0,391140:0:0:0:0:
402,192,391065,1,0,0:0:0:0:
36,192,391065,1,0,0:0:0:0:
109,192,391140,128,0,391215:0:0:0:0:
475,192,391140,1,0,0:0:0:0:
329,192,391215,128,0,391290:0:0:0:0:
256,192,391215,1,0,0:0:0:0:
402,192,391290,128,0,391365:0:0:0:0:
182,192,391290,1,0,0:0:0:0:
475,192,391365,128,0,391440:0:0:0:0:
109,192,391365,1,0,0:0:0:0:
256,192,391365,1,0,0:0:0:0:
182,192,391440,128,0,391515:0:0:0:0:
36,192,391440,1,0,0:0:0:0:
256,192,391515,128,0,391590:0:0:0:0:
109,192,391515,1,0,0:0:0:0:
329,192,391590,128,0,391665:0:0:0:0:
182,192,391590,1,0,0:0:0:0:
402,192,391665,128,0,391740:0:0:0:0:
256,192,391665,1,0,0:0:0:0:
36,192,391665,1,0,0:0:0:0:
475,192,391740,128,0,391815:0:0:0:0:
329,192,391740,1,0,0:0:0:0:
402,192,391815,1,0,0:0:0:0:
109,192,391890,1,0,0:0:0:0:
182,192,391965,1,0,0:0:0:0:
475,192,391965,1,0,0:0:0:0:
256,192,392040,1,0,0:0:0:0:
329,192,392115,1,0,0:0:0:0:
36,192,392190,1,0,0:0:0:0:
109,192,392265,1,0,0:0:0:0:
402,192,392265,1,0,0:0:0:0:
182,192,392340,1,0,0:0:0:0:
256,192,392415,1,0,0:0:0:0:
475,192,392490,1,0,0:0:0:0:
402,192,392565,1,0,0:0:0:0:
182,192,392565,1,0,0:0:0:0:
329,192,392640,1,0,0:0:0:0:
256,192,392715,1,0,0:0:0:0:
329,192,392790,1,0,0:0:0:0:
402,192,392865,1,0,0:0:0:0:
109,192,392865,1,0,0:0:0:0:
475,192,392940,1,0,0:0:0:0:
182,192,393015,1,0,0:0:0:0:
256,192,393090,1,0,0:0:0:0:
329,192,393165,1,0,0:0:0:0:
182,192,393165,1,0,0:0:0:0:
402,192,393240,1,0,0:0:0:0:
475,192,393315,128,0,393390:0:0:0:0:
36,192,393315,1,0,0:0:0:0:
402,192,393390,128,0,393465:0:0:0:0:
109,192,393390,1,0,0:0:0:0:
329,192,393465,128,0,393540:0:0:0:0:
182,192,393465,1,0,0:0:0:0:
36,192,393465,1,0,0:0:0:0:
256,192,393540,128,0,393615:0:0:0:0:
109,192,393540,1,0,0:0:0:0:
36,192,393615,128,0,393690:0:0:0:0:
475,192,393615,1,0,0:0:0:0:
109,192,393690,128,0,393765:0:0:0:0:
402,192,393690,1,0,0:0:0:0:
182,192,393765,128,0,393840:0:0:0:0:
329,192,393765,1,0,0:0:0:0:
475,192,393765,1,0,0:0:0:0:
256,192,393840,128,0,393915:0:0:0:0:
402,192,393840,1,0,0:0:0:0:
329,192,393915,128,0,393990:0:0:0:0:
475,192,393915,1,0,0:0:0:0:
402,192,393990,128,0,394065:0:0:0:0:
182,192,393990,1,0,0:0:0:0:
475,192,394065,128,0,394140:0:0:0:0:
109,192,394065,1,0,0:0:0:0:
256,192,394065,1,0,0:0:0:0:
182,192,394140,128,0,394215:0:0:0:0:
36,192,394140,1,0,0:0:0:0:
256,192,394215,128,0,394290:0:0:0:0:
109,192,394215,1,0,0:0:0:0:
329,192,394290,128,0,394365:0:0:0:0:
182,192,394290,1,0,0:0:0:0:
402,192,394365,128,0,394440:0:0:0:0:
256,192,394365,1,0,0:0:0:0:
475,192,394365,1,0,0:0:0:0:
109,192,394440,128,0,394515:0:0:0:0:
329,192,394440,1,0,0:0:0:0:
182,192,394515,128,0,394590:0:0:0:0:
402,192,394515,1,0,0:0:0:0:
256,192,394590,128,0,394665:0:0:0:0:
475,192,394590,1,0,0:0:0:0:
329,192,394665,128,0,394740:0:0:0:0:
36,192,394665,1,0,0:0:0:0:
182,192,394665,1,0,0:0:0:0:
402,192,394740,128,0,394815:0:0:0:0:
109,192,394740,1,0,0:0:0:0:
182,192,394815,1,0,0:0:0:0:
256,192,394890,1,0,0:0:0:0:
182,192,394965,1,0,0:0:0:0:
329,192,394965,1,0,0:0:0:0:
109,192,395040,1,0,0:0:0:0:
475,192,395115,128,0,395190:0:0:0:0:
36,192,395115,1,0,0:0:0:0:
402,192,395190,128,0,395265:0:0:0:0:
256,192,395190,1,0,0:0:0:0:
329,192,395265,128,0,395340:0:0:0:0:
182,192,395265,1,0,0:0:0:0:
475,192,395265,1,0,0:0:0:0:
256,192,395340,128,0,395415:0:0:0:0:
109,192,395340,1,0,0:0:0:0:
36,192,395415,128,0,395490:0:0:0:0:
182,192,395415,1,0,0:0:0:0:
109,192,395490,128,0,395565:0:0:0:0:
256,192,395490,1,0,0:0:0:0:
182,192,395565,128,0,395640:0:0:0:0:
329,192,395565,1,0,0:0:0:0:
475,192,395565,1,0,0:0:0:0:
256,192,395640,128,0,395715:0:0:0:0:
402,192,395640,1,0,0:0:0:0:
475,192,395715,128,0,395790:0:0:0:0:
329,192,395715,1,0,0:0:0:0:
402,192,395790,128,0,395865:0:0:0:0:
256,192,395790,1,0,0:0:0:0:
329,192,395865,128,0,395940:0:0:0:0:
182,192,395865,1,0,0:0:0:0:
36,192,395865,1,0,0:0:0:0:
256,192,395940,128,0,396015:0:0:0:0:
109,192,395940,1,0,0:0:0:0:
36,192,396015,1,0,0:0:0:0:
109,192,396090,1,0,0:0:0:0:
182,192,396165,1,0,0:0:0:0:
402,192,396165,1,0,0:0:0:0:
256,192,396240,1,0,0:0:0:0:
36,192,396315,128,0,396390:0:0:0:0:
329,192,396315,1,0,0:0:0:0:
109,192,396390,128,0,396465:0:0:0:0:
402,192,396390,1,0,0:0:0:0:
182,192,396465,128,0,396540:0:0:0:0:
475,192,396465,1,0,0:0:0:0:
329,192,396465,1,0,0:0:0:0:
256,192,396540,128,0,396615:0:0:0:0:
36,192,396540,1,0,0:0:0:0:
329,192,396615,128,0,396690:0:0:0:0:
109,192,396615,1,0,0:0:0:0:
402,192,396690,128,0,396765:0:0:0:0:
182,192,396690,1,0,0:0:0:0:
475,192,396765,128,0,396840:0:0:0:0:
256,192,396765,1,0,0:0:0:0:
36,192,396765,1,0,0:0:0:0:
109,192,396840,128,0,396915:0:0:0:0:
329,192,396840,1,0,0:0:0:0:
182,192,396915,128,0,396990:0:0:0:0:
402,192,396915,1,0,0:0:0:0:
256,192,396990,128,0,397065:0:0:0:0:
475,192,396990,1,0,0:0:0:0:
329,192,397065,128,0,397140:0:0:0:0:
36,192,397065,1,0,0:0:0:0:
182,192,397065,1,0,0:0:0:0:
402,192,397140,128,0,397215:0:0:0:0:
109,192,397140,1,0,0:0:0:0:
182,192,397215,1,0,0:0:0:0:
256,192,397290,1,0,0:0:0:0:
329,192,397365,1,0,0:0:0:0:
109,192,397365,1,0,0:0:0:0:
402,192,397440,1,0,0:0:0:0:
475,192,397515,128,0,397590:0:0:0:0:
182,192,397515,1,0,0:0:0:0:
256,192,397590,1,0,0:0:0:0:
475,192,397665,128,0,397740:0:0:0:0:
329,192,397665,1,0,0:0:0:0:
36,192,397665,1,0,0:0:0:0:
109,192,397740,1,0,0:0:0:0:
475,192,397815,128,0,397890:0:0:0:0:
182,192,397815,1,0,0:0:0:0:
256,192,397890,1,0,0:0:0:0:
36,192,397965,1,0,0:0:0:0:
329,192,397965,1,0,0:0:0:0:
109,192,398040,1,0,0:0:0:0:
36,192,398115,128,0,398190:0:0:0:0:
182,192,398115,1,0,0:0:0:0:
256,192,398190,1,0,0:0:0:0:
329,192,398265,1,0,0:0:0:0:
475,192,398265,1,0,0:0:0:0:
402,192,398340,1,0,0:0:0:0:
475,192,398415,128,0,398490:0:0:0:0:
36,192,398415,128,0,398490:0:0:0:0:
182,192,398415,1,0,0:0:0:0:
109,192,398490,128,0,398565:0:0:0:0:
329,192,398490,1,0,0:0:0:0:
402,192,398490,128,0,398565:0:0:0:0:
475,192,398565,128,0,398640:0:0:0:0:
36,192,398565,128,0,398640:0:0:0:0:
182,192,398565,1,0,0:0:0:0:
402,192,398640,128,0,398715:0:0:0:0:
109,192,398640,128,0,398715:0:0:0:0:
329,192,398640,1,0,0:0:0:0:
182,192,398715,1,0,0:0:0:0:
256,192,398715,1,0,0:0:0:0:
475,192,399015,128,0,399090:0:0:0:0:
36,192,399015,128,0,399090:0:0:0:0:
329,192,399015,1,0,0:0:0:0:
402,192,399090,128,0,399165:0:0:0:0:
109,192,399090,128,0,399165:0:0:0:0:
182,192,399090,1,0,0:0:0:0:
475,192,399165,128,0,399240:0:0:0:0:
36,192,399165,128,0,399240:0:0:0:0:
329,192,399165,1,0,0:0:0:0:
182,192,399240,1,0,0:0:0:0:
402,192,399240,128,0,399315:0:0:0:0:
109,192,399240,128,0,399315:0:0:0:0:
256,192,399315,1,0,0:0:0:0:
329,192,399315,1,0,0:0:0:0:
475,192,399615,128,0,399690:0:0:0:0:
256,192,399615,1,0,0:0:0:0:
36,192,399615,1,0,0:0:0:0:
402,192,399690,128,0,399765:0:0:0:0:
182,192,399690,1,0,0:0:0:0:
329,192,399765,128,0,399840:0:0:0:0:
109,192,399765,1,0,0:0:0:0:
256,192,399840,128,0,399915:0:0:0:0:
36,192,399840,1,0,0:0:0:0:
109,192,399915,1,0,0:0:0:0:
402,192,399915,1,0,0:0:0:0:
475,192,399915,1,0,0:0:0:0:
36,192,400065,128,0,400140:0:0:0:0:
329,192,400065,1,0,0:0:0:0:
256,192,400065,1,0,0:0:0:0:
109,192,400140,128,0,400215:0:0:0:0:
402,192,400140,1,0,0:0:0:0:
182,192,400215,128,0,400290:0:0:0:0:
475,192,400215,1,0,0:0:0:0:
402,192,400290,1,0,0:0:0:0:
475,192,400515,128,0,400590:0:0:0:0:
256,192,400515,1,0,0:0:0:0:
182,192,400515,1,0,0:0:0:0:
402,192,400590,128,0,400665:0:0:0:0:
109,192,400590,1,0,0:0:0:0:
329,192,400665,128,0,400740:0:0:0:0:
36,192,400665,1,0,0:0:0:0:
109,192,400740,1,0,0:0:0:0:
36,192,400965,128,0,401040:0:0:0:0:
256,192,400965,1,0,0:0:0:0:
329,192,400965,1,0,0:0:0:0:
109,192,401040,128,0,401115:0:0:0:0:
402,192,401040,1,0,0:0:0:0:
182,192,401115,128,0,401190:0:0:0:0:
475,192,401115,1,0,0:0:0:0:
402,192,401190,1,0,0:0:0:0:
475,192,401415,128,0,401490:0:0:0:0:
256,192,401415,1,0,0:0:0:0:
182,192,401415,1,0,0:0:0:0:
402,192,401490,128,0,401565:0:0:0:0:
109,192,401490,1,0,0:0:0:0:
329,192,401565,128,0,401640:0:0:0:0:
36,192,401565,1,0,0:0:0:0:
256,192,401640,1,0,0:0:0:0:
402,192,401640,128,0,401715:0:0:0:0:
475,192,401715,128,0,401790:0:0:0:0:
182,192,401715,1,0,0:0:0:0:
402,192,401790,128,0,401865:0:0:0:0:
109,192,401790,1,0,0:0:0:0:
329,192,401865,128,0,401940:0:0:0:0:
36,192,401865,1,0,0:0:0:0:
256,192,401940,1,0,0:0:0:0:
402,192,401940,128,0,402015:0:0:0:0:
475,192,402015,128,0,402090:0:0:0:0:
182,192,402015,1,0,0:0:0:0:
402,192,402090,128,0,402165:0:0:0:0:
109,192,402090,1,0,0:0:0:0:
329,192,402165,128,0,402240:0:0:0:0:
36,192,402165,1,0,0:0:0:0:
109,192,402240,1,0,0:0:0:0:
36,192,402465,128,0,402540:0:0:0:0:
256,192,402465,1,0,0:0:0:0:
329,192,402465,1,0,0:0:0:0:
109,192,402540,128,0,402615:0:0:0:0:
402,192,402540,1,0,0:0:0:0:
182,192,402615,128,0,402690:0:0:0:0:
475,192,402615,1,0,0:0:0:0:
402,192,402690,1,0,0:0:0:0:
475,192,402915,128,0,402990:0:0:0:0:
256,192,402915,1,0,0:0:0:0:
182,192,402915,1,0,0:0:0:0:
402,192,402990,128,0,403065:0:0:0:0:
109,192,402990,1,0,0:0:0:0:
329,192,403065,128,0,403140:0:0:0:0:
36,192,403065,1,0,0:0:0:0:
109,192,403140,1,0,0:0:0:0:
36,192,403365,128,0,403440:0:0:0:0:
256,192,403365,1,0,0:0:0:0:
329,192,403365,1,0,0:0:0:0:
109,192,403440,128,0,403515:0:0:0:0:
402,192,403440,1,0,0:0:0:0:
182,192,403515,128,0,403590:0:0:0:0:
475,192,403515,1,0,0:0:0:0:
402,192,403590,1,0,0:0:0:0:
36,192,403815,128,0,403890:0:0:0:0:
256,192,403815,1,0,0:0:0:0:
329,192,403815,1,0,0:0:0:0:
109,192,403890,128,0,403965:0:0:0:0:
402,192,403890,1,0,0:0:0:0:
182,192,403965,128,0,404040:0:0:0:0:
475,192,403965,1,0,0:0:0:0:
256,192,404040,1,0,0:0:0:0:
109,192,404040,128,0,404115:0:0:0:0:
36,192,404115,128,0,404190:0:0:0:0:
329,192,404115,1,0,0:0:0:0:
109,192,404190,128,0,404265:0:0:0:0:
402,192,404190,1,0,0:0:0:0:
182,192,404265,128,0,404340:0:0:0:0:
475,192,404265,1,0,0:0:0:0:
256,192,404340,1,0,0:0:0:0:
109,192,404340,128,0,404415:0:0:0:0:
36,192,404415,128,0,404490:0:0:0:0:
329,192,404415,1,0,0:0:0:0:
109,192,404490,128,0,404565:0:0:0:0:
402,192,404490,1,0,0:0:0:0:
182,192,404565,128,0,404640:0:0:0:0:
475,192,404565,1,0,0:0:0:0:
402,192,404640,1,0,0:0:0:0:
36,192,404865,128,0,404940:0:0:0:0:
256,192,404865,1,0,0:0:0:0:
329,192,404865,1,0,0:0:0:0:
109,192,404940,128,0,405015:0:0:0:0:
402,192,404940,1,0,0:0:0:0:
182,192,405015,128,0,405090:0:0:0:0:
475,192,405015,1,0,0:0:0:0:
402,192,405090,1,0,0:0:0:0:
475,192,405315,128,0,405390:0:0:0:0:
256,192,405315,1,0,0:0:0:0:
182,192,405315,1,0,0:0:0:0:
402,192,405390,128,0,405465:0:0:0:0:
109,192,405390,1,0,0:0:0:0:
329,192,405465,128,0,405540:0:0:0:0:
36,192,405465,1,0,0:0:0:0:
109,192,405540,1,0,0:0:0:0:
36,192,405765,128,0,405840:0:0:0:0:
256,192,405765,1,0,0:0:0:0:
329,192,405765,1,0,0:0:0:0:
109,192,405840,128,0,405915:0:0:0:0:
402,192,405840,1,0,0:0:0:0:
182,192,405915,128,0,405990:0:0:0:0:
475,192,405915,1,0,0:0:0:0:
402,192,405990,1,0,0:0:0:0:
475,192,406215,128,0,406290:0:0:0:0:
256,192,406215,1,0,0:0:0:0:
182,192,406215,1,0,0:0:0:0:
402,192,406290,128,0,406365:0:0:0:0:
109,192,406290,1,0,0:0:0:0:
329,192,406365,128,0,406440:0:0:0:0:
36,192,406365,1,0,0:0:0:0:
256,192,406440,1,0,0:0:0:0:
402,192,406440,128,0,406515:0:0:0:0:
475,192,406515,128,0,406590:0:0:0:0:
182,192,406515,1,0,0:0:0:0:
402,192,406590,128,0,406665:0:0:0:0:
109,192,406590,1,0,0:0:0:0:
329,192,406665,128,0,406740:0:0:0:0:
36,192,406665,1,0,0:0:0:0:
256,192,406740,1,0,0:0:0:0:
402,192,406740,128,0,406815:0:0:0:0:
475,192,406815,128,0,406890:0:0:0:0:
182,192,406815,1,0,0:0:0:0:
402,192,406890,128,0,406965:0:0:0:0:
109,192,406890,1,0,0:0:0:0:
329,192,406965,128,0,407040:0:0:0:0:
36,192,406965,1,0,0:0:0:0:
109,192,407040,1,0,0:0:0:0:
36,192,407190,128,0,407265:0:0:0:0:
256,192,407190,1,0,0:0:0:0:
329,192,407190,1,0,0:0:0:0:
109,192,407265,128,0,407340:0:0:0:0:
402,192,407265,1,0,0:0:0:0:
182,192,407340,128,0,407415:0:0:0:0:
475,192,407340,1,0,0:0:0:0:
402,192,407415,1,0,0:0:0:0:
475,192,407715,128,0,407790:0:0:0:0:
256,192,407715,1,0,0:0:0:0:
182,192,407715,1,0,0:0:0:0:
402,192,407790,128,0,407865:0:0:0:0:
109,192,407790,1,0,0:0:0:0:
329,192,407865,128,0,407940:0:0:0:0:
36,192,407865,1,0,0:0:0:0:
109,192,407940,1,0,0:0:0:0:
36,192,408165,128,0,408240:0:0:0:0:
256,192,408165,1,0,0:0:0:0:
329,192,408165,1,0,0:0:0:0:
109,192,408240,128,0,408315:0:0:0:0:
402,192,408240,1,0,0:0:0:0:
182,192,408315,128,0,408390:0:0:0:0:
475,192,408315,1,0,0:0:0:0:
402,192,408390,1,0,0:0:0:0:
36,192,408615,128,0,408690:0:0:0:0:
256,192,408615,1,0,0:0:0:0:
329,192,408615,1,0,0:0:0:0:
109,192,408690,128,0,408765:0:0:0:0:
402,192,408690,1,0,0:0:0:0:
182,192,408765,128,0,408840:0:0:0:0:
475,192,408765,1,0,0:0:0:0:
256,192,408840,1,0,0:0:0:0:
109,192,408840,128,0,408915:0:0:0:0:
36,192,408915,128,0,408990:0:0:0:0:
329,192,408915,1,0,0:0:0:0:
109,192,408990,128,0,409065:0:0:0:0:
402,192,408990,1,0,0:0:0:0:
182,192,409065,128,0,409140:0:0:0:0:
475,192,409065,1,0,0:0:0:0:
256,192,409140,1,0,0:0:0:0:
109,192,409140,128,0,409215:0:0:0:0:
36,192,409215,128,0,409290:0:0:0:0:
329,192,409215,1,0,0:0:0:0:
109,192,409290,128,0,409365:0:0:0:0:
402,192,409290,1,0,0:0:0:0:
182,192,409365,128,0,409440:0:0:0:0:
475,192,409365,1,0,0:0:0:0:
402,192,409440,1,0,0:0:0:0:
36,192,409665,128,0,409740:0:0:0:0:
256,192,409665,1,0,0:0:0:0:
329,192,409665,1,0,0:0:0:0:
109,192,409740,128,0,409815:0:0:0:0:
402,192,409740,1,0,0:0:0:0:
475,192,409815,1,0,0:0:0:0:
182,192,409815,128,0,409890:0:0:0:0:
402,192,409890,1,0,0:0:0:0:
475,192,410115,128,0,410190:0:0:0:0:
256,192,410115,1,0,0:0:0:0:
182,192,410115,1,0,0:0:0:0:
402,192,410190,128,0,410265:0:0:0:0:
109,192,410190,1,0,0:0:0:0:
329,192,410265,128,0,410340:0:0:0:0:
36,192,410265,1,0,0:0:0:0:
109,192,410340,1,0,0:0:0:0:
36,192,410565,128,0,410640:0:0:0:0:
256,192,410565,1,0,0:0:0:0:
329,192,410565,1,0,0:0:0:0:
109,192,410640,128,0,410715:0:0:0:0:
402,192,410640,1,0,0:0:0:0:
182,192,410715,128,0,410790:0:0:0:0:
475,192,410715,1,0,0:0:0:0:
402,192,410790,1,0,0:0:0:0:
475,192,411015,128,0,411090:0:0:0:0:
256,192,411015,1,0,0:0:0:0:
182,192,411015,1,0,0:0:0:0:
402,192,411090,128,0,411165:0:0:0:0:
109,192,411090,1,0,0:0:0:0:
329,192,411165,128,0,411240:0:0:0:0:
36,192,411165,1,0,0:0:0:0:
256,192,411240,1,0,0:0:0:0:
402,192,411240,128,0,411315:0:0:0:0:
475,192,411315,128,0,411390:0:0:0:0:
182,192,411315,1,0,0:0:0:0:
402,192,411390,128,0,411465:0:0:0:0:
109,192,411390,1,0,0:0:0:0:
329,192,411465,128,0,411540:0:0:0:0:
36,192,411465,1,0,0:0:0:0:
256,192,411540,1,0,0:0:0:0:
402,192,411540,128,0,411615:0:0:0:0:
475,192,411615,128,0,411690:0:0:0:0:
182,192,411615,1,0,0:0:0:0:
402,192,411690,128,0,411765:0:0:0:0:
109,192,411690,1,0,0:0:0:0:
329,192,411765,128,0,411840:0:0:0:0:
36,192,411765,1,0,0:0:0:0:
109,192,411840,1,0,0:0:0:0:
36,192,412065,128,0,412140:0:0:0:0:
256,192,412065,1,0,0:0:0:0:
329,192,412065,1,0,0:0:0:0:
109,192,412140,128,0,412215:0:0:0:0:
402,192,412140,1,0,0:0:0:0:
182,192,412215,128,0,412290:0:0:0:0:
475,192,412215,1,0,0:0:0:0:
402,192,412290,1,0,0:0:0:0:
475,192,412515,128,0,412590:0:0:0:0:
256,192,412515,1,0,0:0:0:0:
182,192,412515,1,0,0:0:0:0:
402,192,412590,128,0,412665:0:0:0:0:
109,192,412590,1,0,0:0:0:0:
329,192,412665,128,0,412740:0:0:0:0:
36,192,412665,1,0,0:0:0:0:
109,192,412740,1,0,0:0:0:0:
36,192,412965,128,0,413040:0:0:0:0:
256,192,412965,1,0,0:0:0:0:
329,192,412965,1,0,0:0:0:0:
109,192,413040,128,0,413115:0:0:0:0:
402,192,413040,1,0,0:0:0:0:
182,192,413115,128,0,413190:0:0:0:0:
475,192,413115,1,0,0:0:0:0:
402,192,413190,1,0,0:0:0:0:
36,192,413415,128,0,413490:0:0:0:0:
256,192,413415,1,0,0:0:0:0:
329,192,413415,1,0,0:0:0:0:
109,192,413490,128,0,413565:0:0:0:0:
402,192,413490,1,0,0:0:0:0:
182,192,413565,128,0,413640:0:0:0:0:
475,192,413565,1,0,0:0:0:0:
256,192,413640,1,0,0:0:0:0:
109,192,413640,128,0,413715:0:0:0:0:
36,192,413715,128,0,413790:0:0:0:0:
329,192,413715,1,0,0:0:0:0:
109,192,413790,128,0,413865:0:0:0:0:
402,192,413790,1,0,0:0:0:0:
182,192,413865,128,0,413940:0:0:0:0:
475,192,413865,1,0,0:0:0:0:
256,192,413940,1,0,0:0:0:0:
109,192,413940,128,0,414015:0:0:0:0:
36,192,414015,128,0,414090:0:0:0:0:
329,192,414015,1,0,0:0:0:0:
109,192,414090,128,0,414165:0:0:0:0:
402,192,414090,1,0,0:0:0:0:
182,192,414165,128,0,414240:0:0:0:0:
475,192,414165,1,0,0:0:0:0:
402,192,414240,1,0,0:0:0:0:
36,192,414465,128,0,414540:0:0:0:0:
256,192,414465,1,0,0:0:0:0:
329,192,414465,1,0,0:0:0:0:
109,192,414540,128,0,414615:0:0:0:0:
402,192,414540,1,0,0:0:0:0:
182,192,414615,128,0,414690:0:0:0:0:
475,192,414615,1,0,0:0:0:0:
402,192,414690,1,0,0:0:0:0:
475,192,414915,128,0,414990:0:0:0:0:
256,192,414915,1,0,0:0:0:0:
182,192,414915,1,0,0:0:0:0:
402,192,414990,128,0,415065:0:0:0:0:
109,192,414990,1,0,0:0:0:0:
329,192,415065,128,0,415140:0:0:0:0:
36,192,415065,1,0,0:0:0:0:
109,192,415140,1,0,0:0:0:0:
36,192,415365,128,0,415440:0:0:0:0:
256,192,415365,1,0,0:0:0:0:
329,192,415365,1,0,0:0:0:0:
109,192,415440,128,0,415515:0:0:0:0:
402,192,415440,1,0,0:0:0:0:
182,192,415515,128,0,415590:0:0:0:0:
475,192,415515,1,0,0:0:0:0:
402,192,415590,1,0,0:0:0:0:
475,192,415815,128,0,415890:0:0:0:0:
256,192,415815,1,0,0:0:0:0:
182,192,415815,1,0,0:0:0:0:
402,192,415890,128,0,415965:0:0:0:0:
109,192,415890,1,0,0:0:0:0:
329,192,415965,128,0,416040:0:0:0:0:
36,192,415965,1,0,0:0:0:0:
256,192,416040,1,0,0:0:0:0:
402,192,416040,128,0,416115:0:0:0:0:
475,192,416115,128,0,416190:0:0:0:0:
182,192,416115,1,0,0:0:0:0:
402,192,416190,128,0,416265:0:0:0:0:
109,192,416190,1,0,0:0:0:0:
329,192,416265,128,0,416340:0:0:0:0:
36,192,416265,1,0,0:0:0:0:
256,192,416340,1,0,0:0:0:0:
402,192,416340,128,0,416415:0:0:0:0:
475,192,416415,128,0,416490:0:0:0:0:
182,192,416415,1,0,0:0:0:0:
402,192,416490,128,0,416565:0:0:0:0:
109,192,416490,1,0,0:0:0:0:
329,192,416565,128,0,416640:0:0:0:0:
36,192,416565,1,0,0:0:0:0:
109,192,416640,1,0,0:0:0:0:
36,192,416865,128,0,416940:0:0:0:0:
256,192,416865,1,0,0:0:0:0:
329,192,416865,1,0,0:0:0:0:
109,192,416940,128,0,417015:0:0:0:0:
402,192,416940,1,0,0:0:0:0:
182,192,417015,128,0,417090:0:0:0:0:
475,192,417015,1,0,0:0:0:0:
402,192,417090,1,0,0:0:0:0:
475,192,417315,128,0,417390:0:0:0:0:
256,192,417315,1,0,0:0:0:0:
182,192,417315,1,0,0:0:0:0:
402,192,417390,128,0,417465:0:0:0:0:
109,192,417390,1,0,0:0:0:0:
329,192,417465,128,0,417540:0:0:0:0:
36,192,417465,1,0,0:0:0:0:
109,192,417540,1,0,0:0:0:0:
36,192,417765,128,0,417840:0:0:0:0:
256,192,417765,1,0,0:0:0:0:
329,192,417765,1,0,0:0:0:0:
109,192,417840,128,0,417915:0:0:0:0:
402,192,417840,1,0,0:0:0:0:
182,192,417915,128,0,417990:0:0:0:0:
475,192,417915,1,0,0:0:0:0:
402,192,417990,1,0,0:0:0:0:
475,192,418215,128,0,418290:0:0:0:0:
256,192,418215,1,0,0:0:0:0:
182,192,418215,1,0,0:0:0:0:
402,192,418290,128,0,418365:0:0:0:0:
109,192,418290,1,0,0:0:0:0:
329,192,418365,128,0,418440:0:0:0:0:
36,192,418365,1,0,0:0:0:0:
256,192,418440,1,0,0:0:0:0:
402,192,418440,128,0,418515:0:0:0:0:
475,192,418515,128,0,418590:0:0:0:0:
182,192,418515,1,0,0:0:0:0:
402,192,418590,128,0,418665:0:0:0:0:
109,192,418590,1,0,0:0:0:0:
329,192,418665,128,0,418740:0:0:0:0:
36,192,418665,1,0,0:0:0:0:
256,192,418740,1,0,0:0:0:0:
402,192,418740,128,0,418815:0:0:0:0:
475,192,418815,128,0,418890:0:0:0:0:
182,192,418815,1,0,0:0:0:0:
36,192,418815,1,0,0:0:0:0:
329,192,418815,1,0,0:0:0:0:
402,192,418890,128,0,418965:0:0:0:0:
109,192,418890,1,0,0:0:0:0:
329,192,418965,128,0,419040:0:0:0:0:
36,192,418965,1,0,0:0:0:0:
256,192,418965,1,0,0:0:0:0:
182,192,418965,1,0,0:0:0:0:
109,192,419040,1,0,0:0:0:0:
182,192,419115,1,0,0:0:0:0:
256,192,419190,1,0,0:0:0:0:
36,192,419265,128,0,419340:0:0:0:0:
329,192,419265,1,0,0:0:0:0:
475,192,419265,1,0,0:0:0:0:
182,192,419265,1,0,0:0:0:0:
109,192,419340,128,0,419415:0:0:0:0:
402,192,419340,1,0,0:0:0:0:
182,192,419415,128,0,419490:0:0:0:0:
475,192,419415,1,0,0:0:0:0:
256,192,419490,128,0,419565:0:0:0:0:
36,192,419490,1,0,0:0:0:0:
109,192,419565,1,0,0:0:0:0:
329,192,419565,1,0,0:0:0:0:
402,192,419565,1,0,0:0:0:0:
182,192,419640,1,0,0:0:0:0:
256,192,419715,1,0,0:0:0:0:
182,192,419790,1,0,0:0:0:0:
475,192,419865,128,0,419940:0:0:0:0:
109,192,419865,1,0,0:0:0:0:
329,192,419865,1,0,0:0:0:0:
256,192,419865,1,0,0:0:0:0:
402,192,419940,128,0,420015:0:0:0:0:
36,192,419940,1,0,0:0:0:0:
329,192,420015,128,0,420090:0:0:0:0:
109,192,420015,1,0,0:0:0:0:
182,192,420090,1,0,0:0:0:0:
256,192,420165,1,0,0:0:0:0:
36,192,420165,1,0,0:0:0:0:
475,192,420165,1,0,0:0:0:0:
329,192,420240,1,0,0:0:0:0:
182,192,420315,128,0,420390:0:0:0:0:
402,192,420315,1,0,0:0:0:0:
475,192,420390,1,0,0:0:0:0:
109,192,420465,1,0,0:0:0:0:
256,192,420465,1,0,0:0:0:0:
402,192,420465,1,0,0:0:0:0:
182,192,420540,1,0,0:0:0:0:
36,192,420615,128,0,420690:0:0:0:0:
256,192,420615,1,0,0:0:0:0:
329,192,420690,1,0,0:0:0:0:
402,192,420765,1,0,0:0:0:0:
182,192,420765,1,0,0:0:0:0:
109,192,420765,1,0,0:0:0:0:
256,192,420840,1,0,0:0:0:0:
475,192,420915,128,0,420990:0:0:0:0:
182,192,420915,1,0,0:0:0:0:
109,192,420990,1,0,0:0:0:0:
329,192,421065,128,0,421140:0:0:0:0:
36,192,421065,1,0,0:0:0:0:
182,192,421065,1,0,0:0:0:0:
402,192,421065,1,0,0:0:0:0:
475,192,421140,1,0,0:0:0:0:
182,192,421215,128,0,421290:0:0:0:0:
402,192,421215,1,0,0:0:0:0:
109,192,421290,128,0,421365:0:0:0:0:
329,192,421290,1,0,0:0:0:0:
36,192,421365,128,0,421440:0:0:0:0:
256,192,421365,1,0,0:0:0:0:
475,192,421365,1,0,0:0:0:0:
402,192,421365,1,0,0:0:0:0:
182,192,421440,1,0,0:0:0:0:
109,192,421515,1,0,0:0:0:0:
36,192,421590,1,0,0:0:0:0:
402,192,421665,1,0,0:0:0:0:
256,192,421665,1,0,0:0:0:0:
109,192,421665,1,0,0:0:0:0:
329,192,421740,1,0,0:0:0:0:
475,192,421815,128,0,421890:0:0:0:0:
256,192,421815,1,0,0:0:0:0:
402,192,421890,128,0,421965:0:0:0:0:
182,192,421890,1,0,0:0:0:0:
329,192,421965,128,0,422040:0:0:0:0:
109,192,421965,1,0,0:0:0:0:
36,192,421965,1,0,0:0:0:0:
475,192,421965,1,0,0:0:0:0:
256,192,422040,128,0,422115:0:0:0:0:
182,192,422040,1,0,0:0:0:0:
475,192,422115,1,0,0:0:0:0:
402,192,422190,1,0,0:0:0:0:
36,192,422265,128,0,422340:0:0:0:0:
329,192,422265,1,0,0:0:0:0:
182,192,422265,1,0,0:0:0:0:
475,192,422265,1,0,0:0:0:0:
109,192,422340,128,0,422415:0:0:0:0:
256,192,422340,1,0,0:0:0:0:
182,192,422415,128,0,422490:0:0:0:0:
329,192,422415,1,0,0:0:0:0:
402,192,422490,1,0,0:0:0:0:
475,192,422565,1,0,0:0:0:0:
329,192,422565,1,0,0:0:0:0:
256,192,422565,1,0,0:0:0:0:
36,192,422640,1,0,0:0:0:0:
329,192,422715,128,0,422790:0:0:0:0:
109,192,422715,1,0,0:0:0:0:
182,192,422790,1,0,0:0:0:0:
256,192,422865,1,0,0:0:0:0:
475,192,422865,1,0,0:0:0:0:
36,192,422865,1,0,0:0:0:0:
329,192,422940,1,0,0:0:0:0:
475,192,423015,128,0,423090:0:0:0:0:
402,192,423015,1,0,0:0:0:0:
109,192,423090,1,0,0:0:0:0:
182,192,423165,1,0,0:0:0:0:
402,192,423165,1,0,0:0:0:0:
329,192,423165,1,0,0:0:0:0:
256,192,423240,1,0,0:0:0:0:
36,192,423315,128,0,423390:0:0:0:0:
329,192,423315,1,0,0:0:0:0:
402,192,423390,1,0,0:0:0:0:
475,192,423465,1,0,0:0:0:0:
256,192,423465,1,0,0:0:0:0:
109,192,423465,1,0,0:0:0:0:
402,192,423540,1,0,0:0:0:0:
182,192,423615,128,0,423690:0:0:0:0:
36,192,423615,1,0,0:0:0:0:
256,192,423690,128,0,423765:0:0:0:0:
109,192,423690,1,0,0:0:0:0:
329,192,423765,128,0,423840:0:0:0:0:
182,192,423765,1,0,0:0:0:0:
475,192,423765,1,0,0:0:0:0:
36,192,423765,1,0,0:0:0:0:
256,192,423840,1,0,0:0:0:0:
402,192,423840,128,0,423915:0:0:0:0:
329,192,423915,1,0,0:0:0:0:
109,192,423915,128,0,423990:0:0:0:0:
402,192,423990,1,0,0:0:0:0:
182,192,423990,128,0,424065:0:0:0:0:
256,192,424065,128,0,424140:0:0:0:0:
109,192,424065,1,0,0:0:0:0:
36,192,424065,1,0,0:0:0:0:
475,192,424065,1,0,0:0:0:0:
329,192,424140,128,0,424215:0:0:0:0:
182,192,424140,1,0,0:0:0:0:
402,192,424215,128,0,424290:0:0:0:0:
256,192,424215,1,0,0:0:0:0:
475,192,424290,128,0,424365:0:0:0:0:
329,192,424290,1,0,0:0:0:0:
256,192,424365,1,0,0:0:0:0:
36,192,424365,1,0,0:0:0:0:
109,192,424365,1,0,0:0:0:0:
402,192,424365,128,0,424440:0:0:0:0:
182,192,424440,1,0,0:0:0:0:
329,192,424440,128,0,424515:0:0:0:0:
109,192,424515,1,0,0:0:0:0:
256,192,424515,128,0,424590:0:0:0:0:
182,192,424590,128,0,424665:0:0:0:0:
36,192,424590,1,0,0:0:0:0:
109,192,424665,128,0,424740:0:0:0:0:
402,192,424665,1,0,0:0:0:0:
329,192,424665,1,0,0:0:0:0:
475,192,424665,1,0,0:0:0:0:
36,192,424740,128,0,424815:0:0:0:0:
256,192,424740,1,0,0:0:0:0:
329,192,424815,128,0,424890:0:0:0:0:
182,192,424815,1,0,0:0:0:0:
109,192,424890,1,0,0:0:0:0:
182,192,424965,1,0,0:0:0:0:
402,192,424965,1,0,0:0:0:0:
36,192,424965,1,0,0:0:0:0:
256,192,425040,1,0,0:0:0:0:
402,192,425115,128,0,425190:0:0:0:0:
329,192,425115,1,0,0:0:0:0:
256,192,425190,1,0,0:0:0:0:
182,192,425265,1,0,0:0:0:0:
36,192,425265,1,0,0:0:0:0:
475,192,425265,1,0,0:0:0:0:
109,192,425340,1,0,0:0:0:0:
475,192,425415,128,0,425490:0:0:0:0:
36,192,425415,1,0,0:0:0:0:
256,192,425490,1,0,0:0:0:0:
329,192,425565,1,0,0:0:0:0:
109,192,425565,1,0,0:0:0:0:
182,192,425565,1,0,0:0:0:0:
402,192,425640,1,0,0:0:0:0:
256,192,425715,128,0,425790:0:0:0:0:
475,192,425715,1,0,0:0:0:0:
109,192,425790,1,0,0:0:0:0:
182,192,425865,1,0,0:0:0:0:
329,192,425865,1,0,0:0:0:0:
475,192,425865,1,0,0:0:0:0:
402,192,425940,1,0,0:0:0:0:
36,192,426015,128,0,426090:0:0:0:0:
329,192,426015,1,0,0:0:0:0:
109,192,426090,128,0,426165:0:0:0:0:
256,192,426090,1,0,0:0:0:0:
182,192,426165,128,0,426240:0:0:0:0:
475,192,426165,1,0,0:0:0:0:
402,192,426165,1,0,0:0:0:0:
256,192,426240,128,0,426315:0:0:0:0:
36,192,426240,1,0,0:0:0:0:
109,192,426315,1,0,0:0:0:0:
329,192,426315,128,0,426390:0:0:0:0:
182,192,426390,1,0,0:0:0:0:
402,192,426390,128,0,426465:0:0:0:0:
256,192,426465,1,0,0:0:0:0:
329,192,426465,1,0,0:0:0:0:
36,192,426465,1,0,0:0:0:0:
475,192,426465,128,0,426540:0:0:0:0:
329,192,426540,1,0,0:0:0:0:
256,192,426615,128,0,426690:0:0:0:0:
109,192,426615,1,0,0:0:0:0:
182,192,426690,128,0,426765:0:0:0:0:
36,192,426690,1,0,0:0:0:0:
109,192,426765,128,0,426840:0:0:0:0:
402,192,426765,1,0,0:0:0:0:
329,192,426765,1,0,0:0:0:0:
475,192,426765,1,0,0:0:0:0:
36,192,426840,128,0,426915:0:0:0:0:
182,192,426840,1,0,0:0:0:0:
109,192,426915,1,0,0:0:0:0:
256,192,426915,128,0,426990:0:0:0:0:
182,192,426990,1,0,0:0:0:0:
329,192,426990,128,0,427065:0:0:0:0:
256,192,427065,1,0,0:0:0:0:
36,192,427065,1,0,0:0:0:0:
109,192,427065,1,0,0:0:0:0:
402,192,427065,128,0,427140:0:0:0:0:
329,192,427140,1,0,0:0:0:0:
475,192,427140,128,0,427215:0:0:0:0:
256,192,427215,1,0,0:0:0:0:
182,192,427215,1,0,0:0:0:0:
109,192,427215,1,0,0:0:0:0:
329,192,427290,1,0,0:0:0:0:
402,192,427290,1,0,0:0:0:0:
475,192,427290,1,0,0:0:0:0:
182,192,427365,1,0,0:0:0:0:
109,192,427365,1,0,0:0:0:0:
36,192,427365,1,0,0:0:0:0:
256,192,427440,1,0,0:0:0:0:
329,192,427440,1,0,0:0:0:0:
402,192,427440,1,0,0:0:0:0:
475,192,427515,1,0,0:0:0:0:
36,192,427515,1,0,0:0:0:0:
402,192,427590,1,0,0:0:0:0:
109,192,427590,1,0,0:0:0:0:
329,192,427665,1,0,0:0:0:0:
182,192,427665,1,0,0:0:0:0:
475,192,427740,1,0,0:0:0:0:
36,192,427740,1,0,0:0:0:0:
329,192,427815,1,0,0:0:0:0:
182,192,427815,1,0,0:0:0:0:
402,192,427890,1,0,0:0:0:0:
109,192,427890,1,0,0:0:0:0:
475,192,427965,1,0,0:0:0:0:
36,192,427965,1,0,0:0:0:0:
182,192,428040,1,0,0:0:0:0:
329,192,428040,1,0,0:0:0:0:
402,192,428115,1,0,0:0:0:0:
109,192,428115,1,0,0:0:0:0:
475,192,428190,1,0,0:0:0:0:
36,192,428190,1,0,0:0:0:0:
182,192,428265,1,0,0:0:0:0:
329,192,428265,1,0,0:0:0:0:
36,192,428340,1,0,0:0:0:0:
475,192,428340,1,0,0:0:0:0:
256,192,428415,1,0,0:0:0:0:
329,192,428415,1,0,0:0:0:0:
402,192,428415,1,0,0:0:0:0:
182,192,428490,1,0,0:0:0:0:
109,192,428490,1,0,0:0:0:0:
36,192,428490,1,0,0:0:0:0:
329,192,428565,1,0,0:0:0:0:
402,192,428565,1,0,0:0:0:0:
475,192,428565,1,0,0:0:0:0:
256,192,428640,1,0,0:0:0:0:
182,192,428640,1,0,0:0:0:0:
109,192,428640,1,0,0:0:0:0:
256,192,429315,1,0,0:0:0:0:
109,192,429315,1,0,0:0:0:0:
182,192,429315,1,0,0:0:0:0:
402,192,429390,1,0,0:0:0:0:
475,192,429390,1,0,0:0:0:0:
329,192,429390,1,0,0:0:0:0:
36,192,429465,1,0,0:0:0:0:
182,192,429465,1,0,0:0:0:0:
109,192,429465,1,0,0:0:0:0:
256,192,429540,1,0,0:0:0:0:
402,192,429540,1,0,0:0:0:0:
329,192,429540,1,0,0:0:0:0:
475,192,430215,1,0,0:0:0:0:
36,192,430215,1,0,0:0:0:0:
329,192,430815,1,0,0:0:0:0:
402,192,430815,1,0,0:0:0:0:
256,192,430815,1,0,0:0:0:0:
182,192,430890,1,0,0:0:0:0:
36,192,430890,1,0,0:0:0:0:
109,192,430890,1,0,0:0:0:0:
402,192,430965,1,0,0:0:0:0:
329,192,430965,1,0,0:0:0:0:
475,192,430965,1,0,0:0:0:0:
182,192,431040,1,0,0:0:0:0:
109,192,431040,1,0,0:0:0:0:
256,192,431040,1,0,0:0:0:0:
256,192,431415,1,0,0:0:0:0:
109,192,431415,1,0,0:0:0:0:
182,192,431415,1,0,0:0:0:0:
402,192,431490,1,0,0:0:0:0:
475,192,431490,1,0,0:0:0:0:
329,192,431490,1,0,0:0:0:0:
36,192,431565,1,0,0:0:0:0:
182,192,431565,1,0,0:0:0:0:
109,192,431565,1,0,0:0:0:0:
256,192,431640,1,0,0:0:0:0:
402,192,431640,1,0,0:0:0:0:
329,192,431640,1,0,0:0:0:0:
329,192,432015,1,0,0:0:0:0:
402,192,432015,1,0,0:0:0:0:
256,192,432015,1,0,0:0:0:0:
182,192,432090,1,0,0:0:0:0:
36,192,432090,1,0,0:0:0:0:
109,192,432090,1,0,0:0:0:0:
402,192,432165,1,0,0:0:0:0:
329,192,432165,1,0,0:0:0:0:
475,192,432165,1,0,0:0:0:0:
182,192,432240,1,0,0:0:0:0:
109,192,432240,1,0,0:0:0:0:
256,192,432240,1,0,0:0:0:0:
475,192,432615,1,0,0:0:0:0:
36,192,432615,1,0,0:0:0:0:
256,192,432915,1,0,0:0:0:0:
109,192,432915,1,0,0:0:0:0:
182,192,432915,1,0,0:0:0:0:
402,192,432990,1,0,0:0:0:0:
475,192,432990,1,0,0:0:0:0:
329,192,432990,1,0,0:0:0:0:
36,192,433065,1,0,0:0:0:0:
182,192,433065,1,0,0:0:0:0:
109,192,433065,1,0,0:0:0:0:
256,192,433140,1,0,0:0:0:0:
402,192,433140,1,0,0:0:0:0:
329,192,433140,1,0,0:0:0:0:
475,192,433815,1,0,0:0:0:0:
36,192,433815,1,0,0:0:0:0:
329,192,434415,1,0,0:0:0:0:
402,192,434415,1,0,0:0:0:0:
256,192,434415,1,0,0:0:0:0:
182,192,434490,1,0,0:0:0:0:
36,192,434490,1,0,0:0:0:0:
109,192,434490,1,0,0:0:0:0:
402,192,434565,1,0,0:0:0:0:
329,192,434565,1,0,0:0:0:0:
475,192,434565,1,0,0:0:0:0:
182,192,434640,1,0,0:0:0:0:
109,192,434640,1,0,0:0:0:0:
256,192,434640,1,0,0:0:0:0:
256,192,435015,1,0,0:0:0:0:
109,192,435015,1,0,0:0:0:0:
182,192,435015,1,0,0:0:0:0:
402,192,435090,1,0,0:0:0:0:
475,192,435090,1,0,0:0:0:0:
329,192,435090,1,0,0:0:0:0:
36,192,435165,1,0,0:0:0:0:
182,192,435165,1,0,0:0:0:0:
109,192,435165,1,0,0:0:0:0:
256,192,435240,1,0,0:0:0:0:
402,192,435240,1,0,0:0:0:0:
329,192,435240,1,0,0:0:0:0:
329,192,435615,1,0,0:0:0:0:
402,192,435615,1,0,0:0:0:0:
256,192,435615,1,0,0:0:0:0:
182,192,435690,1,0,0:0:0:0:
36,192,435690,1,0,0:0:0:0:
109,192,435690,1,0,0:0:0:0:
402,192,435765,1,0,0:0:0:0:
329,192,435765,1,0,0:0:0:0:
475,192,435765,1,0,0:0:0:0:
182,192,435840,1,0,0:0:0:0:
109,192,435840,1,0,0:0:0:0:
256,192,435840,1,0,0:0:0:0:
475,192,436215,1,0,0:0:0:0:
36,192,436215,1,0,0:0:0:0:
256,192,436515,1,0,0:0:0:0:
109,192,436515,1,0,0:0:0:0:
182,192,436515,1,0,0:0:0:0:
402,192,436590,1,0,0:0:0:0:
475,192,436590,1,0,0:0:0:0:
329,192,436590,1,0,0:0:0:0:
36,192,436665,1,0,0:0:0:0:
182,192,436665,1,0,0:0:0:0:
109,192,436665,1,0,0:0:0:0:
256,192,436740,1,0,0:0:0:0:
402,192,436740,1,0,0:0:0:0:
329,192,436740,1,0,0:0:0:0:
475,192,437415,1,0,0:0:0:0:
36,192,437415,1,0,0:0:0:0:
329,192,438015,1,0,0:0:0:0:
402,192,438015,1,0,0:0:0:0:
256,192,438015,1,0,0:0:0:0:
182,192,438090,1,0,0:0:0:0:
36,192,438090,1,0,0:0:0:0:
109,192,438090,1,0,0:0:0:0:
402,192,438165,1,0,0:0:0:0:
329,192,438165,1,0,0:0:0:0:
475,192,438165,1,0,0:0:0:0:
182,192,438240,1,0,0:0:0:0:
109,192,438240,1,0,0:0:0:0:
256,192,438240,1,0,0:0:0:0:
256,192,438615,1,0,0:0:0:0:
109,192,438615,1,0,0:0:0:0:
182,192,438615,1,0,0:0:0:0:
402,192,438690,1,0,0:0:0:0:
475,192,438690,1,0,0:0:0:0:
329,192,438690,1,0,0:0:0:0:
36,192,438765,1,0,0:0:0:0:
182,192,438765,1,0,0:0:0:0:
109,192,438765,1,0,0:0:0:0:
256,192,438840,1,0,0:0:0:0:
402,192,438840,1,0,0:0:0:0:
329,192,438840,1,0,0:0:0:0:
329,192,439215,1,0,0:0:0:0:
402,192,439215,1,0,0:0:0:0:
256,192,439215,1,0,0:0:0:0:
182,192,439290,1,0,0:0:0:0:
36,192,439290,1,0,0:0:0:0:
109,192,439290,1,0,0:0:0:0:
402,192,439365,1,0,0:0:0:0:
329,192,439365,1,0,0:0:0:0:
475,192,439365,1,0,0:0:0:0:
182,192,439440,1,0,0:0:0:0:
109,192,439440,1,0,0:0:0:0:
256,192,439440,1,0,0:0:0:0:
475,192,439815,1,0,0:0:0:0:
36,192,439815,1,0,0:0:0:0:
36,192,440115,1,0,0:0:0:0:
475,192,440115,1,0,0:0:0:0:
182,192,440115,1,0,0:0:0:0:
402,192,440190,1,0,0:0:0:0:
256,192,440190,1,0,0:0:0:0:
109,192,440190,1,0,0:0:0:0:
329,192,440265,1,0,0:0:0:0:
36,192,440265,1,0,0:0:0:0:
475,192,440265,1,0,0:0:0:0:
402,192,440340,1,0,0:0:0:0:
109,192,440340,1,0,0:0:0:0:
256,192,440340,1,0,0:0:0:0:
182,192,440415,128,0,442365:0:0:0:0:
475,192,440415,128,0,442065:0:0:0:0:
329,192,440415,128,0,442215:0:0:0:0:
36,192,440415,128,0,442515:0:0:0:0:
329,192,442815,1,0,0:0:0:0:
36,192,442815,1,0,0:0:0:0:
475,192,442815,1,0,0:0:0:0:
402,192,443115,1,0,0:0:0:0:
109,192,443115,1,0,0:0:0:0:
475,192,443415,1,0,0:0:0:0:
182,192,443415,1,0,0:0:0:0:
402,192,443715,1,0,0:0:0:0:
256,192,443715,1,0,0:0:0:0:
109,192,444015,1,0,0:0:0:0:
36,192,444015,1,0,0:0:0:0:
36,192,444315,1,0,0:0:0:0:
109,192,444315,1,0,0:0:0:0:
475,192,444615,1,0,0:0:0:0:
256,192,444615,1,0,0:0:0:0:
402,192,444915,1,0,0:0:0:0:
182,192,444915,1,0,0:0:0:0:
36,192,445215,1,0,0:0:0:0:
109,192,445215,1,0,0:0:0:0:
329,192,445215,1,0,0:0:0:0:
256,192,445515,1,0,0:0:0:0:
402,192,445515,1,0,0:0:0:0:
182,192,445515,1,0,0:0:0:0:
475,192,445815,1,0,0:0:0:0:
329,192,445815,1,0,0:0:0:0:
36,192,445815,1,0,0:0:0:0:
109,192,446115,1,0,0:0:0:0:
256,192,446115,1,0,0:0:0:0:
402,192,446115,1,0,0:0:0:0:
182,192,446415,1,0,0:0:0:0:
329,192,446415,1,0,0:0:0:0:
109,192,446715,1,0,0:0:0:0:
36,192,446715,1,0,0:0:0:0:
36,192,447015,1,0,0:0:0:0:
109,192,447015,1,0,0:0:0:0:
329,192,447015,1,0,0:0:0:0:
402,192,447315,1,0,0:0:0:0:
475,192,447315,1,0,0:0:0:0:
182,192,447315,1,0,0:0:0:0:
475,192,447615,1,0,0:0:0:0:
402,192,447615,1,0,0:0:0:0:
182,192,447615,1,0,0:0:0:0:
256,192,449115,1,0,0:0:0:0:
475,192,449115,1,0,0:0:0:0:
402,192,449415,1,0,0:0:0:0:
182,192,449415,1,0,0:0:0:0:
256,192,449715,1,0,0:0:0:0:
36,192,449715,1,0,0:0:0:0:
109,192,450015,1,0,0:0:0:0:
329,192,450015,1,0,0:0:0:0:
475,192,450015,1,0,0:0:0:0:
256,192,451215,1,0,0:0:0:0:
402,192,451215,1,0,0:0:0:0:
109,192,451215,1,0,0:0:0:0:
256,192,451815,1,0,0:0:0:0:
182,192,452415,128,0,453915:0:0:0:0:
36,192,452415,128,0,453915:0:0:0:0:
329,192,452715,128,0,453915:0:0:0:0:
475,192,452715,128,0,453915:0:0:0:0:
329,192,454215,128,0,454815:0:0:0:0:
402,192,454215,128,0,454815:0:0:0:0:
182,192,454515,128,0,454815:0:0:0:0:
109,192,454515,128,0,454815:0:0:0:0:
36,192,454815,128,0,456315:0:0:0:0:
475,192,454815,128,0,456315:0:0:0:0:
256,192,455265,128,0,456315:0:0:0:0:
109,192,456615,128,0,457215:0:0:0:0:
182,192,456615,128,0,457215:0:0:0:0:
329,192,456915,128,0,457215:0:0:0:0:
402,192,456915,128,0,457215:0:0:0:0:
475,192,457215,128,0,459015:0:0:0:0:
36,192,457215,128,0,459015:0:0:0:0:
256,192,457665,128,0,459015:0:0:0:0:
402,192,459015,128,0,459615:0:0:0:0:
329,192,459015,128,0,459615:0:0:0:0:
182,192,459315,128,0,459615:0:0:0:0:
109,192,459315,128,0,459615:0:0:0:0:
36,192,459615,128,0,461115:0:0:0:0:
475,192,459615,128,0,461115:0:0:0:0:
256,192,460065,128,0,461115:0:0:0:0:
402,192,461415,1,0,0:0:0:0:
109,192,461415,1,0,0:0:0:0:
329,192,461715,1,0,0:0:0:0:
182,192,461715,1,0,0:0:0:0:
256,192,462015,128,0,463215:0:0:0:0:
475,192,462015,128,0,463215:0:0:0:0:
36,192,462015,128,0,463215:0:0:0:0:
329,192,463815,128,0,464415:0:0:0:0:
402,192,463815,128,0,464415:0:0:0:0:
182,192,464115,128,0,464415:0:0:0:0:
109,192,464115,128,0,464415:0:0:0:0:
475,192,464415,128,0,466215:0:0:0:0:
36,192,464415,128,0,466215:0:0:0:0:
256,192,464865,128,0,466215:0:0:0:0:
109,192,466215,128,0,466815:0:0:0:0:
182,192,466215,128,0,466815:0:0:0:0:
329,192,466515,128,0,466815:0:0:0:0:
402,192,466515,128,0,466815:0:0:0:0:
36,192,466815,128,0,468015:0:0:0:0:
475,192,466815,128,0,468015:0:0:0:0:
256,192,467265,128,0,468015:0:0:0:0:
182,192,468615,128,0,469215:0:0:0:0:
329,192,468915,128,0,469215:0:0:0:0:
36,192,469215,128,0,470715:0:0:0:0:
256,192,469215,128,0,470415:0:0:0:0:
475,192,469215,128,0,470715:0:0:0:0:
402,192,469215,128,0,470565:0:0:0:0:
109,192,469215,128,0,470565:0:0:0:0:
402,192,471015,128,0,471165:0:0:0:0:
256,192,471015,128,0,471165:0:0:0:0:
36,192,471015,128,0,471165:0:0:0:0:
329,192,471165,128,0,471315:0:0:0:0:
475,192,471165,128,0,471315:0:0:0:0:
109,192,471165,128,0,471315:0:0:0:0:
182,192,471315,128,0,471465:0:0:0:0:
36,192,471315,128,0,471465:0:0:0:0:
402,192,471315,128,0,471465:0:0:0:0:
475,192,471465,128,0,471615:0:0:0:0:
256,192,471465,128,0,471615:0:0:0:0:
109,192,471465,128,0,471615:0:0:0:0:
329,192,471615,1,0,0:0:0:0:
182,192,471615,1,0,0:0:0:0:
402,192,471615,1,0,0:0:0:0:
36,192,471615,1,0,0:0:0:0:
256,192,471690,1,0,0:0:0:0:
109,192,471690,1,0,0:0:0:0:
475,192,471765,1,0,0:0:0:0:
36,192,471765,1,0,0:0:0:0:
329,192,471765,1,0,0:0:0:0:
402,192,471765,1,0,0:0:0:0:
256,192,471840,1,0,0:0:0:0:
109,192,471840,1,0,0:0:0:0:
329,192,471915,1,0,0:0:0:0:
36,192,471915,1,0,0:0:0:0:
475,192,471915,1,0,0:0:0:0:
182,192,471915,1,0,0:0:0:0:
402,192,471990,1,0,0:0:0:0:
109,192,471990,1,0,0:0:0:0:
182,192,472065,1,0,0:0:0:0:
329,192,472065,1,0,0:0:0:0:
36,192,472065,1,0,0:0:0:0:
475,192,472065,1,0,0:0:0:0:
256,192,472140,1,0,0:0:0:0:
402,192,472140,1,0,0:0:0:0:
329,192,472215,1,0,0:0:0:0:
475,192,472215,1,0,0:0:0:0:
182,192,472215,1,0,0:0:0:0:
36,192,472215,1,0,0:0:0:0:
109,192,472290,1,0,0:0:0:0:
256,192,472290,1,0,0:0:0:0:
182,192,472365,1,0,0:0:0:0:
329,192,472365,1,0,0:0:0:0:
36,192,472365,1,0,0:0:0:0:
402,192,472365,1,0,0:0:0:0:
256,192,472440,1,0,0:0:0:0:
475,192,472440,1,0,0:0:0:0:
36,192,472515,1,0,0:0:0:0:
402,192,472515,1,0,0:0:0:0:
182,192,472515,1,0,0:0:0:0:
109,192,472515,1,0,0:0:0:0:
256,192,472590,1,0,0:0:0:0:
329,192,472590,1,0,0:0:0:0:
182,192,472665,1,0,0:0:0:0:
402,192,472665,1,0,0:0:0:0:
109,192,472665,1,0,0:0:0:0:
36,192,472665,1,0,0:0:0:0:
256,192,472740,1,0,0:0:0:0:
475,192,472740,1,0,0:0:0:0:
329,192,472815,1,0,0:0:0:0:
109,192,472815,1,0,0:0:0:0:
182,192,472815,1,0,0:0:0:0:
402,192,472815,1,0,0:0:0:0:
256,192,472890,1,0,0:0:0:0:
36,192,472890,1,0,0:0:0:0:
475,192,472965,1,0,0:0:0:0:
329,192,472965,1,0,0:0:0:0:
109,192,472965,1,0,0:0:0:0:
182,192,472965,1,0,0:0:0:0:
256,192,473040,1,0,0:0:0:0:
402,192,473040,1,0,0:0:0:0:
109,192,473115,1,0,0:0:0:0:
36,192,473115,1,0,0:0:0:0:
329,192,473115,1,0,0:0:0:0:
475,192,473115,1,0,0:0:0:0:
402,192,473190,1,0,0:0:0:0:
182,192,473190,1,0,0:0:0:0:
256,192,473265,1,0,0:0:0:0:
329,192,473265,1,0,0:0:0:0:
109,192,473265,1,0,0:0:0:0:
475,192,473265,1,0,0:0:0:0:
182,192,473340,1,0,0:0:0:0:
402,192,473340,1,0,0:0:0:0:
109,192,473415,1,0,0:0:0:0:
475,192,473415,1,0,0:0:0:0:
256,192,473415,1,0,0:0:0:0:
36,192,473415,1,0,0:0:0:0:
329,192,473490,1,0,0:0:0:0:
402,192,473490,1,0,0:0:0:0:
256,192,473565,1,0,0:0:0:0:
475,192,473565,1,0,0:0:0:0:
182,192,473565,1,0,0:0:0:0:
36,192,473565,1,0,0:0:0:0:
329,192,473640,1,0,0:0:0:0:
109,192,473640,1,0,0:0:0:0:
402,192,473715,1,0,0:0:0:0:
36,192,473715,1,0,0:0:0:0:
256,192,473715,1,0,0:0:0:0:
475,192,473715,1,0,0:0:0:0:
329,192,473790,1,0,0:0:0:0:
182,192,473790,1,0,0:0:0:0:
256,192,473865,1,0,0:0:0:0:
36,192,473865,1,0,0:0:0:0:
402,192,473865,1,0,0:0:0:0:
109,192,473865,1,0,0:0:0:0:
475,192,473940,1,0,0:0:0:0:
329,192,473940,1,0,0:0:0:0:
402,192,474015,1,0,0:0:0:0:
182,192,474015,1,0,0:0:0:0:
256,192,474015,1,0,0:0:0:0:
36,192,474015,1,0,0:0:0:0:
329,192,474090,1,0,0:0:0:0:
109,192,474090,1,0,0:0:0:0:
256,192,474165,1,0,0:0:0:0:
36,192,474165,1,0,0:0:0:0:
402,192,474165,1,0,0:0:0:0:
475,192,474165,1,0,0:0:0:0:
182,192,474240,1,0,0:0:0:0:
329,192,474240,1,0,0:0:0:0:
109,192,474315,1,0,0:0:0:0:
402,192,474315,1,0,0:0:0:0:
256,192,474315,1,0,0:0:0:0:
36,192,474315,1,0,0:0:0:0:
182,192,474390,1,0,0:0:0:0:
475,192,474390,1,0,0:0:0:0:
329,192,474465,1,0,0:0:0:0:
256,192,474465,1,0,0:0:0:0:
109,192,474465,1,0,0:0:0:0:
36,192,474465,1,0,0:0:0:0:
402,192,474540,1,0,0:0:0:0:
182,192,474540,1,0,0:0:0:0:
475,192,474615,1,0,0:0:0:0:
109,192,474615,1,0,0:0:0:0:
329,192,474615,1,0,0:0:0:0:
256,192,474615,1,0,0:0:0:0:
402,192,474690,1,0,0:0:0:0:
36,192,474690,1,0,0:0:0:0:
329,192,474765,1,0,0:0:0:0:
109,192,474765,1,0,0:0:0:0:
475,192,474765,1,0,0:0:0:0:
182,192,474765,1,0,0:0:0:0:
402,192,474840,1,0,0:0:0:0:
256,192,474840,1,0,0:0:0:0:
182,192,474915,1,0,0:0:0:0:
329,192,474915,1,0,0:0:0:0:
36,192,474915,1,0,0:0:0:0:
475,192,474915,1,0,0:0:0:0:
109,192,474990,1,0,0:0:0:0:
402,192,474990,1,0,0:0:0:0:
36,192,475065,1,0,0:0:0:0:
475,192,475065,1,0,0:0:0:0:
182,192,475065,1,0,0:0:0:0:
329,192,475065,1,0,0:0:0:0:
256,192,475140,1,0,0:0:0:0:
402,192,475140,1,0,0:0:0:0:
182,192,475215,1,0,0:0:0:0:
329,192,475215,1,0,0:0:0:0:
36,192,475215,1,0,0:0:0:0:
475,192,475215,1,0,0:0:0:0:
109,192,475290,1,0,0:0:0:0:
256,192,475290,1,0,0:0:0:0:
329,192,475365,1,0,0:0:0:0:
182,192,475365,1,0,0:0:0:0:
402,192,475365,1,0,0:0:0:0:
36,192,475365,1,0,0:0:0:0:
475,192,475440,1,0,0:0:0:0:
109,192,475440,1,0,0:0:0:0:
402,192,475515,1,0,0:0:0:0:
36,192,475515,1,0,0:0:0:0:
182,192,475515,1,0,0:0:0:0:
329,192,475515,1,0,0:0:0:0:
256,192,475590,1,0,0:0:0:0:
109,192,475590,1,0,0:0:0:0:
329,192,475665,1,0,0:0:0:0:
182,192,475665,1,0,0:0:0:0:
475,192,475665,1,0,0:0:0:0:
36,192,475665,1,0,0:0:0:0:
402,192,475740,1,0,0:0:0:0:
256,192,475740,1,0,0:0:0:0:
36,192,475815,1,0,0:0:0:0:
329,192,475815,1,0,0:0:0:0:
182,192,475815,1,0,0:0:0:0:
475,192,475815,1,0,0:0:0:0:
109,192,475890,1,0,0:0:0:0:
402,192,475890,1,0,0:0:0:0:
182,192,475965,1,0,0:0:0:0:
475,192,475965,1,0,0:0:0:0:
329,192,475965,1,0,0:0:0:0:
36,192,475965,1,0,0:0:0:0:
256,192,476040,1,0,0:0:0:0:
109,192,476040,1,0,0:0:0:0:
329,192,476115,1,0,0:0:0:0:
36,192,476115,1,0,0:0:0:0:
182,192,476115,1,0,0:0:0:0:
475,192,476115,1,0,0:0:0:0:
402,192,476190,1,0,0:0:0:0:
256,192,476190,1,0,0:0:0:0:
475,192,476265,1,0,0:0:0:0:
109,192,476265,1,0,0:0:0:0:
329,192,476265,1,0,0:0:0:0:
182,192,476265,1,0,0:0:0:0:
256,192,476340,1,0,0:0:0:0:
36,192,476340,1,0,0:0:0:0:
329,192,476415,1,0,0:0:0:0:
475,192,476415,1,0,0:0:0:0:
109,192,476415,1,0,0:0:0:0:
256,192,476490,1,0,0:0:0:0:
402,192,476490,1,0,0:0:0:0:
475,192,476565,1,0,0:0:0:0:
182,192,476565,1,0,0:0:0:0:
329,192,476640,1,0,0:0:0:0:
402,192,476640,1,0,0:0:0:0:
256,192,476715,1,0,0:0:0:0:
109,192,476715,1,0,0:0:0:0:
475,192,476715,1,0,0:0:0:0:
36,192,476715,1,0,0:0:0:0:
182,192,476790,1,0,0:0:0:0:
402,192,476790,1,0,0:0:0:0:
109,192,476865,1,0,0:0:0:0:
329,192,476865,1,0,0:0:0:0:
402,192,476940,1,0,0:0:0:0:
182,192,476940,1,0,0:0:0:0:
109,192,477015,1,0,0:0:0:0:
256,192,477015,1,0,0:0:0:0:
475,192,477015,1,0,0:0:0:0:
402,192,477090,1,0,0:0:0:0:
36,192,477090,1,0,0:0:0:0:
182,192,477165,1,0,0:0:0:0:
329,192,477165,1,0,0:0:0:0:
475,192,477240,1,0,0:0:0:0:
402,192,477240,1,0,0:0:0:0:
256,192,477315,1,0,0:0:0:0:
36,192,477315,1,0,0:0:0:0:
182,192,477315,1,0,0:0:0:0:
329,192,477315,1,0,0:0:0:0:
402,192,477390,1,0,0:0:0:0:
109,192,477390,1,0,0:0:0:0:
182,192,477465,1,0,0:0:0:0:
475,192,477465,1,0,0:0:0:0:
329,192,477540,1,0,0:0:0:0:
402,192,477540,1,0,0:0:0:0:
36,192,477615,1,0,0:0:0:0:
256,192,477615,1,0,0:0:0:0:
182,192,477615,1,0,0:0:0:0:
109,192,477690,1,0,0:0:0:0:
475,192,477690,1,0,0:0:0:0:
329,192,477765,1,0,0:0:0:0:
36,192,477765,1,0,0:0:0:0:
256,192,477840,1,0,0:0:0:0:
475,192,477840,1,0,0:0:0:0:
182,192,477915,1,0,0:0:0:0:
402,192,477915,1,0,0:0:0:0:
36,192,477915,1,0,0:0:0:0:
329,192,477915,1,0,0:0:0:0:
256,192,477990,1,0,0:0:0:0:
475,192,477990,1,0,0:0:0:0:
36,192,478065,1,0,0:0:0:0:
402,192,478065,1,0,0:0:0:0:
182,192,478065,1,0,0:0:0:0:
475,192,478140,1,0,0:0:0:0:
256,192,478140,1,0,0:0:0:0:
329,192,478215,1,0,0:0:0:0:
182,192,478215,1,0,0:0:0:0:
36,192,478215,1,0,0:0:0:0:
256,192,478290,1,0,0:0:0:0:
109,192,478290,1,0,0:0:0:0:
182,192,478365,1,0,0:0:0:0:
475,192,478365,1,0,0:0:0:0:
109,192,478440,1,0,0:0:0:0:
329,192,478440,1,0,0:0:0:0:
36,192,478515,1,0,0:0:0:0:
256,192,478515,1,0,0:0:0:0:
402,192,478515,1,0,0:0:0:0:
182,192,478515,1,0,0:0:0:0:
475,192,478590,1,0,0:0:0:0:
329,192,478590,1,0,0:0:0:0:
109,192,478665,1,0,0:0:0:0:
256,192,478665,1,0,0:0:0:0:
329,192,478740,1,0,0:0:0:0:
36,192,478740,1,0,0:0:0:0:
256,192,478815,1,0,0:0:0:0:
109,192,478815,1,0,0:0:0:0:
475,192,478815,1,0,0:0:0:0:
329,192,478890,1,0,0:0:0:0:
182,192,478890,1,0,0:0:0:0:
402,192,478965,1,0,0:0:0:0:
36,192,478965,1,0,0:0:0:0:
475,192,479040,1,0,0:0:0:0:
329,192,479040,1,0,0:0:0:0:
109,192,479115,1,0,0:0:0:0:
402,192,479115,1,0,0:0:0:0:
256,192,479115,1,0,0:0:0:0:
36,192,479115,1,0,0:0:0:0:
182,192,479190,1,0,0:0:0:0:
475,192,479190,1,0,0:0:0:0:
109,192,479265,1,0,0:0:0:0:
402,192,479265,1,0,0:0:0:0:
329,192,479340,1,0,0:0:0:0:
182,192,479340,1,0,0:0:0:0:
402,192,479415,1,0,0:0:0:0:
256,192,479415,1,0,0:0:0:0:
109,192,479415,1,0,0:0:0:0:
475,192,479490,1,0,0:0:0:0:
182,192,479490,1,0,0:0:0:0:
36,192,479565,1,0,0:0:0:0:
329,192,479565,1,0,0:0:0:0:
109,192,479640,1,0,0:0:0:0:
475,192,479640,1,0,0:0:0:0:
329,192,479715,1,0,0:0:0:0:
402,192,479715,1,0,0:0:0:0:
182,192,479715,1,0,0:0:0:0:
36,192,479715,1,0,0:0:0:0:
256,192,479790,1,0,0:0:0:0:
109,192,479790,1,0,0:0:0:0:
182,192,479865,1,0,0:0:0:0:
475,192,479865,1,0,0:0:0:0:
402,192,479940,1,0,0:0:0:0:
256,192,479940,1,0,0:0:0:0:
182,192,480015,1,0,0:0:0:0:
475,192,480015,1,0,0:0:0:0:
109,192,480015,1,0,0:0:0:0:
256,192,480090,1,0,0:0:0:0:
36,192,480090,1,0,0:0:0:0:
182,192,480165,1,0,0:0:0:0:
402,192,480165,1,0,0:0:0:0:
36,192,480240,1,0,0:0:0:0:
475,192,480240,1,0,0:0:0:0:
109,192,480315,1,0,0:0:0:0:
256,192,480315,1,0,0:0:0:0:
329,192,480315,1,0,0:0:0:0:
402,192,480315,1,0,0:0:0:0:
475,192,480390,1,0,0:0:0:0:
182,192,480390,1,0,0:0:0:0:
402,192,480465,1,0,0:0:0:0:
109,192,480465,1,0,0:0:0:0:
329,192,480540,1,0,0:0:0:0:
182,192,480540,1,0,0:0:0:0:
256,192,480615,1,0,0:0:0:0:
475,192,480615,1,0,0:0:0:0:
109,192,480615,1,0,0:0:0:0:
36,192,480615,1,0,0:0:0:0:
182,192,480690,1,0,0:0:0:0:
402,192,480690,1,0,0:0:0:0:
109,192,480765,1,0,0:0:0:0:
256,192,480765,1,0,0:0:0:0:
475,192,480765,1,0,0:0:0:0:
36,192,480840,1,0,0:0:0:0:
402,192,480840,1,0,0:0:0:0:
475,192,480915,1,0,0:0:0:0:
182,192,480915,1,0,0:0:0:0:
329,192,480915,1,0,0:0:0:0:
256,192,480915,1,0,0:0:0:0:
402,192,480990,1,0,0:0:0:0:
109,192,480990,1,0,0:0:0:0:
36,192,481065,1,0,0:0:0:0:
475,192,481065,1,0,0:0:0:0:
256,192,481140,1,0,0:0:0:0:
109,192,481140,1,0,0:0:0:0:
329,192,481215,1,0,0:0:0:0:
182,192,481215,1,0,0:0:0:0:
475,192,481215,1,0,0:0:0:0:
36,192,481215,1,0,0:0:0:0:
402,192,481290,1,0,0:0:0:0:
109,192,481290,1,0,0:0:0:0:
475,192,481365,1,0,0:0:0:0:
36,192,481365,1,0,0:0:0:0:
256,192,481365,1,0,0:0:0:0:
329,192,481365,1,0,0:0:0:0:
182,192,481440,1,0,0:0:0:0:
402,192,481440,1,0,0:0:0:0:
109,192,481515,1,0,0:0:0:0:
475,192,481515,1,0,0:0:0:0:
329,192,481515,1,0,0:0:0:0:
36,192,481515,1,0,0:0:0:0:
402,192,481590,1,0,0:0:0:0:
182,192,481590,1,0,0:0:0:0:
475,192,481665,1,0,0:0:0:0:
36,192,481665,1,0,0:0:0:0:
256,192,481665,1,0,0:0:0:0:
109,192,481665,1,0,0:0:0:0:
182,192,481740,1,0,0:0:0:0:
329,192,481740,1,0,0:0:0:0:
475,192,481815,1,0,0:0:0:0:
402,192,481815,1,0,0:0:0:0:
36,192,481815,1,0,0:0:0:0:
256,192,481815,1,0,0:0:0:0:
182,192,481890,1,0,0:0:0:0:
329,192,481890,1,0,0:0:0:0:
36,192,481965,1,0,0:0:0:0:
475,192,481965,1,0,0:0:0:0:
109,192,481965,1,0,0:0:0:0:
402,192,481965,1,0,0:0:0:0:
256,192,482040,1,0,0:0:0:0:
182,192,482040,1,0,0:0:0:0:
475,192,482115,1,0,0:0:0:0:
329,192,482115,1,0,0:0:0:0:
402,192,482115,1,0,0:0:0:0:
36,192,482115,1,0,0:0:0:0:
109,192,482190,1,0,0:0:0:0:
256,192,482190,1,0,0:0:0:0:
475,192,482265,1,0,0:0:0:0:
182,192,482265,1,0,0:0:0:0:
329,192,482265,1,0,0:0:0:0:
36,192,482265,1,0,0:0:0:0:
402,192,482340,1,0,0:0:0:0:
109,192,482340,1,0,0:0:0:0:
475,192,482415,1,0,0:0:0:0:
36,192,482415,1,0,0:0:0:0:
329,192,482415,1,0,0:0:0:0:
256,192,482415,1,0,0:0:0:0:
182,192,482490,1,0,0:0:0:0:
402,192,482490,1,0,0:0:0:0:
329,192,482565,1,0,0:0:0:0:
475,192,482565,1,0,0:0:0:0:
109,192,482565,1,0,0:0:0:0:
36,192,482565,1,0,0:0:0:0:
256,192,482640,1,0,0:0:0:0:
402,192,482640,1,0,0:0:0:0:
182,192,482715,1,0,0:0:0:0:
329,192,482715,1,0,0:0:0:0:
36,192,482715,1,0,0:0:0:0:
475,192,482715,1,0,0:0:0:0:
109,192,482790,1,0,0:0:0:0:
256,192,482790,1,0,0:0:0:0:
36,192,482865,1,0,0:0:0:0:
182,192,482865,1,0,0:0:0:0:
402,192,482865,1,0,0:0:0:0:
329,192,482865,1,0,0:0:0:0:
475,192,482940,1,0,0:0:0:0:
109,192,482940,1,0,0:0:0:0:
402,192,483015,1,0,0:0:0:0:
36,192,483015,1,0,0:0:0:0:
329,192,483015,1,0,0:0:0:0:
182,192,483015,1,0,0:0:0:0:
256,192,483090,1,0,0:0:0:0:
109,192,483090,1,0,0:0:0:0:
36,192,483165,1,0,0:0:0:0:
182,192,483165,1,0,0:0:0:0:
475,192,483165,1,0,0:0:0:0:
402,192,483165,1,0,0:0:0:0:
329,192,483240,1,0,0:0:0:0:
109,192,483240,1,0,0:0:0:0:
402,192,483315,1,0,0:0:0:0:
36,192,483315,1,0,0:0:0:0:
256,192,483315,1,0,0:0:0:0:
182,192,483315,1,0,0:0:0:0:
475,192,483390,1,0,0:0:0:0:
109,192,483390,1,0,0:0:0:0:
36,192,483465,1,0,0:0:0:0:
256,192,483465,1,0,0:0:0:0:
402,192,483465,1,0,0:0:0:0:
329,192,483465,1,0,0:0:0:0:
109,192,483540,1,0,0:0:0:0:
182,192,483540,1,0,0:0:0:0:
256,192,483615,1,0,0:0:0:0:
402,192,483615,1,0,0:0:0:0:
36,192,483615,1,0,0:0:0:0:
475,192,483615,1,0,0:0:0:0:
182,192,483690,1,0,0:0:0:0:
329,192,483690,1,0,0:0:0:0:
475,192,483765,1,0,0:0:0:0:
36,192,483765,1,0,0:0:0:0:
256,192,483765,1,0,0:0:0:0:
109,192,483765,1,0,0:0:0:0:
402,192,483840,1,0,0:0:0:0:
182,192,483840,1,0,0:0:0:0:
475,192,483915,1,0,0:0:0:0:
109,192,483915,1,0,0:0:0:0:
36,192,483915,1,0,0:0:0:0:
329,192,483915,1,0,0:0:0:0:
182,192,483990,1,0,0:0:0:0:
256,192,483990,1,0,0:0:0:0:
109,192,484065,1,0,0:0:0:0:
402,192,484065,1,0,0:0:0:0:
329,192,484065,1,0,0:0:0:0:
36,192,484065,1,0,0:0:0:0:
256,192,484140,1,0,0:0:0:0:
475,192,484140,1,0,0:0:0:0:
36,192,484215,1,0,0:0:0:0:
402,192,484215,1,0,0:0:0:0:
182,192,484215,1,0,0:0:0:0:
329,192,484215,1,0,0:0:0:0:
109,192,484290,1,0,0:0:0:0:
475,192,484290,1,0,0:0:0:0:
182,192,484365,1,0,0:0:0:0:
256,192,484365,1,0,0:0:0:0:
329,192,484365,1,0,0:0:0:0:
36,192,484365,1,0,0:0:0:0:
402,192,484440,1,0,0:0:0:0:
109,192,484440,1,0,0:0:0:0:
329,192,484515,1,0,0:0:0:0:
36,192,484515,1,0,0:0:0:0:
182,192,484515,1,0,0:0:0:0:
475,192,484515,1,0,0:0:0:0:
256,192,484590,1,0,0:0:0:0:
109,192,484590,1,0,0:0:0:0:
475,192,484665,1,0,0:0:0:0:
182,192,484665,1,0,0:0:0:0:
329,192,484665,1,0,0:0:0:0:
36,192,484665,1,0,0:0:0:0:
402,192,484740,1,0,0:0:0:0:
256,192,484740,1,0,0:0:0:0:
329,192,484815,1,0,0:0:0:0:
36,192,484815,1,0,0:0:0:0:
182,192,484815,1,0,0:0:0:0:
475,192,484815,1,0,0:0:0:0:
256,192,484890,1,0,0:0:0:0:
109,192,484890,1,0,0:0:0:0:
182,192,484965,1,0,0:0:0:0:
475,192,484965,1,0,0:0:0:0:
329,192,484965,1,0,0:0:0:0:
36,192,484965,1,0,0:0:0:0:
109,192,485040,1,0,0:0:0:0:
402,192,485040,1,0,0:0:0:0:
36,192,485115,1,0,0:0:0:0:
256,192,485115,1,0,0:0:0:0:
182,192,485115,1,0,0:0:0:0:
475,192,485115,1,0,0:0:0:0:
402,192,485190,1,0,0:0:0:0:
256,192,485265,1,0,0:0:0:0:
475,192,485265,1,0,0:0:0:0:
109,192,485265,1,0,0:0:0:0:
329,192,485265,1,0,0:0:0:0:
182,192,485340,1,0,0:0:0:0:
36,192,485340,1,0,0:0:0:0:
109,192,485415,1,0,0:0:0:0:
256,192,485415,1,0,0:0:0:0:
475,192,485415,1,0,0:0:0:0:
402,192,485415,1,0,0:0:0:0:
182,192,485490,1,0,0:0:0:0:
329,192,485490,1,0,0:0:0:0:
256,192,485565,1,0,0:0:0:0:
475,192,485565,1,0,0:0:0:0:
36,192,485565,1,0,0:0:0:0:
109,192,485565,1,0,0:0:0:0:
182,192,485640,1,0,0:0:0:0:
402,192,485640,1,0,0:0:0:0:
109,192,485715,1,0,0:0:0:0:
329,192,485715,1,0,0:0:0:0:
256,192,485715,1,0,0:0:0:0:
475,192,485715,1,0,0:0:0:0:
402,192,485790,1,0,0:0:0:0:
36,192,485790,1,0,0:0:0:0:
475,192,485865,1,0,0:0:0:0:
109,192,485865,1,0,0:0:0:0:
182,192,485865,1,0,0:0:0:0:
329,192,485865,1,0,0:0:0:0:
402,192,485940,1,0,0:0:0:0:
36,192,485940,1,0,0:0:0:0:
475,192,486015,1,0,0:0:0:0:
109,192,486015,1,0,0:0:0:0:
182,192,486015,1,0,0:0:0:0:
256,192,486015,1,0,0:0:0:0:
402,192,486090,1,0,0:0:0:0:
36,192,486090,1,0,0:0:0:0:
329,192,486165,1,0,0:0:0:0:
109,192,486165,1,0,0:0:0:0:
182,192,486240,1,0,0:0:0:0:
402,192,486240,1,0,0:0:0:0:
475,192,486315,1,0,0:0:0:0:
256,192,486315,1,0,0:0:0:0:
329,192,486315,1,0,0:0:0:0:
36,192,486315,1,0,0:0:0:0:
402,192,486390,1,0,0:0:0:0:
182,192,486390,1,0,0:0:0:0:
329,192,486465,1,0,0:0:0:0:
109,192,486465,1,0,0:0:0:0:
256,192,486540,1,0,0:0:0:0:
36,192,486540,1,0,0:0:0:0:
109,192,486615,1,0,0:0:0:0:
329,192,486615,1,0,0:0:0:0:
475,192,486615,1,0,0:0:0:0:
182,192,486615,1,0,0:0:0:0:
36,192,486690,1,0,0:0:0:0:
402,192,486690,1,0,0:0:0:0:
182,192,486765,1,0,0:0:0:0:
475,192,486765,1,0,0:0:0:0:
256,192,486840,1,0,0:0:0:0:
402,192,486840,1,0,0:0:0:0:
182,192,486915,1,0,0:0:0:0:
329,192,486915,1,0,0:0:0:0:
475,192,486915,1,0,0:0:0:0:
36,192,486915,1,0,0:0:0:0:
109,192,486990,1,0,0:0:0:0:
256,192,486990,1,0,0:0:0:0:
36,192,487065,1,0,0:0:0:0:
329,192,487065,1,0,0:0:0:0:
475,192,487140,1,0,0:0:0:0:
109,192,487140,1,0,0:0:0:0:
402,192,487215,1,0,0:0:0:0:
36,192,487215,1,0,0:0:0:0:
182,192,487215,1,0,0:0:0:0:
256,192,487215,1,0,0:0:0:0:
329,192,487290,1,0,0:0:0:0:
109,192,487290,1,0,0:0:0:0:
256,192,487365,1,0,0:0:0:0:
182,192,487365,1,0,0:0:0:0:
329,192,487440,1,0,0:0:0:0:
36,192,487440,1,0,0:0:0:0:
402,192,487515,1,0,0:0:0:0:
109,192,487515,1,0,0:0:0:0:
182,192,487515,1,0,0:0:0:0:
256,192,487515,1,0,0:0:0:0:
475,192,487590,1,0,0:0:0:0:
36,192,487590,1,0,0:0:0:0:
182,192,487665,1,0,0:0:0:0:
329,192,487665,1,0,0:0:0:0:
256,192,487740,1,0,0:0:0:0:
402,192,487740,1,0,0:0:0:0:
329,192,487815,1,0,0:0:0:0:
475,192,487815,1,0,0:0:0:0:
36,192,487815,1,0,0:0:0:0:
182,192,487815,1,0,0:0:0:0:
402,192,487890,1,0,0:0:0:0:
256,192,487890,1,0,0:0:0:0:
109,192,487965,1,0,0:0:0:0:
329,192,487965,1,0,0:0:0:0:
182,192,488040,1,0,0:0:0:0:
402,192,488040,1,0,0:0:0:0:
256,192,488115,1,0,0:0:0:0:
36,192,488115,1,0,0:0:0:0:
109,192,488115,1,0,0:0:0:0:
329,192,488115,1,0,0:0:0:0:
182,192,488190,1,0,0:0:0:0:
475,192,488190,1,0,0:0:0:0:
36,192,488265,1,0,0:0:0:0:
402,192,488265,1,0,0:0:0:0:
109,192,488340,1,0,0:0:0:0:
329,192,488340,1,0,0:0:0:0:
182,192,488415,1,0,0:0:0:0:
475,192,488415,1,0,0:0:0:0:
36,192,488415,1,0,0:0:0:0:
256,192,488490,1,0,0:0:0:0:
402,192,488490,1,0,0:0:0:0:
182,192,488565,1,0,0:0:0:0:
329,192,488565,1,0,0:0:0:0:
109,192,488640,1,0,0:0:0:0:
256,192,488640,1,0,0:0:0:0:
36,192,488715,1,0,0:0:0:0:
182,192,488715,1,0,0:0:0:0:
402,192,488715,1,0,0:0:0:0:
475,192,488715,1,0,0:0:0:0:
329,192,488790,1,0,0:0:0:0:
109,192,488790,1,0,0:0:0:0:
256,192,488865,1,0,0:0:0:0:
36,192,488865,1,0,0:0:0:0:
182,192,488940,1,0,0:0:0:0:
475,192,488940,1,0,0:0:0:0:
109,192,489015,1,0,0:0:0:0:
402,192,489015,1,0,0:0:0:0:
256,192,489015,1,0,0:0:0:0:
329,192,489090,1,0,0:0:0:0:
475,192,489090,1,0,0:0:0:0:
182,192,489090,1,0,0:0:0:0:
36,192,489090,1,0,0:0:0:0:
109,192,489165,1,0,0:0:0:0:
256,192,489165,1,0,0:0:0:0:
402,192,489165,1,0,0:0:0:0:
329,192,489240,1,0,0:0:0:0:
475,192,489240,1,0,0:0:0:0:
182,192,489240,1,0,0:0:0:0:
36,192,489240,1,0,0:0:0:0:
109,192,489315,1,0,0:0:0:0:
402,192,489315,1,0,0:0:0:0:
182,192,489390,1,0,0:0:0:0:
329,192,489390,1,0,0:0:0:0:
256,192,489465,1,0,0:0:0:0:
475,192,489540,1,0,0:0:0:0:
36,192,489540,1,0,0:0:0:0:
109,192,489615,1,0,0:0:0:0:
182,192,489615,1,0,0:0:0:0:
329,192,489615,1,0,0:0:0:0:
402,192,489615,1,0,0:0:0:0:
256,192,489690,1,0,0:0:0:0:
475,192,489690,1,0,0:0:0:0:
36,192,489690,1,0,0:0:0:0:
109,192,489765,1,0,0:0:0:0:
182,192,489765,1,0,0:0:0:0:
329,192,489765,1,0,0:0:0:0:
402,192,489765,1,0,0:0:0:0:
256,192,489840,1,0,0:0:0:0:
36,192,489840,1,0,0:0:0:0:
475,192,489840,1,0,0:0:0:0:
329,192,489915,1,0,0:0:0:0:
182,192,489915,1,0,0:0:0:0:
402,192,489990,1,0,0:0:0:0:
109,192,489990,1,0,0:0:0:0:
36,192,490065,1,0,0:0:0:0:
475,192,490065,1,0,0:0:0:0:
402,192,490140,1,0,0:0:0:0:
109,192,490140,1,0,0:0:0:0:
329,192,490215,1,0,0:0:0:0:
182,192,490215,1,0,0:0:0:0:
256,192,490290,1,0,0:0:0:0:
475,192,490365,1,0,0:0:0:0:
36,192,490365,1,0,0:0:0:0:
402,192,490440,1,0,0:0:0:0:
109,192,490440,1,0,0:0:0:0:
329,192,490515,1,0,0:0:0:0:
182,192,490515,1,0,0:0:0:0:
256,192,490590,1,0,0:0:0:0:
109,192,490665,1,0,0:0:0:0:
402,192,490665,1,0,0:0:0:0:
182,192,490740,1,0,0:0:0:0:
329,192,490740,1,0,0:0:0:0:
256,192,490815,1,0,0:0:0:0:
475,192,490815,1,0,0:0:0:0:
402,192,490815,1,0,0:0:0:0:
36,192,490815,1,0,0:0:0:0:
329,192,490915,1,0,0:0:0:0:
402,192,491015,1,0,0:0:0:0:
475,192,491115,1,0,0:0:0:0:
109,192,491115,1,0,0:0:0:0:
256,192,491115,1,0,0:0:0:0:
329,192,491115,1,0,0:0:0:0:
36,192,491215,1,0,0:0:0:0:
109,192,491315,1,0,0:0:0:0:
182,192,491415,1,0,0:0:0:0:
475,192,491415,1,0,0:0:0:0:
402,192,491415,1,0,0:0:0:0:
36,192,491415,1,0,0:0:0:0:
256,192,491515,1,0,0:0:0:0:
109,192,491515,1,0,0:0:0:0:
329,192,491515,1,0,0:0:0:0:
182,192,491615,1,0,0:0:0:0:
402,192,491615,1,0,0:0:0:0:
36,192,491615,1,0,0:0:0:0:
109,192,491715,1,0,0:0:0:0:
256,192,491715,1,0,0:0:0:0:
329,192,491715,1,0,0:0:0:0:
475,192,491715,1,0,0:0:0:0:
36,192,491815,1,0,0:0:0:0:
329,192,491915,1,0,0:0:0:0:
256,192,492015,1,0,0:0:0:0:
109,192,492015,1,0,0:0:0:0:
402,192,492015,1,0,0:0:0:0:
475,192,492015,1,0,0:0:0:0:
182,192,492115,1,0,0:0:0:0:
402,192,492215,1,0,0:0:0:0:
475,192,492315,128,0,492415:0:0:0:0:
329,192,492315,1,0,0:0:0:0:
109,192,492315,1,0,0:0:0:0:
36,192,492315,1,0,0:0:0:0:
182,192,492315,1,0,0:0:0:0:
402,192,492415,128,0,492515:0:0:0:0:
256,192,492415,1,0,0:0:0:0:
329,192,492515,128,0,492615:0:0:0:0:
182,192,492515,1,0,0:0:0:0:
475,192,492515,1,0,0:0:0:0:
109,192,492515,1,0,0:0:0:0:
36,192,492615,128,0,492715:0:0:0:0:
256,192,492615,1,0,0:0:0:0:
402,192,492615,1,0,0:0:0:0:
109,192,492715,128,0,492815:0:0:0:0:
329,192,492715,1,0,0:0:0:0:
475,192,492715,1,0,0:0:0:0:
182,192,492815,128,0,492915:0:0:0:0:
402,192,492815,1,0,0:0:0:0:
36,192,492815,1,0,0:0:0:0:
256,192,492915,128,0,493015:0:0:0:0:
475,192,492915,1,0,0:0:0:0:
329,192,493015,128,0,493115:0:0:0:0:
36,192,493015,1,0,0:0:0:0:
182,192,493015,1,0,0:0:0:0:
402,192,493115,128,0,493215:0:0:0:0:
109,192,493115,1,0,0:0:0:0:
182,192,493215,1,0,0:0:0:0:
36,192,493215,1,0,0:0:0:0:
329,192,493215,1,0,0:0:0:0:
475,192,493215,1,0,0:0:0:0:
256,192,493315,1,0,0:0:0:0:
329,192,493415,1,0,0:0:0:0:
402,192,493515,1,0,0:0:0:0:
109,192,493515,1,0,0:0:0:0:
182,192,493515,1,0,0:0:0:0:
256,192,493515,1,0,0:0:0:0:
475,192,493615,1,0,0:0:0:0:
256,192,493715,1,0,0:0:0:0:
182,192,493815,1,0,0:0:0:0:
475,192,493815,1,0,0:0:0:0:
329,192,493815,1,0,0:0:0:0:
36,192,493815,1,0,0:0:0:0:
109,192,493915,1,0,0:0:0:0:
402,192,493915,1,0,0:0:0:0:
256,192,493915,1,0,0:0:0:0:
36,192,494015,1,0,0:0:0:0:
182,192,494015,1,0,0:0:0:0:
475,192,494015,1,0,0:0:0:0:
329,192,494115,1,0,0:0:0:0:
402,192,494115,1,0,0:0:0:0:
109,192,494115,1,0,0:0:0:0:
256,192,494115,1,0,0:0:0:0:
182,192,494215,1,0,0:0:0:0:
109,192,494315,1,0,0:0:0:0:
36,192,494415,1,0,0:0:0:0:
182,192,494415,1,0,0:0:0:0:
256,192,494415,1,0,0:0:0:0:
475,192,494415,1,0,0:0:0:0:
402,192,494515,1,0,0:0:0:0:
329,192,494615,1,0,0:0:0:0:
256,192,494715,1,0,0:0:0:0:
475,192,494715,1,0,0:0:0:0:
402,192,494715,1,0,0:0:0:0:
109,192,494715,1,0,0:0:0:0:
36,192,494715,1,0,0:0:0:0:
182,192,494815,1,0,0:0:0:0:
475,192,494915,1,0,0:0:0:0:
402,192,495015,1,0,0:0:0:0:
256,192,495015,1,0,0:0:0:0:
109,192,495015,1,0,0:0:0:0:
36,192,495015,1,0,0:0:0:0:
329,192,495115,1,0,0:0:0:0:
256,192,495215,1,0,0:0:0:0:
329,192,495315,1,0,0:0:0:0:
109,192,495315,1,0,0:0:0:0:
182,192,495315,1,0,0:0:0:0:
475,192,495315,1,0,0:0:0:0:
36,192,495315,1,0,0:0:0:0:
402,192,495415,1,0,0:0:0:0:
475,192,495515,1,0,0:0:0:0:
182,192,495615,1,0,0:0:0:0:
329,192,495615,1,0,0:0:0:0:
402,192,495615,1,0,0:0:0:0:
36,192,495615,1,0,0:0:0:0:
256,192,495715,1,0,0:0:0:0:
329,192,495815,1,0,0:0:0:0:
402,192,495915,1,0,0:0:0:0:
182,192,495915,1,0,0:0:0:0:
256,192,495915,1,0,0:0:0:0:
475,192,495915,1,0,0:0:0:0:
109,192,496015,1,0,0:0:0:0:
182,192,496115,1,0,0:0:0:0:
256,192,496215,1,0,0:0:0:0:
475,192,496215,1,0,0:0:0:0:
402,192,496215,1,0,0:0:0:0:
36,192,496215,1,0,0:0:0:0:
329,192,496315,1,0,0:0:0:0:
109,192,496315,1,0,0:0:0:0:
182,192,496315,1,0,0:0:0:0:
36,192,496415,1,0,0:0:0:0:
256,192,496415,1,0,0:0:0:0:
402,192,496415,1,0,0:0:0:0:
109,192,496515,1,0,0:0:0:0:
475,192,496515,1,0,0:0:0:0:
329,192,496515,1,0,0:0:0:0:
182,192,496515,1,0,0:0:0:0:
402,192,496615,1,0,0:0:0:0:
329,192,496715,1,0,0:0:0:0:
36,192,496815,1,0,0:0:0:0:
182,192,496815,1,0,0:0:0:0:
256,192,496815,1,0,0:0:0:0:
475,192,496815,1,0,0:0:0:0:
109,192,496915,1,0,0:0:0:0:
182,192,497015,1,0,0:0:0:0:
475,192,497115,1,0,0:0:0:0:
256,192,497115,1,0,0:0:0:0:
329,192,497115,1,0,0:0:0:0:
36,192,497115,1,0,0:0:0:0:
109,192,497115,1,0,0:0:0:0:
402,192,497215,1,0,0:0:0:0:
329,192,497315,1,0,0:0:0:0:
256,192,497415,1,0,0:0:0:0:
182,192,497515,1,0,0:0:0:0:
109,192,497615,1,0,0:0:0:0:
36,192,497715,1,0,0:0:0:0:
182,192,497715,1,0,0:0:0:0:
329,192,497715,1,0,0:0:0:0:
402,192,497715,1,0,0:0:0:0:
475,192,497815,1,0,0:0:0:0:
402,192,497915,1,0,0:0:0:0:
329,192,498015,1,0,0:0:0:0:
109,192,498015,1,0,0:0:0:0:
36,192,498015,1,0,0:0:0:0:
475,192,498015,1,0,0:0:0:0:
256,192,498115,1,0,0:0:0:0:
329,192,498315,1,0,0:0:0:0:
182,192,498315,1,0,0:0:0:0:
109,192,498315,1,0,0:0:0:0:
36,192,498315,1,0,0:0:0:0:
475,192,498315,1,0,0:0:0:0:
402,192,498415,1,0,0:0:0:0:
475,192,498515,1,0,0:0:0:0:
256,192,498615,1,0,0:0:0:0:
182,192,498615,1,0,0:0:0:0:
36,192,498615,1,0,0:0:0:0:
402,192,498615,1,0,0:0:0:0:
329,192,498715,1,0,0:0:0:0:
402,192,498815,1,0,0:0:0:0:
182,192,498915,1,0,0:0:0:0:
329,192,498915,1,0,0:0:0:0:
475,192,498915,1,0,0:0:0:0:
36,192,498915,1,0,0:0:0:0:
256,192,499015,1,0,0:0:0:0:
329,192,499115,1,0,0:0:0:0:
475,192,499215,128,0,499365:0:0:0:0:
36,192,499215,1,0,0:0:0:0:
182,192,499215,1,0,0:0:0:0:
402,192,499215,1,0,0:0:0:0:
329,192,499365,128,0,499515:0:0:0:0:
256,192,499365,1,0,0:0:0:0:
109,192,499365,1,0,0:0:0:0:
182,192,499515,128,0,499665:0:0:0:0:
36,192,499515,1,0,0:0:0:0:
475,192,499515,1,0,0:0:0:0:
36,192,499665,128,0,499815:0:0:0:0:
402,192,499665,1,0,0:0:0:0:
256,192,499665,1,0,0:0:0:0:
475,192,499815,128,0,499965:0:0:0:0:
329,192,499815,1,0,0:0:0:0:
182,192,499815,1,0,0:0:0:0:
256,192,499965,128,0,500115:0:0:0:0:
109,192,499965,1,0,0:0:0:0:
402,192,499965,1,0,0:0:0:0:
36,192,500115,128,0,500265:0:0:0:0:
182,192,500115,1,0,0:0:0:0:
329,192,500115,1,0,0:0:0:0:
256,192,500415,1,0,0:0:0:0:
109,192,500415,1,0,0:0:0:0:
36,192,500415,1,0,0:0:0:0:
475,192,500415,1,0,0:0:0:0:
329,192,500515,1,0,0:0:0:0:
402,192,500615,1,0,0:0:0:0:
475,192,500715,1,0,0:0:0:0:
329,192,500715,1,0,0:0:0:0:
109,192,500715,1,0,0:0:0:0:
256,192,500715,1,0,0:0:0:0:
182,192,500815,1,0,0:0:0:0:
256,192,500915,1,0,0:0:0:0:
329,192,501015,1,0,0:0:0:0:
36,192,501015,1,0,0:0:0:0:
182,192,501015,1,0,0:0:0:0:
475,192,501015,1,0,0:0:0:0:
402,192,501115,1,0,0:0:0:0:
109,192,501215,1,0,0:0:0:0:
182,192,501315,1,0,0:0:0:0:
329,192,501315,1,0,0:0:0:0:
475,192,501315,1,0,0:0:0:0:
36,192,501315,1,0,0:0:0:0:
256,192,501415,1,0,0:0:0:0:
329,192,501515,1,0,0:0:0:0:
36,192,501615,1,0,0:0:0:0:
182,192,501615,1,0,0:0:0:0:
256,192,501615,1,0,0:0:0:0:
475,192,501615,1,0,0:0:0:0:
109,192,501715,1,0,0:0:0:0:
182,192,501815,1,0,0:0:0:0:
256,192,501915,1,0,0:0:0:0:
402,192,501915,1,0,0:0:0:0:
329,192,501915,1,0,0:0:0:0:
36,192,501915,1,0,0:0:0:0:
475,192,502015,1,0,0:0:0:0:
402,192,502115,1,0,0:0:0:0:
329,192,502215,1,0,0:0:0:0:
109,192,502215,1,0,0:0:0:0:
182,192,502215,1,0,0:0:0:0:
475,192,502215,1,0,0:0:0:0:
256,192,502315,1,0,0:0:0:0:
182,192,502415,1,0,0:0:0:0:
109,192,502515,1,0,0:0:0:0:
475,192,502515,1,0,0:0:0:0:
329,192,502515,1,0,0:0:0:0:
256,192,502515,1,0,0:0:0:0:
36,192,502615,1,0,0:0:0:0:
329,192,502715,1,0,0:0:0:0:
402,192,502815,1,0,0:0:0:0:
36,192,502815,1,0,0:0:0:0:
182,192,502815,1,0,0:0:0:0:
256,192,502815,1,0,0:0:0:0:
475,192,502915,1,0,0:0:0:0:
256,192,503015,1,0,0:0:0:0:
329,192,503115,1,0,0:0:0:0:
109,192,503115,1,0,0:0:0:0:
182,192,503115,1,0,0:0:0:0:
475,192,503115,1,0,0:0:0:0:
402,192,503215,1,0,0:0:0:0:
182,192,503315,1,0,0:0:0:0:
256,192,503415,1,0,0:0:0:0:
475,192,503415,1,0,0:0:0:0:
402,192,503415,1,0,0:0:0:0:
36,192,503415,1,0,0:0:0:0:
329,192,503515,1,0,0:0:0:0:
109,192,503615,1,0,0:0:0:0:
182,192,503715,1,0,0:0:0:0:
329,192,503715,1,0,0:0:0:0:
475,192,503715,1,0,0:0:0:0:
36,192,503715,1,0,0:0:0:0:
256,192,503815,1,0,0:0:0:0:
36,192,503915,1,0,0:0:0:0:
109,192,504015,1,0,0:0:0:0:
256,192,504015,1,0,0:0:0:0:
402,192,504015,1,0,0:0:0:0:
475,192,504015,1,0,0:0:0:0:
329,192,504015,1,0,0:0:0:0:
182,192,504115,1,0,0:0:0:0:
256,192,504215,1,0,0:0:0:0:
329,192,504315,1,0,0:0:0:0:
475,192,504315,1,0,0:0:0:0:
182,192,504315,1,0,0:0:0:0:
109,192,504315,1,0,0:0:0:0:
36,192,504315,1,0,0:0:0:0:
402,192,504415,1,0,0:0:0:0:
475,192,504515,1,0,0:0:0:0:
256,192,504615,1,0,0:0:0:0:
36,192,504615,1,0,0:0:0:0:
109,192,504615,1,0,0:0:0:0:
402,192,504615,1,0,0:0:0:0:
182,192,504715,1,0,0:0:0:0:
109,192,504815,1,0,0:0:0:0:
36,192,504915,1,0,0:0:0:0:
475,192,504915,1,0,0:0:0:0:
402,192,504915,1,0,0:0:0:0:
256,192,504915,1,0,0:0:0:0:
182,192,504915,1,0,0:0:0:0:
329,192,505015,1,0,0:0:0:0:
256,192,505115,1,0,0:0:0:0:
36,192,505215,128,0,505315:0:0:0:0:
329,192,505215,1,0,0:0:0:0:
182,192,505215,1,0,0:0:0:0:
475,192,505215,1,0,0:0:0:0:
109,192,505315,128,0,505415:0:0:0:0:
402,192,505315,1,0,0:0:0:0:
182,192,505415,128,0,505515:0:0:0:0:
475,192,505415,1,0,0:0:0:0:
329,192,505515,128,0,505615:0:0:0:0:
36,192,505515,1,0,0:0:0:0:
402,192,505515,1,0,0:0:0:0:
109,192,505515,1,0,0:0:0:0:
256,192,505615,128,0,505715:0:0:0:0:
475,192,505615,1,0,0:0:0:0:
182,192,505715,128,0,505815:0:0:0:0:
402,192,505715,1,0,0:0:0:0:
109,192,505815,128,0,505915:0:0:0:0:
329,192,505815,1,0,0:0:0:0:
475,192,505815,1,0,0:0:0:0:
36,192,505815,1,0,0:0:0:0:
402,192,505915,128,0,506015:0:0:0:0:
256,192,505915,1,0,0:0:0:0:
329,192,506015,128,0,506115:0:0:0:0:
182,192,506015,1,0,0:0:0:0:
256,192,506115,128,0,506215:0:0:0:0:
109,192,506115,1,0,0:0:0:0:
475,192,506115,1,0,0:0:0:0:
402,192,506115,1,0,0:0:0:0:
182,192,506215,128,0,506315:0:0:0:0:
36,192,506215,1,0,0:0:0:0:
475,192,506315,128,0,506415:0:0:0:0:
329,192,506315,1,0,0:0:0:0:
402,192,506415,128,0,506515:0:0:0:0:
256,192,506415,1,0,0:0:0:0:
109,192,506415,1,0,0:0:0:0:
36,192,506415,1,0,0:0:0:0:
329,192,506515,128,0,506615:0:0:0:0:
182,192,506515,1,0,0:0:0:0:
256,192,506615,128,0,506715:0:0:0:0:
109,192,506615,1,0,0:0:0:0:
36,192,506715,128,0,506815:0:0:0:0:
182,192,506715,1,0,0:0:0:0:
475,192,506715,1,0,0:0:0:0:
402,192,506715,1,0,0:0:0:0:
109,192,506815,128,0,506915:0:0:0:0:
256,192,506815,1,0,0:0:0:0:
182,192,506915,128,0,507015:0:0:0:0:
329,192,506915,1,0,0:0:0:0:
402,192,507015,128,0,507115:0:0:0:0:
256,192,507015,1,0,0:0:0:0:
36,192,507015,1,0,0:0:0:0:
475,192,507015,1,0,0:0:0:0:
329,192,507115,128,0,507215:0:0:0:0:
182,192,507115,1,0,0:0:0:0:
256,192,507215,128,0,507315:0:0:0:0:
109,192,507215,1,0,0:0:0:0:
182,192,507315,128,0,507415:0:0:0:0:
36,192,507315,1,0,0:0:0:0:
402,192,507315,1,0,0:0:0:0:
329,192,507315,1,0,0:0:0:0:
475,192,507415,128,0,507515:0:0:0:0:
109,192,507415,1,0,0:0:0:0:
402,192,507515,128,0,507615:0:0:0:0:
182,192,507515,1,0,0:0:0:0:
256,192,507615,1,0,0:0:0:0:
36,192,507615,1,0,0:0:0:0:
109,192,507615,1,0,0:0:0:0:
475,192,507615,1,0,0:0:0:0:
329,192,507715,1,0,0:0:0:0:
402,192,507815,1,0,0:0:0:0:
475,192,507915,1,0,0:0:0:0:
256,192,507915,1,0,0:0:0:0:
36,192,507915,1,0,0:0:0:0:
329,192,507915,1,0,0:0:0:0:
182,192,508015,1,0,0:0:0:0:
109,192,508115,1,0,0:0:0:0:
36,192,508215,1,0,0:0:0:0:
329,192,508215,1,0,0:0:0:0:
182,192,508215,1,0,0:0:0:0:
475,192,508215,1,0,0:0:0:0:
256,192,508315,1,0,0:0:0:0:
182,192,508415,1,0,0:0:0:0:
109,192,508515,1,0,0:0:0:0:
402,192,508515,1,0,0:0:0:0:
475,192,508515,1,0,0:0:0:0:
256,192,508515,1,0,0:0:0:0:
36,192,508515,1,0,0:0:0:0:
329,192,508615,1,0,0:0:0:0:
256,192,508715,1,0,0:0:0:0:
182,192,508815,1,0,0:0:0:0:
36,192,508815,1,0,0:0:0:0:
329,192,508815,1,0,0:0:0:0:
475,192,508815,1,0,0:0:0:0:
109,192,508815,1,0,0:0:0:0:
402,192,508915,1,0,0:0:0:0:
329,192,509015,1,0,0:0:0:0:
256,192,509115,1,0,0:0:0:0:
402,192,509115,1,0,0:0:0:0:
182,192,509115,1,0,0:0:0:0:
36,192,509115,1,0,0:0:0:0:
109,192,509115,1,0,0:0:0:0:
475,192,509215,1,0,0:0:0:0:
402,192,509315,1,0,0:0:0:0:
329,192,509415,1,0,0:0:0:0:
109,192,509415,1,0,0:0:0:0:
182,192,509415,1,0,0:0:0:0:
475,192,509415,1,0,0:0:0:0:
36,192,509415,1,0,0:0:0:0:
256,192,509515,1,0,0:0:0:0:
182,192,509615,1,0,0:0:0:0:
109,192,509715,1,0,0:0:0:0:
256,192,509715,1,0,0:0:0:0:
329,192,509715,1,0,0:0:0:0:
402,192,509715,1,0,0:0:0:0:
475,192,509715,1,0,0:0:0:0:
36,192,509815,1,0,0:0:0:0:
475,192,509915,1,0,0:0:0:0:
109,192,510015,1,0,0:0:0:0:
182,192,510015,1,0,0:0:0:0:
402,192,510015,1,0,0:0:0:0:
329,192,510015,1,0,0:0:0:0:
402,192,510465,1,0,0:0:0:0:
475,192,510465,1,0,0:0:0:0:
109,192,510465,1,0,0:0:0:0:
36,192,510465,1,0,0:0:0:0:
109,192,510915,1,0,0:0:0:0:
182,192,510915,1,0,0:0:0:0:
329,192,510915,1,0,0:0:0:0:
402,192,510915,1,0,0:0:0:0:
329,192,511365,128,0,511665:0:0:0:0:
475,192,511365,128,0,511665:0:0:0:0:
182,192,511365,128,0,511665:0:0:0:0:
36,192,511365,128,0,511665:0:0:0:0:
109,192,511815,1,0,0:0:0:0:
182,192,511815,1,0,0:0:0:0:
329,192,511815,1,0,0:0:0:0:
402,192,511815,1,0,0:0:0:0:
402,192,512115,1,0,0:0:0:0:
329,192,512115,1,0,0:0:0:0:
182,192,512115,1,0,0:0:0:0:
109,192,512115,1,0,0:0:0:0:
36,192,512415,1,0,0:0:0:0:
182,192,512415,1,0,0:0:0:0:
329,192,512415,1,0,0:0:0:0:
475,192,512415,1,0,0:0:0:0:
402,192,512865,1,0,0:0:0:0:
329,192,512865,1,0,0:0:0:0:
182,192,512865,1,0,0:0:0:0:
109,192,512865,1,0,0:0:0:0:
36,192,513315,1,0,0:0:0:0:
182,192,513315,1,0,0:0:0:0:
329,192,513315,1,0,0:0:0:0:
475,192,513315,1,0,0:0:0:0:
329,192,513765,128,0,514065:0:0:0:0:
475,192,513765,128,0,514065:0:0:0:0:
182,192,513765,128,0,514065:0:0:0:0:
36,192,513765,128,0,514065:0:0:0:0:
109,192,514215,1,0,0:0:0:0:
182,192,514215,1,0,0:0:0:0:
329,192,514215,1,0,0:0:0:0:
402,192,514215,1,0,0:0:0:0:
109,192,514515,1,0,0:0:0:0:
182,192,514515,1,0,0:0:0:0:
329,192,514515,1,0,0:0:0:0:
402,192,514515,1,0,0:0:0:0:
36,192,514815,1,0,0:0:0:0:
182,192,514815,1,0,0:0:0:0:
329,192,514815,1,0,0:0:0:0:
475,192,514815,1,0,0:0:0:0:
109,192,515265,1,0,0:0:0:0:
182,192,515265,1,0,0:0:0:0:
329,192,515265,1,0,0:0:0:0:
402,192,515265,1,0,0:0:0:0:
329,192,515715,1,0,0:0:0:0:
475,192,515715,1,0,0:0:0:0:
182,192,515715,1,0,0:0:0:0:
36,192,515715,1,0,0:0:0:0:
36,192,516165,128,0,516465:0:0:0:0:
182,192,516165,128,0,516465:0:0:0:0:
329,192,516165,128,0,516465:0:0:0:0:
475,192,516165,128,0,516465:0:0:0:0:
109,192,516615,1,0,0:0:0:0:
182,192,516615,1,0,0:0:0:0:
329,192,516615,1,0,0:0:0:0:
402,192,516615,1,0,0:0:0:0:
109,192,516915,1,0,0:0:0:0:
182,192,516915,1,0,0:0:0:0:
402,192,516915,1,0,0:0:0:0:
329,192,516915,1,0,0:0:0:0:
329,192,517215,1,0,0:0:0:0:
475,192,517215,1,0,0:0:0:0:
182,192,517215,1,0,0:0:0:0:
36,192,517215,1,0,0:0:0:0:
109,192,517665,1,0,0:0:0:0:
182,192,517665,1,0,0:0:0:0:
329,192,517665,1,0,0:0:0:0:
402,192,517665,1,0,0:0:0:0:
329,192,518115,1,0,0:0:0:0:
475,192,518115,1,0,0:0:0:0:
182,192,518115,1,0,0:0:0:0:
36,192,518115,1,0,0:0:0:0:
109,192,518565,128,0,518865:0:0:0:0:
182,192,518565,128,0,518865:0:0:0:0:
329,192,518565,128,0,518865:0:0:0:0:
402,192,518565,128,0,518865:0:0:0:0:
329,192,519015,1,0,0:0:0:0:
475,192,519015,1,0,0:0:0:0:
182,192,519015,1,0,0:0:0:0:
36,192,519015,1,0,0:0:0:0:
329,192,519315,1,0,0:0:0:0:
475,192,519315,1,0,0:0:0:0:
182,192,519315,1,0,0:0:0:0:
36,192,519315,1,0,0:0:0:0:
329,192,519615,1,0,0:0:0:0:
475,192,519615,1,0,0:0:0:0:
182,192,519615,1,0,0:0:0:0:
36,192,519615,1,0,0:0:0:0:
329,192,520065,1,0,0:0:0:0:
402,192,520065,1,0,0:0:0:0:
182,192,520065,1,0,0:0:0:0:
109,192,520065,1,0,0:0:0:0:
36,192,520515,1,0,0:0:0:0:
182,192,520515,1,0,0:0:0:0:
329,192,520515,1,0,0:0:0:0:
475,192,520515,1,0,0:0:0:0:
256,192,520965,128,0,521265:0:0:0:0:
402,192,520965,128,0,521265:0:0:0:0:
109,192,520965,128,0,521265:0:0:0:0:
182,192,521415,1,0,0:0:0:0:
36,192,521415,1,0,0:0:0:0:
329,192,521415,1,0,0:0:0:0:
475,192,521415,1,0,0:0:0:0:
36,192,521715,1,0,0:0:0:0:
182,192,521715,1,0,0:0:0:0:
329,192,521715,1,0,0:0:0:0:
475,192,521715,1,0,0:0:0:0:
256,192,522015,1,0,0:0:0:0:
329,192,522015,1,0,0:0:0:0:
475,192,522015,1,0,0:0:0:0:
36,192,522015,1,0,0:0:0:0:
182,192,522015,1,0,0:0:0:0:
109,192,522165,1,0,0:0:0:0:
36,192,522165,1,0,0:0:0:0:
256,192,522165,1,0,0:0:0:0:
475,192,522165,1,0,0:0:0:0:
402,192,522165,1,0,0:0:0:0:
