osu file format v14

[General]
AudioFilename: audio.mp3
AudioLeadIn: 0
PreviewTime: 146350
Countdown: 1
SampleSet: None
StackLeniency: 0.4
Mode: 0
LetterboxInBreaks: 0
WidescreenStoryboard: 0

[Editor]
DistanceSpacing: 1
BeatDivisor: 4
GridSize: 4
TimelineZoom: 1

[Metadata]
Title:Fifth Element
TitleUnicode:Fifth Element
Artist:Pathfinder
ArtistUnicode:Pathfinder
Creator:Alvin-
Version:Metal Fantasy
Source:
Tags:marathon
BeatmapID:1341948
BeatmapSetID:632120

[Difficulty]
HPDrainRate:5
CircleSize:4.2
OverallDifficulty:9.7
ApproachRate:9.9
SliderMultiplier:2.3
SliderTickRate:1

[Events]
//Background and Video events
0,0,"bg.jpg",0,0
//Break Periods
2,137250,145450
2,275249,283450
2,443250,451450
//Storyboard Layer 0 (Background)
//Storyboard Layer 1 (Fail)
//Storyboard Layer 2 (Pass)
//Storyboard Layer 3 (Foreground)
//Storyboard Sound Samples

[TimingPoints]
250,300,4,3,1,60,1,0
250,-142.857142857143,4,3,1,60,0,0
1150,-142.857142857143,4,3,1,5,0,0
1450,-142.857142857143,4,3,1,60,0,0
1750,-142.857142857143,4,3,1,5,0,0
2050,-142.857142857143,4,3,1,60,0,0
2350,-142.857142857143,4,3,1,5,0,0
2650,-142.857142857143,4,3,1,60,0,0
4150,-142.857142857143,4,3,1,5,0,0
4450,-142.857142857143,4,3,1,60,0,0
4750,-142.857142857143,4,3,1,5,0,0
5050,-142.857142857143,4,3,1,60,0,0
5650,-166.666666666667,4,3,1,60,0,0
5950,-166.666666666667,4,3,1,5,0,0
6250,-142.857142857143,4,3,1,60,0,0
6550,-142.857142857143,4,3,1,5,0,0
6850,-142.857142857143,4,3,1,60,0,0
7150,-142.857142857143,4,3,1,5,0,0
7450,-142.857142857143,4,3,1,60,0,0
8800,-142.857142857143,4,3,1,5,0,0
8950,-142.857142857143,4,3,1,60,0,0
9100,-142.857142857143,4,3,1,5,0,0
9250,-142.857142857143,4,3,1,60,0,0
9400,-142.857142857143,4,3,1,5,0,0
9550,-142.857142857143,4,3,1,60,0,0
9700,-142.857142857143,4,3,1,5,0,0
9850,-142.857142857143,4,3,1,60,0,0
10750,-142.857142857143,4,3,1,5,0,0
11050,-142.857142857143,4,3,1,60,0,0
16150,-142.857142857143,4,3,1,5,0,0
16450,-142.857142857143,4,3,1,60,0,0
16750,-142.857142857143,4,3,1,5,0,0
17050,-142.857142857143,4,3,1,60,0,0
17650,-100,4,3,1,60,0,0
24250,-83.3333333333333,4,3,1,60,0,0
38650,-100,4,3,1,60,0,0
38950,-142.857142857143,4,3,1,60,0,0
51250,-100,4,3,1,60,0,0
146650,-100,4,3,1,60,0,1
165250,-100,4,3,1,60,0,0
165850,-100,4,3,1,60,0,1
184450,-100,4,3,1,60,0,0
224650,-142.857142857143,4,3,1,60,0,0
234250,-100,4,3,1,60,0,0
284650,-100,4,3,1,60,0,1
303250,-100,4,3,1,60,0,0
303850,-100,4,3,1,60,0,1
322450,-100,4,3,1,60,0,0
323050,-142.857142857143,4,3,1,60,0,0
323350,-142.857142857143,4,3,1,5,0,0
323500,-142.857142857143,4,3,1,60,0,0
323800,-142.857142857143,4,3,1,5,0,0
323950,-142.857142857143,4,3,1,60,0,0
324250,-142.857142857143,4,3,1,5,0,0
324400,-142.857142857143,4,3,1,60,0,0
324700,-142.857142857143,4,3,1,5,0,0
324850,-142.857142857143,4,3,1,60,0,0
325000,-142.857142857143,4,3,1,5,0,0
325150,-142.857142857143,4,3,1,60,0,0
325300,-142.857142857143,4,3,1,5,0,0
325450,-142.857142857143,4,3,1,60,0,0
325750,-142.857142857143,4,3,1,5,0,0
325900,-142.857142857143,4,3,1,60,0,0
326200,-142.857142857143,4,3,1,5,0,0
326350,-142.857142857143,4,3,1,60,0,0
326650,-142.857142857143,4,3,1,5,0,0
326800,-142.857142857143,4,3,1,60,0,0
327100,-142.857142857143,4,3,1,5,0,0
327250,-142.857142857143,4,3,1,60,0,0
327400,-142.857142857143,4,3,1,5,0,0
327550,-142.857142857143,4,3,1,60,0,0
327700,-142.857142857143,4,3,1,5,0,0
327850,-142.857142857143,4,3,1,60,0,0
328150,-142.857142857143,4,3,1,5,0,0
328300,-142.857142857143,4,3,1,60,0,0
328600,-142.857142857143,4,3,1,5,0,0
328750,-142.857142857143,4,3,1,60,0,0
329050,-142.857142857143,4,3,1,5,0,0
329200,-142.857142857143,4,3,1,60,0,0
329500,-142.857142857143,4,3,1,5,0,0
329650,-142.857142857143,4,3,1,60,0,0
329800,-142.857142857143,4,3,1,5,0,0
329950,-142.857142857143,4,3,1,60,0,0
330100,-142.857142857143,4,3,1,5,0,0
330250,-142.857142857143,4,3,1,60,0,0
330550,-142.857142857143,4,3,1,5,0,0
330700,-142.857142857143,4,3,1,60,0,0
331000,-142.857142857143,4,3,1,5,0,0
331150,-142.857142857143,4,3,1,60,0,0
331450,-142.857142857143,4,3,1,5,0,0
331600,-142.857142857143,4,3,1,60,0,0
331900,-142.857142857143,4,3,1,5,0,0
332050,-142.857142857143,4,3,1,60,0,0
332200,-142.857142857143,4,3,1,5,0,0
332350,-142.857142857143,4,3,1,60,0,0
332500,-142.857142857143,4,3,1,5,0,0
332650,-142.857142857143,4,3,1,60,0,0
332950,-142.857142857143,4,3,1,5,0,0
333100,-142.857142857143,4,3,1,60,0,0
333400,-142.857142857143,4,3,1,5,0,0
333550,-142.857142857143,4,3,1,60,0,0
333850,-142.857142857143,4,3,1,5,0,0
334000,-142.857142857143,4,3,1,60,0,0
334300,-142.857142857143,4,3,1,5,0,0
334450,-142.857142857143,4,3,1,60,0,0
334600,-142.857142857143,4,3,1,5,0,0
334750,-142.857142857143,4,3,1,60,0,0
334900,-142.857142857143,4,3,1,5,0,0
335050,-142.857142857143,4,3,1,60,0,0
335350,-142.857142857143,4,3,1,5,0,0
335500,-142.857142857143,4,3,1,60,0,0
335800,-142.857142857143,4,3,1,5,0,0
335950,-142.857142857143,4,3,1,60,0,0
336250,-142.857142857143,4,3,1,5,0,0
336400,-142.857142857143,4,3,1,60,0,0
336700,-142.857142857143,4,3,1,5,0,0
336850,-142.857142857143,4,3,1,60,0,0
337000,-142.857142857143,4,3,1,5,0,0
337150,-142.857142857143,4,3,1,60,0,0
337300,-142.857142857143,4,3,1,5,0,0
337450,-142.857142857143,4,3,1,60,0,0
337750,-142.857142857143,4,3,1,5,0,0
337900,-142.857142857143,4,3,1,60,0,0
338200,-142.857142857143,4,3,1,5,0,0
338350,-142.857142857143,4,3,1,60,0,0
338650,-142.857142857143,4,3,1,5,0,0
338800,-142.857142857143,4,3,1,60,0,0
339100,-142.857142857143,4,3,1,5,0,0
339250,-142.857142857143,4,3,1,60,0,0
339400,-142.857142857143,4,3,1,5,0,0
339550,-142.857142857143,4,3,1,60,0,0
339700,-142.857142857143,4,3,1,5,0,0
339850,-142.857142857143,4,3,1,60,0,0
358675,-142.857142857143,4,3,1,5,0,0
358750,-142.857142857143,4,3,1,60,0,0
358975,-142.857142857143,4,3,1,5,0,0
359050,-142.857142857143,4,3,1,60,0,0
361900,-100,4,3,1,60,0,0
419050,-125,4,3,1,60,0,0
452650,-133.333333333333,4,3,1,60,0,0
471850,-100,4,3,1,60,0,1
491050,-100,4,3,1,60,0,0

[Colours]
Combo1 : 98,255,98
Combo2 : 171,108,255
Combo3 : 255,91,91

[HitObjects]
216,256,200,5,0,0:0:0:0:
214,233,250,2,0,L|208:180,3,53.66666502889
344,180,850,2,0,B|328:300|328:300|336:360|392:380|425:364,1,241.499992630005
408,288,1450,6,0,B|424:160|424:160|432:100|396:48,1,241.499992630005,4|0,0:0|0:0,0:0:0:0:
332,100,2050,2,0,B|348:120|344:148|344:148|268:80|167:97,1,241.499992630005,4|0,0:0|0:0,0:0:0:0:
40,128,2650,5,4,0:0:0:0:
48,176,2750,1,0,0:0:0:0:
55,223,2850,1,0,0:0:0:0:
62,271,2950,1,0,0:0:0:0:
40,128,3250,1,0,0:0:0:0:
215,235,3550,1,4,0:0:0:0:
215,235,3850,6,0,B|232:304|232:304|268:288|268:288|304:356|395:347,1,241.499992630005
456,328,4450,2,0,B|504:276|484:200|484:200|444:152|460:80,1,241.499992630005,4|0,0:0|0:0,0:0:0:0:
384,16,5050,5,4,0:0:0:0:
348,48,5150,1,0,0:0:0:0:
312,80,5250,1,0,0:0:0:0:
276,112,5350,1,0,0:0:0:0:
164,208,5650,2,0,P|180:276|240:204,1,206.999993682861
156,128,6250,6,0,B|92:140|84:204|84:204|37:226|36:284,1,201.249993858338,4|0,0:0|0:0,0:0:0:0:
116,276,6850,2,0,B|136:312|172:316|172:316|200:292|240:284|240:284|284:304|332:288,1,241.499992630005,4|0,0:0|0:0,0:0:0:0:
424,252,7450,5,4,0:0:0:0:
424,252,7750,1,4,0:0:0:0:
424,252,8050,2,0,P|412:224|384:200,1,53.66666502889
444,144,8250,2,0,P|417:129|380:127,1,53.66666502889,0|0,0:3|0:3,0:3:0:0:
392,44,8450,2,0,P|361:48|331:70,1,53.66666502889,0|0,0:3|0:3,0:3:0:0:
264,28,8650,6,0,P|272:108|320:140,1,120.749996315003,4|0,0:0|0:0,0:0:0:0:
376,160,8950,2,0,P|284:168|252:208,1,120.749996315003,4|0,0:0|0:0,0:0:0:0:
244,264,9250,2,0,P|276:328|340:352,1,120.749996315003,4|0,0:0|0:0,0:0:0:0:
403,330,9550,2,0,P|439:270|427:202,1,120.749996315003,4|0,0:0|0:0,0:0:0:0:
376,160,9850,5,4,0:0:0:0:
328,165,9950,1,0,0:0:0:0:
280,169,10050,1,0,0:0:0:0:
232,173,10150,1,0,0:0:0:0:
96,188,10450,2,0,P|163:256|67:261,1,241.499992630005
24,146,11050,6,0,B|48:108|96:104|96:104|104:80|120:68,1,120.749996315003,4|0,0:0|0:0,0:0:0:0:
216,12,11350,2,0,P|236:40|240:72,2,53.66666502889
320,48,11650,2,0,P|318:82|301:110,2,53.66666502889,4|0|0,0:0|0:0|0:0,0:0:0:0:
380,140,11950,2,0,P|357:166|327:177,2,53.66666502889
384,244,12250,5,4,0:0:0:0:
336,254,12350,1,0,0:0:0:0:
289,237,12450,1,0,0:0:0:0:
262,194,12550,1,0,0:0:0:0:
448,180,12850,1,0,0:0:0:0:
344,332,13150,1,4,0:0:0:0:
344,332,13450,6,0,P|300:364|292:384,2,53.66666502889,4|0|0,0:0|0:0|0:0,0:0:0:0:
376,256,13750,2,0,P|321:254|303:264,2,53.66666502889
448,216,14050,2,0,P|406:181|384:178,2,53.66666502889,4|0|0,0:0|0:0|0:0,0:0:0:0:
448,304,14350,2,0,P|490:339|512:342,2,53.66666502889
376,256,14650,5,4,0:0:0:0:
368,208,14750,1,0,0:0:0:0:
360,160,14850,1,0,0:0:0:0:
352,112,14950,1,0,0:0:0:0:
272,292,15250,1,0,0:0:0:0:
200,105,15550,1,4,0:0:0:0:
200,105,15850,6,0,B|160:84|125:108|125:108|184:192|108:276,1,241.499992630005,4|0,0:0|0:0,0:0:0:0:
60,184,16450,2,0,B|-8:268|72:348|72:348|112:360|148:336,1,241.499992630005,4|0,0:0|0:0,0:0:0:0:
122,258,17050,5,4,0:0:0:0:
204,296,17200,2,0,L|208:352,2,40.2499987716675
328,260,17500,1,0,0:0:0:0:
328,260,17575,1,0,0:0:0:0:
328,260,17650,2,0,L|324:188,3,57.5
448,208,17950,2,0,L|452:280,3,57.5
440,120,18250,5,4,0:0:0:0:
438,104,18325,1,0,0:0:0:0:
436,89,18400,1,0,0:0:0:0:
434,73,18475,1,0,0:0:0:0:
396,40,18550,1,4,0:0:0:0:
384,64,18625,1,0,0:0:0:0:
372,88,18700,1,0,0:0:0:0:
360,112,18775,1,0,0:0:0:0:
406,171,18850,5,4,0:0:0:0:
435,108,18925,1,0,0:0:0:0:
400,48,19000,1,0,0:0:0:0:
332,43,19075,1,0,0:0:0:0:
287,97,19150,2,8,P|286:125|296:152,3,57.5,12|8|8|8,0:0|0:0|0:0|0:0,0:0:0:0:
340,208,19450,5,12,0:0:0:0:
352,264,19525,1,0,0:0:0:0:
328,316,19600,1,8,0:0:0:0:
272,332,19675,1,0,0:0:0:0:
220,308,19750,1,8,0:0:0:0:
200,256,19825,1,0,0:0:0:0:
204,200,19900,1,8,0:0:0:0:
208,144,19975,1,0,0:0:0:0:
212,88,20050,1,8,0:0:0:0:
180,40,20125,1,0,0:0:0:0:
124,36,20200,1,8,0:0:0:0:
80,76,20275,1,0,0:0:0:0:
44,120,20350,1,8,0:0:0:0:
8,164,20425,1,0,0:0:0:0:
28,220,20500,1,8,0:0:0:0:
48,272,20575,1,0,0:0:0:0:
72,324,20650,5,8,0:0:0:0:
92,268,20725,1,0,0:0:0:0:
136,232,20800,1,8,0:0:0:0:
192,228,20875,1,0,0:0:0:0:
244,252,20950,1,8,0:0:0:0:
272,300,21025,1,0,0:0:0:0:
320,332,21100,1,8,0:0:0:0:
376,336,21175,1,0,0:0:0:0:
428,308,21250,1,8,0:0:0:0:
456,256,21325,1,0,0:0:0:0:
448,200,21400,1,8,0:0:0:0:
412,156,21475,1,0,0:0:0:0:
356,140,21550,1,8,0:0:0:0:
300,160,21625,1,0,0:0:0:0:
268,208,21700,1,8,0:0:0:0:
272,264,21775,1,0,0:0:0:0:
300,312,21850,5,12,0:0:0:0:
336,268,21925,1,0,0:0:0:0:
348,212,22000,1,8,0:0:0:0:
336,156,22075,1,0,0:0:0:0:
300,112,22150,1,8,0:0:0:0:
244,92,22225,1,0,0:0:0:0:
188,100,22300,1,8,0:0:0:0:
148,140,22375,1,0,0:0:0:0:
108,180,22450,1,8,0:0:0:0:
68,220,22525,1,0,0:0:0:0:
60,276,22600,1,8,0:0:0:0:
88,328,22675,1,0,0:0:0:0:
144,344,22750,1,8,0:0:0:0:
200,324,22825,1,0,0:0:0:0:
224,268,22900,1,8,0:0:0:0:
208,212,22975,1,0,0:0:0:0:
160,180,23050,5,8,0:0:0:0:
200,156,23125,1,0,0:0:0:0:
216,112,23200,1,8,0:0:0:0:
212,68,23275,1,0,0:0:0:0:
184,32,23350,1,8,0:0:0:0:
140,20,23425,1,0,0:0:0:0:
96,36,23500,1,8,0:0:0:0:
68,72,23575,1,0,0:0:0:0:
64,116,23650,5,8,0:0:0:0:
90,105,23725,1,0,0:0:0:0:
119,105,23800,1,8,0:0:0:0:
145,116,23875,1,0,0:0:0:0:
164,137,23950,1,8,0:0:0:0:
174,164,24025,1,0,0:0:0:0:
173,192,24100,1,8,0:0:0:0:
161,218,24175,1,0,0:0:0:0:
140,236,24250,6,0,P|88:247|44:215,2,91.9999971923829,12|0|0,0:0|0:0|0:0,0:0:0:0:
220,268,24550,2,0,P|189:312|132:324,2,91.9999971923829,8|0|0,0:0|0:0|0:0,0:0:0:0:
300,232,24850,2,0,P|308:284|272:340,2,91.9999971923829,8|0|0,0:0|0:0|0:0,0:0:0:0:
332,152,25150,2,0,P|376:184|384:244,2,91.9999971923829,8|0|0,0:0|0:0|0:0,0:0:0:0:
244,160,25450,5,8,0:0:0:0:
257,107,25550,1,0,0:0:0:0:
300,73,25650,1,0,0:0:0:0:
354,71,25750,1,8,0:0:0:0:
399,102,25850,1,0,0:0:0:0:
416,153,25950,1,0,0:0:0:0:
400,205,26050,2,0,P|380:304|404:340,1,137.999995788574,8|0,0:0|0:0,0:0:0:0:
284,272,26350,2,0,P|216:264|160:312,1,137.999995788574,8|0,0:0|0:0,0:0:0:0:
84,328,26650,5,12,0:0:0:0:
80,312,26725,1,0,0:0:0:0:
76,296,26800,1,0,0:0:0:0:
72,280,26875,1,0,0:0:0:0:
68,264,26950,1,8,0:0:0:0:
64,248,27025,1,0,0:0:0:0:
60,232,27100,1,0,0:0:0:0:
56,216,27175,1,0,0:0:0:0:
52,200,27250,2,0,L|72:120,3,68.9999978942872,8|0|0|0,0:0|0:0|0:0|0:0,0:0:0:0:
164,200,27550,2,0,L|184:280,3,68.9999978942872,8|0|0|0,0:0|0:0|0:0|0:0,0:0:0:0:
276,200,27850,5,12,0:0:0:0:
268,160,27925,1,0,0:0:0:0:
260,120,28000,1,0,0:0:0:0:
252,80,28075,1,0,0:0:0:0:
244,40,28150,1,8,0:0:0:0:
292,48,28225,1,0,0:0:0:0:
340,56,28300,1,0,0:0:0:0:
388,64,28375,1,0,0:0:0:0:
436,72,28450,1,8,0:0:0:0:
420,112,28525,1,0,0:0:0:0:
404,152,28600,1,0,0:0:0:0:
388,192,28675,1,0,0:0:0:0:
372,232,28750,1,8,0:0:0:0:
408,256,29050,5,12,0:0:0:0:
424,212,29125,1,0,0:0:0:0:
444,168,29200,1,8,0:0:0:0:
460,124,29275,1,0,0:0:0:0:
476,80,29350,1,8,0:0:0:0:
440,48,29425,1,0,0:0:0:0:
396,28,29500,1,8,0:0:0:0:
348,28,29575,1,0,0:0:0:0:
300,40,29650,1,8,0:0:0:0:
260,68,29725,1,0,0:0:0:0:
236,112,29800,1,8,0:0:0:0:
204,148,29875,1,0,0:0:0:0:
160,168,29950,1,8,0:0:0:0:
112,172,30025,1,0,0:0:0:0:
64,156,30100,1,8,0:0:0:0:
28,124,30175,1,0,0:0:0:0:
8,80,30250,5,8,0:0:0:0:
48,76,30325,1,0,0:0:0:0:
88,72,30400,1,8,0:0:0:0:
128,68,30475,1,0,0:0:0:0:
164,112,30550,1,8,0:0:0:0:
204,120,30625,1,0,0:0:0:0:
244,128,30700,1,8,0:0:0:0:
284,136,30775,1,0,0:0:0:0:
336,104,30850,1,8,0:0:0:0:
376,96,30925,1,0,0:0:0:0:
416,88,31000,1,8,0:0:0:0:
456,80,31075,1,0,0:0:0:0:
496,124,31150,1,8,0:0:0:0:
492,152,31225,1,0,0:0:0:0:
488,180,31300,1,8,0:0:0:0:
484,208,31375,1,0,0:0:0:0:
480,236,31450,6,0,L|470:307,1,68.9999978942872,12|0,0:0|0:0,0:0:0:0:
336,320,31600,1,0,0:0:0:0:
316,316,31675,1,0,0:0:0:0:
296,312,31750,1,0,0:0:0:0:
368,116,31900,6,0,L|356:184,1,68.9999978942872,8|0,0:0|0:0,0:0:0:0:
336,320,32050,1,0,0:0:0:0:
340,340,32125,1,0,0:0:0:0:
344,360,32200,1,0,0:0:0:0:
196,116,32350,6,0,L|208:184,1,68.9999978942872,8|0,0:0|0:0,0:0:0:0:
228,320,32500,1,0,0:0:0:0:
224,340,32575,1,0,0:0:0:0:
220,360,32650,6,0,L|140:376,1,68.9999978942872,8|0,0:0|0:0,0:0:0:0:
16,272,32800,1,0,0:0:0:0:
36,268,32875,1,0,0:0:0:0:
56,264,32950,1,0,0:0:0:0:
76,260,33025,1,0,0:0:0:0:
96,256,33100,2,0,L|172:240,1,68.9999978942872,8|0,0:0|0:0,0:0:0:0:
280,104,33250,5,0,0:0:0:0:
260,100,33325,1,0,0:0:0:0:
240,96,33400,2,0,L|172:80,1,68.9999978942872,8|0,0:0|0:0,0:0:0:0:
32,152,33550,2,0,L|100:168,1,68.9999978942872,8|0,0:0|0:0,0:0:0:0:
236,84,33700,2,0,L|168:68,1,68.9999978942872,8|0,0:0|0:0,0:0:0:0:
28,140,33850,2,0,L|96:156,1,68.9999978942872,12|0,0:0|0:0,0:0:0:0:
232,72,34000,5,0,0:0:0:0:
252,68,34075,1,0,0:0:0:0:
272,64,34150,1,8,0:0:0:0:
292,60,34225,1,0,0:0:0:0:
312,56,34300,1,0,0:0:0:0:
332,52,34375,1,0,0:0:0:0:
352,48,34450,5,8,0:0:0:0:
368,64,34525,1,0,0:0:0:0:
384,80,34600,1,0,0:0:0:0:
400,96,34675,1,0,0:0:0:0:
416,112,34750,1,8,0:0:0:0:
432,128,34825,1,0,0:0:0:0:
448,144,34900,1,0,0:0:0:0:
464,160,34975,1,0,0:0:0:0:
480,176,35050,5,8,0:0:0:0:
452,172,35125,1,0,0:0:0:0:
424,168,35200,1,0,0:0:0:0:
396,164,35275,1,0,0:0:0:0:
368,160,35350,1,8,0:0:0:0:
340,156,35425,1,0,0:0:0:0:
312,152,35500,1,0,0:0:0:0:
284,148,35575,1,0,0:0:0:0:
255,144,35650,5,8,0:0:0:0:
288,172,35725,1,0,0:0:0:0:
320,200,35800,1,0,0:0:0:0:
352,228,35875,1,0,0:0:0:0:
384,256,35950,1,8,0:0:0:0:
416,284,36025,1,0,0:0:0:0:
448,312,36100,1,0,0:0:0:0:
480,340,36175,1,0,0:0:0:0:
512,368,36250,5,12,0:0:0:0:
512,304,36325,1,8,0:0:0:0:
480,252,36400,1,8,0:0:0:0:
424,224,36475,1,8,0:0:0:0:
360,224,36550,1,0,0:0:0:0:
336,260,36625,1,0,0:0:0:0:
308,288,36700,1,0,0:0:0:0:
268,300,36775,1,0,0:0:0:0:
208,288,36850,5,12,0:0:0:0:
168,240,36925,1,8,0:0:0:0:
164,180,37000,1,8,0:0:0:0:
192,124,37075,1,8,0:0:0:0:
252,108,37150,1,0,0:0:0:0:
256,148,37225,1,0,0:0:0:0:
260,188,37300,1,0,0:0:0:0:
264,228,37375,1,0,0:0:0:0:
268,288,37450,5,12,0:0:0:0:
210,310,37525,1,8,0:0:0:0:
147,307,37600,1,8,0:0:0:0:
96,270,37675,1,8,0:0:0:0:
71,212,37750,1,0,0:0:0:0:
76,172,37825,1,0,0:0:0:0:
80,132,37900,1,0,0:0:0:0:
84,92,37975,1,0,0:0:0:0:
96,24,38050,5,12,0:0:0:0:
126,85,38125,1,8,0:0:0:0:
177,130,38200,1,8,0:0:0:0:
242,150,38275,1,8,0:0:0:0:
309,137,38350,1,0,0:0:0:0:
358,88,38425,1,0,0:0:0:0:
374,154,38500,1,0,0:0:0:0:
426,198,38575,1,0,0:0:0:0:
496,210,38650,2,8,B|520:260|504:332|456:360|456:360|420:352|416:292,1,230,12|8,0:0|0:0,0:0:0:0:
392,192,41350,5,0,0:0:0:0:
120,192,42250,1,0,0:0:0:0:
400,176,43750,5,0,0:0:0:0:
408,160,44350,5,0,0:0:0:0:
112,208,44650,1,0,0:0:0:0:
416,144,45850,5,0,0:0:0:0:
104,224,46450,1,0,0:0:0:0:
96,240,46600,1,0,0:0:0:0:
424,128,47350,5,0,0:0:0:0:
88,256,47650,1,0,0:0:0:0:
352,288,48250,6,0,B|392:228|384:144|384:144|288:176|288:176|256:112|256:112|224:176|224:176|128:144|128:144|116:228|160:288,1,643.99998034668,4|0,0:0|0:0,0:0:0:0:
256,352,49750,6,0,L|256:271,1,80.499997543335
124,88,50050,2,0,L|180:144,1,80.499997543335
388,88,50350,2,0,L|331:144,1,80.499997543335
100,188,50650,1,12,0:0:0:0:
100,188,51250,5,8,0:0:0:0:
103,163,51325,1,8,0:0:0:0:
111,140,51400,1,8,0:0:0:0:
123,118,51475,1,8,0:0:0:0:
138,99,51550,1,8,0:0:0:0:
156,82,51625,1,8,0:0:0:0:
176,68,51700,1,8,0:0:0:0:
199,58,51775,1,8,0:0:0:0:
224,52,51850,6,0,L|288:60,3,57.5,8|0|0|0,0:0|0:0|0:0|0:0,0:0:0:0:
360,136,52150,2,0,L|417:128,3,57.5,8|0|0|0,0:0|0:0|0:0|0:0,0:0:0:0:
360,248,52450,2,0,L|417:255,3,57.5,8|0|0|0,0:0|0:0|0:0|0:0,0:0:0:0:
264,304,52750,1,8,0:0:0:0:
240,300,52825,1,8,0:0:0:0:
216,296,52900,1,8,0:0:0:0:
192,292,52975,1,8,0:0:0:0:
168,288,53050,1,8,0:0:0:0:
112,280,55450,5,4,0:0:0:0:
112,280,56050,5,8,0:0:0:0:
100,240,56125,1,8,0:0:0:0:
104,200,56200,1,8,0:0:0:0:
124,164,56275,1,8,0:0:0:0:
156,144,56350,1,8,0:0:0:0:
196,140,56425,1,8,0:0:0:0:
236,152,56500,1,8,0:0:0:0:
276,156,56575,1,8,0:0:0:0:
316,144,56650,1,8,0:0:0:0:
344,124,56725,1,0,0:0:0:0:
360,96,56800,1,0,0:0:0:0:
364,60,56875,1,0,0:0:0:0:
352,28,56950,5,8,0:0:0:0:
344,48,57025,1,0,0:0:0:0:
336,72,57100,1,0,0:0:0:0:
328,92,57175,1,0,0:0:0:0:
320,112,57250,5,8,0:0:0:0:
296,72,57325,1,8,0:0:0:0:
260,44,57400,1,8,0:0:0:0:
216,40,57475,1,8,0:0:0:0:
172,56,57550,1,8,0:0:0:0:
140,92,57625,1,8,0:0:0:0:
132,136,57700,1,8,0:0:0:0:
148,180,57775,1,8,0:0:0:0:
180,212,57850,5,12,0:0:0:0:
204,172,57925,1,0,0:0:0:0:
244,148,58000,1,0,0:0:0:0:
288,148,58075,1,0,0:0:0:0:
328,168,58150,1,8,0:0:0:0:
356,204,58225,1,0,0:0:0:0:
364,248,58300,1,0,0:0:0:0:
352,292,58375,1,0,0:0:0:0:
316,324,58450,1,8,0:0:0:0:
272,336,58525,1,0,0:0:0:0:
228,324,58600,1,0,0:0:0:0:
196,292,58675,1,0,0:0:0:0:
160,264,58750,1,8,0:0:0:0:
116,252,58825,1,0,0:0:0:0:
72,256,58900,1,0,0:0:0:0:
36,284,58975,1,0,0:0:0:0:
16,324,59050,5,8,0:0:0:0:
60,332,59125,1,0,0:0:0:0:
104,340,59200,2,0,L|188:352,1,57.5
252,184,59350,5,8,0:0:0:0:
208,192,59425,1,0,0:0:0:0:
164,200,59500,2,0,L|80:212,1,57.5
16,36,59650,5,8,0:0:0:0:
60,44,59725,1,0,0:0:0:0:
104,52,59800,2,0,L|188:64,1,57.5
356,24,59950,5,8,0:0:0:0:
348,68,60025,1,0,0:0:0:0:
340,112,60100,2,0,L|328:196,1,57.5
200,292,60250,5,12,0:0:0:0:
224,296,60325,1,0,0:0:0:0:
248,300,60400,1,0,0:0:0:0:
272,304,60475,1,0,0:0:0:0:
296,308,60550,1,8,0:0:0:0:
320,312,60625,1,0,0:0:0:0:
344,316,60700,1,0,0:0:0:0:
368,320,60775,1,0,0:0:0:0:
392,324,60850,1,8,0:0:0:0:
416,328,60925,1,0,0:0:0:0:
440,332,61000,1,0,0:0:0:0:
464,336,61075,1,0,0:0:0:0:
488,340,61150,5,8,0:0:0:0:
508,304,61225,1,0,0:0:0:0:
504,264,61300,1,0,0:0:0:0:
488,228,61375,1,0,0:0:0:0:
460,196,61450,1,8,0:0:0:0:
448,156,61525,1,0,0:0:0:0:
456,116,61600,2,0,L|476:48,1,57.5
304,28,61750,5,8,0:0:0:0:
316,68,61825,1,0,0:0:0:0:
308,108,61900,2,0,L|288:176,1,57.5
148,244,62050,5,8,0:0:0:0:
136,204,62125,1,0,0:0:0:0:
144,164,62200,2,0,L|164:96,1,57.5
284,192,62350,5,8,0:0:0:0:
324,180,62425,1,0,0:0:0:0:
364,188,62500,2,0,L|432:208,1,57.5
336,320,62650,5,12,0:0:0:0:
296,336,62725,1,0,0:0:0:0:
253,343,62800,1,0,0:0:0:0:
210,343,62875,1,0,0:0:0:0:
168,336,62950,1,8,0:0:0:0:
127,321,63025,1,0,0:0:0:0:
90,299,63100,1,0,0:0:0:0:
60,268,63175,1,0,0:0:0:0:
39,231,63250,5,8,0:0:0:0:
58,194,63325,1,0,0:0:0:0:
89,164,63400,1,0,0:0:0:0:
126,141,63475,1,0,0:0:0:0:
165,125,63550,1,8,0:0:0:0:
208,112,63625,1,0,0:0:0:0:
250,108,63700,1,0,0:0:0:0:
293,108,63775,1,0,0:0:0:0:
336,114,63850,5,8,0:0:0:0:
332,160,63925,1,0,0:0:0:0:
319,206,64000,1,0,0:0:0:0:
297,248,64075,1,0,0:0:0:0:
266,285,64150,1,8,0:0:0:0:
228,314,64225,1,0,0:0:0:0:
185,335,64300,1,0,0:0:0:0:
139,346,64375,1,0,0:0:0:0:
92,344,64450,5,8,0:0:0:0:
100,300,64525,1,0,0:0:0:0:
108,256,64600,1,0,0:0:0:0:
116,212,64675,1,0,0:0:0:0:
124,168,64750,2,0,P|124:136|116:108,1,57.5,8|0,0:0|0:0,0:0:0:0:
0,72,64900,2,0,P|0:104|8:132,1,57.5,8|0,0:0|0:0,0:0:0:0:
144,180,65050,5,12,0:0:0:0:
180,184,65125,1,0,0:0:0:0:
216,188,65200,1,0,0:0:0:0:
252,192,65275,1,0,0:0:0:0:
284,196,65350,1,8,0:0:0:0:
320,200,65425,1,0,0:0:0:0:
356,204,65500,1,0,0:0:0:0:
392,208,65575,1,0,0:0:0:0:
428,212,65650,1,8,0:0:0:0:
460,204,65725,1,0,0:0:0:0:
484,180,65800,1,0,0:0:0:0:
496,148,65875,1,0,0:0:0:0:
496,112,65950,5,8,0:0:0:0:
456,124,66025,1,0,0:0:0:0:
428,152,66100,1,0,0:0:0:0:
412,188,66175,1,0,0:0:0:0:
412,228,66250,5,12,0:0:0:0:
376,184,66325,1,8,0:0:0:0:
320,164,66400,1,8,0:0:0:0:
264,184,66475,1,8,0:0:0:0:
240,236,66550,1,8,0:0:0:0:
252,268,66625,1,0,0:0:0:0:
264,300,66700,1,0,0:0:0:0:
276,332,66775,1,0,0:0:0:0:
288,364,66850,5,12,0:0:0:0:
303,308,66925,1,8,0:0:0:0:
289,252,67000,1,8,0:0:0:0:
247,214,67075,1,8,0:0:0:0:
191,203,67150,1,8,0:0:0:0:
139,224,67225,1,8,0:0:0:0:
106,270,67300,1,8,0:0:0:0:
103,327,67375,1,8,0:0:0:0:
132,380,67450,5,12,0:0:0:0:
160,336,67525,1,0,0:0:0:0:
188,292,67600,1,0,0:0:0:0:
216,248,67675,1,0,0:0:0:0:
244,204,67750,1,8,0:0:0:0:
272,160,67825,1,0,0:0:0:0:
300,116,67900,1,0,0:0:0:0:
344,88,67975,1,0,0:0:0:0:
396,80,68050,1,8,0:0:0:0:
444,100,68125,1,0,0:0:0:0:
484,136,68200,1,0,0:0:0:0:
492,188,68275,1,0,0:0:0:0:
480,240,68350,5,8,0:0:0:0:
436,216,68425,1,0,0:0:0:0:
384,212,68500,1,0,0:0:0:0:
336,236,68575,1,0,0:0:0:0:
312,280,68650,1,8,0:0:0:0:
272,316,68725,1,0,0:0:0:0:
220,324,68800,2,0,L|148:316,1,57.5
48,208,68950,5,8,0:0:0:0:
88,172,69025,1,0,0:0:0:0:
140,164,69100,2,0,L|212:172,1,57.5
312,72,69250,5,8,0:0:0:0:
272,36,69325,1,0,0:0:0:0:
220,28,69400,2,0,L|148:36,1,57.5
8,176,69550,5,8,0:0:0:0:
48,208,69625,1,0,0:0:0:0:
100,216,69700,2,0,L|172:208,1,57.5
340,156,69850,5,12,0:0:0:0:
348,202,69925,1,0,0:0:0:0:
339,247,70000,1,0,0:0:0:0:
314,287,70075,1,0,0:0:0:0:
277,315,70150,1,8,0:0:0:0:
232,328,70225,1,0,0:0:0:0:
185,323,70300,1,0,0:0:0:0:
144,302,70375,1,0,0:0:0:0:
112,268,70450,1,8,0:0:0:0:
96,224,70525,1,0,0:0:0:0:
96,177,70600,1,0,0:0:0:0:
113,134,70675,1,0,0:0:0:0:
140,96,70750,2,0,L|200:100,3,57.5,8|0|0|0,0:0|0:0|0:0|0:0,0:0:0:0:
196,216,71050,5,8,0:0:0:0:
240,208,71125,1,0,0:0:0:0:
284,200,71200,2,0,L|356:188,1,57.5
476,68,71350,5,8,0:0:0:0:
432,60,71425,1,0,0:0:0:0:
388,52,71500,2,0,L|316:40,1,57.5
188,172,71650,5,8,0:0:0:0:
196,216,71725,1,0,0:0:0:0:
204,260,71800,2,0,L|216:332,1,57.5
396,372,71950,5,8,0:0:0:0:
404,328,72025,1,0,0:0:0:0:
412,284,72100,2,0,L|424:212,1,57.5
504,84,72250,5,12,0:0:0:0:
460,88,72325,1,0,0:0:0:0:
416,92,72400,1,0,0:0:0:0:
372,96,72475,1,0,0:0:0:0:
328,100,72550,1,8,0:0:0:0:
284,104,72625,1,0,0:0:0:0:
240,108,72700,1,0,0:0:0:0:
196,112,72775,1,0,0:0:0:0:
152,116,72850,1,8,0:0:0:0:
114,158,72925,1,0,0:0:0:0:
103,214,73000,1,0,0:0:0:0:
124,267,73075,1,0,0:0:0:0:
169,301,73150,1,8,0:0:0:0:
225,307,73225,1,0,0:0:0:0:
276,283,73300,1,0,0:0:0:0:
308,236,73375,1,0,0:0:0:0:
310,179,73450,5,8,0:0:0:0:
273,157,73525,1,0,0:0:0:0:
231,158,73600,1,0,0:0:0:0:
194,180,73675,1,0,0:0:0:0:
175,218,73750,1,8,0:0:0:0:
178,260,73825,1,0,0:0:0:0:
203,295,73900,1,0,0:0:0:0:
242,312,73975,1,0,0:0:0:0:
284,307,74050,2,0,P|320:308|356:328,7,57.5,8|0|0|0|8|0|0|0,0:0|0:0|0:0|0:0|0:0|0:0|0:0|0:0,0:0:0:0:
201,342,74650,5,12,0:0:0:0:
167,353,74725,1,0,0:0:0:0:
130,353,74800,1,0,0:0:0:0:
95,342,74875,1,0,0:0:0:0:
65,320,74950,1,0,0:0:0:0:
44,290,75025,1,0,0:0:0:0:
32,256,75100,1,8,0:0:0:0:
32,220,75175,1,0,0:0:0:0:
45,185,75250,1,0,0:0:0:0:
66,156,75325,1,0,0:0:0:0:
96,135,75400,1,0,0:0:0:0:
130,123,75475,1,0,0:0:0:0:
167,125,75550,1,8,0:0:0:0:
202,136,75625,1,0,0:0:0:0:
231,158,75700,1,0,0:0:0:0:
252,189,75775,1,0,0:0:0:0:
240,204,75850,5,0,0:0:0:0:
223,210,75925,1,0,0:0:0:0:
205,210,76000,1,8,0:0:0:0:
187,204,76075,1,0,0:0:0:0:
172,193,76150,1,0,0:0:0:0:
162,178,76225,1,0,0:0:0:0:
156,161,76300,1,0,0:0:0:0:
156,143,76375,1,0,0:0:0:0:
162,126,76450,1,8,0:0:0:0:
173,111,76525,1,0,0:0:0:0:
188,101,76600,1,0,0:0:0:0:
205,95,76675,1,0,0:0:0:0:
223,95,76750,1,8,0:0:0:0:
241,101,76825,1,0,0:0:0:0:
255,112,76900,1,0,0:0:0:0:
266,128,76975,1,0,0:0:0:0:
256,136,77050,5,12,0:0:0:0:
246,143,77125,1,0,0:0:0:0:
236,148,77200,1,0,0:0:0:0:
225,150,77275,1,0,0:0:0:0:
214,151,77350,1,0,0:0:0:0:
202,149,77425,1,0,0:0:0:0:
192,145,77500,1,8,0:0:0:0:
182,138,77575,1,0,0:0:0:0:
174,130,77650,1,0,0:0:0:0:
168,120,77725,1,0,0:0:0:0:
164,109,77800,1,0,0:0:0:0:
163,98,77875,1,0,0:0:0:0:
164,87,77950,1,8,0:0:0:0:
167,76,78025,1,0,0:0:0:0:
173,66,78100,1,0,0:0:0:0:
180,57,78175,1,0,0:0:0:0:
188,52,78250,1,0,0:0:0:0:
196,52,78325,1,0,0:0:0:0:
204,53,78400,1,8,0:0:0:0:
212,53,78475,1,0,0:0:0:0:
220,54,78550,1,0,0:0:0:0:
228,54,78625,1,0,0:0:0:0:
237,55,78700,1,0,0:0:0:0:
245,55,78775,1,0,0:0:0:0:
276,60,78850,5,8,0:0:0:0:
312,75,78925,1,8,0:0:0:0:
340,103,79000,1,8,0:0:0:0:
364,135,79075,1,8,0:0:0:0:
380,171,79150,1,8,0:0:0:0:
388,211,79225,1,8,0:0:0:0:
388,251,79300,1,8,0:0:0:0:
380,291,79375,1,8,0:0:0:0:
364,328,79450,6,0,P|344:356|300:376,4,57.5,12|0|0|0|0,0:0|0:0|0:0|0:0|0:0,0:0:0:0:
104,336,79900,5,0,0:0:0:0:
100,316,79975,1,0,0:0:0:0:
96,296,80050,1,0,0:0:0:0:
92,276,80125,1,0,0:0:0:0:
88,256,80200,1,0,0:0:0:0:
84,236,80275,1,0,0:0:0:0:
80,216,80350,2,0,L|88:156,3,57.5
172,96,80650,6,0,L|200:212,1,115
296,92,80950,2,0,L|276:20,2,57.5
424,192,81250,1,0,0:0:0:0:
400,196,81325,1,0,0:0:0:0:
376,200,81400,1,0,0:0:0:0:
356,204,81475,1,0,0:0:0:0:
336,208,81550,2,0,L|364:324,1,115
216,296,81850,6,0,L|196:368,2,57.5,4|0|0,0:0|0:0|0:0,0:0:0:0:
100,196,82150,1,0,0:0:0:0:
240,160,82300,1,0,0:0:0:0:
236,140,82375,1,0,0:0:0:0:
232,120,82450,1,0,0:0:0:0:
228,100,82525,1,0,0:0:0:0:
224,80,82600,2,0,L|236:24,3,57.5
104,64,82900,1,0,0:0:0:0:
100,84,82975,1,0,0:0:0:0:
96,104,83050,6,0,L|108:160,5,57.5
192,176,83500,2,0,L|180:232,5,57.5
280,240,83950,1,0,0:0:0:0:
288,264,84025,1,0,0:0:0:0:
296,288,84100,1,0,0:0:0:0:
304,312,84175,1,0,0:0:0:0:
312,336,84250,5,4,0:0:0:0:
460,336,84450,2,0,L|476:260,1,76.6666666666667
500,152,84650,1,0,0:0:0:0:
348,144,84850,5,0,0:0:0:0:
308,180,84950,1,0,0:0:0:0:
256,192,85050,1,0,0:0:0:0:
204,176,85150,1,0,0:0:0:0:
168,136,85250,1,0,0:0:0:0:
120,116,85350,1,0,0:0:0:0:
68,124,85450,5,4,0:0:0:0:
28,312,85650,2,0,L|120:300,1,76.6666666666667
224,280,85850,1,0,0:0:0:0:
436,352,86050,5,0,0:0:0:0:
457,294,86150,1,0,0:0:0:0:
456,233,86250,1,0,0:0:0:0:
434,177,86350,1,0,0:0:0:0:
392,132,86450,1,0,0:0:0:0:
338,104,86550,1,0,0:0:0:0:
280,100,86650,6,0,P|232:108|184:144,1,76.6666666666667,4|0,0:0|0:0,0:0:0:0:
88,232,86850,1,0,0:0:0:0:
88,232,86950,2,0,P|136:280|240:284,1,153.333333333333
384,272,87250,5,4,0:0:0:0:
408,220,87350,1,0,0:0:0:0:
428,172,87450,1,0,0:0:0:0:
448,124,87550,2,0,P|400:72|236:56,1,230,0|4,0:0|0:0,0:0:0:0:
116,168,88150,5,0,0:0:0:0:
136,216,88250,1,0,0:0:0:0:
156,264,88350,1,0,0:0:0:0:
176,312,88450,2,0,P|224:360|328:364,1,153.333333333333,4|0,0:0|0:0,0:0:0:0:
400,240,88750,5,0,0:0:0:0:
444,268,88850,1,0,0:0:0:0:
472,312,88950,1,0,0:0:0:0:
468,364,89050,5,4,0:0:0:0:
444,352,89125,1,0,0:0:0:0:
420,340,89200,1,0,0:0:0:0:
396,328,89275,1,0,0:0:0:0:
372,316,89350,2,0,L|312:340,3,57.5
268,260,89650,2,0,L|208:284,3,57.5
372,192,89950,1,0,0:0:0:0:
348,180,90025,1,0,0:0:0:0:
324,168,90100,1,0,0:0:0:0:
300,156,90175,1,0,0:0:0:0:
276,144,90250,6,0,L|208:168,1,57.5,4|0,0:0|0:0,0:0:0:0:
68,216,90400,2,0,L|136:192,1,57.5
208,272,90550,1,0,0:0:0:0:
208,292,90625,1,0,0:0:0:0:
208,312,90700,2,0,P|259:340|320:340,1,115
484,284,91000,1,0,0:0:0:0:
484,264,91075,1,0,0:0:0:0:
484,244,91150,2,0,P|432:215|372:216,1,115
208,312,91450,5,0,0:0:0:0:
192,300,91525,1,0,0:0:0:0:
176,288,91600,1,0,0:0:0:0:
160,276,91675,1,0,0:0:0:0:
144,264,91750,1,0,0:0:0:0:
80,140,91900,2,0,P|76:112|84:80,3,57.5
188,144,92200,2,0,P|192:172|184:204,5,57.5
256,252,92650,5,0,0:0:0:0:
256,268,92725,1,0,0:0:0:0:
256,284,92800,1,0,0:0:0:0:
256,300,92875,1,0,0:0:0:0:
256,316,92950,1,0,0:0:0:0:
256,332,93025,1,0,0:0:0:0:
256,348,93100,5,0,0:0:0:0:
288,336,93175,1,0,0:0:0:0:
320,324,93250,1,0,0:0:0:0:
352,312,93325,1,0,0:0:0:0:
384,300,93400,1,0,0:0:0:0:
394,267,93475,1,0,0:0:0:0:
393,232,93550,1,0,0:0:0:0:
384,198,93625,1,0,0:0:0:0:
366,168,93700,1,0,0:0:0:0:
340,144,93775,1,0,0:0:0:0:
308,130,93850,5,4,0:0:0:0:
112,60,94050,2,0,L|96:152,1,76.6666666666667
76,264,94250,1,0,0:0:0:0:
252,340,94450,5,0,0:0:0:0:
281,295,94550,1,0,0:0:0:0:
286,241,94650,1,0,0:0:0:0:
274,188,94750,1,0,0:0:0:0:
239,146,94850,1,0,0:0:0:0:
227,93,94950,1,0,0:0:0:0:
238,40,95050,5,4,0:0:0:0:
400,60,95250,2,0,L|416:152,1,76.6666666666667
436,264,95450,1,0,0:0:0:0:
214,167,95650,5,0,0:0:0:0:
183,218,95750,1,0,0:0:0:0:
201,275,95850,1,0,0:0:0:0:
256,298,95950,1,0,0:0:0:0:
310,273,96050,1,0,0:0:0:0:
326,215,96150,1,0,0:0:0:0:
293,166,96250,5,4,0:0:0:0:
256,124,96350,1,0,0:0:0:0:
220,80,96450,1,0,0:0:0:0:
180,40,96550,2,0,P|116:24|24:80,1,153.333333333333
128,172,96850,5,4,0:0:0:0:
165,214,96950,1,0,0:0:0:0:
201,258,97050,1,0,0:0:0:0:
241,298,97150,2,0,P|305:314|397:258,1,153.333333333333
432,188,97450,6,0,L|416:104,1,76.6666666666667,4|0,0:0|0:0,0:0:0:0:
360,40,97650,2,0,P|320:32|284:40,1,76.6666666666667
244,172,97850,2,0,P|284:180|320:172,1,76.6666666666667
172,112,98050,6,0,L|152:208,1,76.6666666666667,4|0,0:0|0:0,0:0:0:0:
260,284,98250,2,0,L|340:260,1,76.6666666666667
368,124,98450,2,0,L|308:64,1,76.6666666666667
172,112,98650,6,0,L|125:345,1,230,4|0,0:0|0:0,0:0:0:0:
288,336,99050,1,0,0:0:0:0:
280,284,99150,1,0,0:0:0:0:
272,232,99250,2,0,B|268:188|292:152|292:152|328:128|344:96,1,153.333333333333
432,120,99550,2,0,B|428:164|444:204|444:204|444:240|420:288,1,153.333333333333
332,276,99850,5,4,0:0:0:0:
280,284,99950,1,0,0:0:0:0:
228,292,100050,1,0,0:0:0:0:
176,300,100150,1,0,0:0:0:0:
80,116,100450,2,0,P|44:100|4:100,2,76.6666666666667
164,100,100750,2,0,P|145:65|113:40,2,76.6666666666667
136,180,101050,6,0,P|154:214|186:239,1,76.6666666666667,4|0,0:0|0:0,0:0:0:0:
264,264,101250,1,0,0:0:0:0:
343,220,101350,2,0,P|388:212|432:228,1,76.6666666666667
496,256,101550,1,0,0:0:0:0:
438,333,101650,2,0,B|388:388|272:384|228:328|228:328|204:364|156:360,1,306.666666666667
36,328,102250,5,4,0:0:0:0:
48,268,102350,1,0,0:0:0:0:
60,208,102450,1,0,0:0:0:0:
116,160,102550,1,0,0:0:0:0:
132,220,102650,1,0,0:0:0:0:
172,268,102750,1,0,0:0:0:0:
232,280,102850,1,4,0:0:0:0:
292,268,102950,1,0,0:0:0:0:
336,224,103050,1,0,0:0:0:0:
312,152,103150,1,0,0:0:0:0:
268,192,103250,1,0,0:0:0:0:
260,252,103350,1,0,0:0:0:0:
288,308,103450,6,0,B|320:368|416:368|436:284|436:284|412:240|428:192|428:192|396:228|332:212,1,383.333333333333,4|0,0:0|0:0,0:0:0:0:
268,192,104050,5,0,0:0:0:0:
260,140,104150,1,0,0:0:0:0:
252,88,104250,1,0,0:0:0:0:
244,36,104350,2,0,P|272:136|200:79,1,230,0|4,0:0|0:0,0:0:0:0:
176,64,104750,1,0,0:0:0:0:
128,44,104850,1,0,0:0:0:0:
76,56,104950,1,0,0:0:0:0:
76,56,105250,5,0,0:0:0:0:
128,44,105350,1,0,0:0:0:0:
176,64,105450,1,0,0:0:0:0:
204,111,105550,1,0,0:0:0:0:
200,164,105650,1,0,0:0:0:0:
168,204,105750,1,0,0:0:0:0:
116,216,105850,6,0,P|268:244|152:348,1,383.333333333333,4|0,0:0|0:0,0:0:0:0:
112,316,106450,1,0,0:0:0:0:
148,280,106550,1,0,0:0:0:0:
200,268,106650,1,0,0:0:0:0:
252,276,106750,1,0,0:0:0:0:
252,276,107050,5,4,0:0:0:0:
296,316,107150,1,0,0:0:0:0:
357,330,107250,1,0,0:0:0:0:
413,310,107350,1,0,0:0:0:0:
450,260,107450,1,0,0:0:0:0:
456,200,107550,1,0,0:0:0:0:
432,116,107650,5,4,0:0:0:0:
396,164,107750,1,0,0:0:0:0:
360,212,107850,1,0,0:0:0:0:
312,172,107950,1,0,0:0:0:0:
268,132,108050,1,0,0:0:0:0:
232,180,108150,1,0,0:0:0:0:
194,227,108250,6,0,B|144:212|124:136|152:92|152:92|120:68|80:76,1,230,4|0,0:0|0:0,0:0:0:0:
16,100,108650,1,0,0:0:0:0:
35,248,108850,5,0,0:0:0:0:
53,305,108950,1,0,0:0:0:0:
112,324,109050,1,0,0:0:0:0:
160,288,109150,1,0,0:0:0:0:
156,228,109250,1,0,0:0:0:0:
313,303,109450,5,4,0:0:0:0:
288,247,109550,1,0,0:0:0:0:
264,192,109650,1,0,0:0:0:0:
240,136,109750,1,0,0:0:0:0:
240,136,110050,5,0,0:0:0:0:
264,192,110150,1,0,0:0:0:0:
320,220,110250,1,0,0:0:0:0:
380,212,110350,1,0,0:0:0:0:
424,172,110450,1,0,0:0:0:0:
432,112,110550,1,0,0:0:0:0:
408,56,110650,6,0,B|376:80|336:80|336:80|268:24|164:36,1,230,4|0,0:0|0:0,0:0:0:0:
16,168,111150,1,0,0:0:0:0:
16,168,111250,2,0,B|48:144|88:144|88:144|156:200|260:188,1,230
412,168,111850,5,4,0:0:0:0:
412,232,111950,1,0,0:0:0:0:
412,292,112050,1,0,0:0:0:0:
348,264,112150,1,0,0:0:0:0:
288,264,112250,1,0,0:0:0:0:
240,304,112350,1,0,0:0:0:0:
176,332,112450,5,4,0:0:0:0:
116,320,112550,1,0,0:0:0:0:
76,272,112650,1,0,0:0:0:0:
145,254,112750,1,0,0:0:0:0:
145,194,112850,1,0,0:0:0:0:
145,134,112950,1,0,0:0:0:0:
150,64,113050,6,0,B|196:68|224:112|212:156|212:156|264:188|320:160,1,230,4|0,0:0|0:0,0:0:0:0:
504,112,113550,1,0,0:0:0:0:
504,112,113650,2,0,B|444:84|390:105|390:105|348:64|284:72,1,230,4|0,0:0|0:0,0:0:0:0:
76,116,114250,6,0,L|3:138,2,76.6666666666667,4|0|0,0:0|0:0|0:0,0:0:0:0:
84,216,114550,2,0,L|10:238,2,76.6666666666667
116,308,114850,2,0,L|189:330,1,76.6666666666667
288,356,115050,1,0,0:0:0:0:
332,248,115150,2,0,L|405:225,1,76.6666666666667
496,192,115350,1,0,0:0:0:0:
440,92,115450,6,0,L|264:144,1,153.333333333333,4|0,0:0|0:0,0:0:0:0:
200,168,115750,2,0,P|120:168|80:96,1,153.333333333333
100,28,116050,2,0,P|188:8|240:52,1,153.333333333333
280,128,116350,2,0,L|260:300,1,153.333333333333
176,344,116650,5,4,0:0:0:0:
129,306,116750,1,0,0:0:0:0:
129,247,116850,1,0,0:0:0:0:
175,209,116950,1,0,0:0:0:0:
233,221,117050,1,0,0:0:0:0:
261,273,117150,1,0,0:0:0:0:
237,328,117250,5,4,0:0:0:0:
310,347,117350,1,0,0:0:0:0:
365,302,117450,1,0,0:0:0:0:
365,233,117550,1,0,0:0:0:0:
311,188,117650,1,0,0:0:0:0:
243,202,117750,1,0,0:0:0:0:
216,268,117850,6,0,L|212:340,4,57.5,4|0|0|0|0,0:0|0:0|0:0|0:0|0:0,0:0:0:0:
80,148,118300,5,0,0:0:0:0:
84,168,118375,1,0,0:0:0:0:
88,188,118450,1,0,0:0:0:0:
92,208,118525,1,0,0:0:0:0:
96,228,118600,1,0,0:0:0:0:
100,248,118675,1,0,0:0:0:0:
104,268,118750,2,0,L|100:328,3,57.5
220,196,119050,6,0,P|312:244|316:312,1,172.5
216,296,119350,2,0,L|236:368,2,57.5
88,192,119650,1,0,0:0:0:0:
112,188,119725,1,0,0:0:0:0:
136,184,119800,1,0,0:0:0:0:
156,180,119875,1,0,0:0:0:0:
176,176,119950,2,0,L|148:60,1,115
296,88,120250,6,0,L|316:16,2,57.5,4|0|0,0:0|0:0|0:0,0:0:0:0:
412,188,120550,1,0,0:0:0:0:
276,248,120700,1,0,0:0:0:0:
280,268,120775,1,0,0:0:0:0:
284,288,120850,1,0,0:0:0:0:
288,308,120925,1,0,0:0:0:0:
292,328,121000,2,0,L|280:384,3,57.5
408,320,121300,1,0,0:0:0:0:
412,300,121375,1,0,0:0:0:0:
416,280,121450,6,0,L|404:224,5,57.5
384,148,121900,1,0,0:0:0:0:
352,132,121975,1,0,0:0:0:0:
316,128,122050,1,0,0:0:0:0:
280,132,122125,1,0,0:0:0:0:
248,148,122200,1,0,0:0:0:0:
228,176,122275,1,0,0:0:0:0:
220,208,122350,5,0,0:0:0:0:
200,180,122425,1,0,0:0:0:0:
188,148,122500,1,0,0:0:0:0:
184,112,122575,1,0,0:0:0:0:
192,80,122650,5,4,0:0:0:0:
44,56,122850,2,0,L|28:132,1,76.6666666666667
4,240,123050,1,0,0:0:0:0:
164,240,123250,5,0,0:0:0:0:
204,204,123350,1,0,0:0:0:0:
256,192,123450,1,0,0:0:0:0:
308,208,123550,1,0,0:0:0:0:
344,248,123650,1,0,0:0:0:0:
392,268,123750,1,0,0:0:0:0:
444,260,123850,5,4,0:0:0:0:
484,72,124050,2,0,L|392:84,1,76.6666666666667
284,100,124250,1,0,0:0:0:0:
76,32,124450,5,0,0:0:0:0:
55,90,124550,1,0,0:0:0:0:
56,151,124650,1,0,0:0:0:0:
78,207,124750,1,0,0:0:0:0:
120,252,124850,1,0,0:0:0:0:
174,280,124950,1,0,0:0:0:0:
232,284,125050,6,0,P|280:276|328:240,2,76.6666666666667,4|0|0,0:0|0:0|0:0,0:0:0:0:
244,200,125350,2,0,P|268:148|220:64,1,115
128,40,125650,5,4,0:0:0:0:
72,68,125750,1,0,0:0:0:0:
40,120,125850,1,0,0:0:0:0:
32,180,125950,2,0,P|64:280|196:336,1,230,0|4,0:0|0:0,0:0:0:0:
316,336,126400,1,0,0:0:0:0:
304,140,126550,5,0,0:0:0:0:
344,92,126650,1,0,0:0:0:0:
400,120,126750,1,0,0:0:0:0:
392,180,126850,2,0,P|328:236|248:220,1,153.333333333333,4|0,0:0|0:0,0:0:0:0:
96,168,127150,5,0,0:0:0:0:
44,136,127250,1,0,0:0:0:0:
24,76,127350,1,0,0:0:0:0:
44,20,127450,5,4,0:0:0:0:
68,32,127525,1,0,0:0:0:0:
92,44,127600,1,0,0:0:0:0:
116,56,127675,1,0,0:0:0:0:
140,68,127750,2,0,L|200:44,3,57.5
244,124,128050,2,0,L|304:100,3,57.5
140,192,128350,1,0,0:0:0:0:
164,204,128425,1,0,0:0:0:0:
188,216,128500,1,0,0:0:0:0:
212,228,128575,1,0,0:0:0:0:
236,240,128650,6,0,L|304:216,1,57.5,4|0,0:0|0:0,0:0:0:0:
468,176,128800,2,0,L|400:152,1,57.5
284,52,128950,1,0,0:0:0:0:
300,40,129025,1,0,0:0:0:0:
316,28,129100,2,0,P|352:92|304:172,1,153.333333333333
236,240,129400,1,0,0:0:0:0:
220,252,129475,1,0,0:0:0:0:
204,264,129550,2,0,P|168:200|216:120,1,153.333333333333
88,64,129850,6,0,L|36:32,4,57.5,4|0|0|0|0,0:0|0:0|0:0|0:0|0:0,0:0:0:0:
32,240,130300,2,0,L|84:272,3,57.5
148,328,130600,2,0,L|200:296,4,57.5
204,172,131050,5,4,0:0:0:0:
204,156,131125,1,0,0:0:0:0:
204,140,131200,1,0,0:0:0:0:
204,124,131275,1,0,0:0:0:0:
204,108,131350,1,0,0:0:0:0:
204,92,131425,1,0,0:0:0:0:
204,76,131500,5,0,0:0:0:0:
172,88,131575,1,0,0:0:0:0:
140,100,131650,1,0,0:0:0:0:
108,112,131725,1,0,0:0:0:0:
76,124,131800,1,0,0:0:0:0:
76,164,131875,1,0,0:0:0:0:
76,204,131950,1,0,0:0:0:0:
76,244,132025,1,0,0:0:0:0:
76,284,132100,1,0,0:0:0:0:
76,324,132175,1,0,0:0:0:0:
76,364,132250,5,4,0:0:0:0:
192,252,132450,2,0,L|280:236,1,76.6666666666667
388,216,132650,1,0,0:0:0:0:
260,44,132850,5,0,0:0:0:0:
231,89,132950,1,0,0:0:0:0:
226,143,133050,1,0,0:0:0:0:
238,196,133150,1,0,0:0:0:0:
273,238,133250,1,0,0:0:0:0:
285,291,133350,1,0,0:0:0:0:
274,344,133450,5,4,0:0:0:0:
112,324,133650,2,0,L|96:232,1,76.6666666666667
76,120,133850,1,0,0:0:0:0:
298,217,134050,5,0,0:0:0:0:
329,166,134150,1,0,0:0:0:0:
311,109,134250,1,0,0:0:0:0:
256,86,134350,1,0,0:0:0:0:
202,111,134450,1,0,0:0:0:0:
186,169,134550,1,0,0:0:0:0:
219,218,134650,5,4,0:0:0:0:
256,260,134750,1,0,0:0:0:0:
292,304,134850,1,0,0:0:0:0:
332,344,134950,2,0,P|396:360|488:304,1,153.333333333333
384,212,135250,5,0,0:0:0:0:
347,170,135350,1,0,0:0:0:0:
311,126,135450,1,0,0:0:0:0:
271,86,135550,2,0,P|207:70|115:126,1,153.333333333333
80,196,135850,6,0,L|96:280,1,76.6666666666667,4|0,0:0|0:0,0:0:0:0:
192,372,136050,2,0,L|208:288,1,76.6666666666667,4|0,0:0|0:0,0:0:0:0:
192,72,136250,2,0,L|208:156,1,76.6666666666667,4|0,0:0|0:0,0:0:0:0:
292,272,136450,6,0,L|306:197,1,76.6666666666667,4|0,0:0|0:0,0:0:0:0:
376,96,136650,2,0,L|390:170,1,76.6666666666667,4|0,0:0|0:0,0:0:0:0:
396,344,136850,2,0,L|410:269,1,76.6666666666667,4|0,0:0|0:0,0:0:0:0:
492,136,137050,1,0,0:0:0:0:
256,192,146650,5,12,0:0:0:0:
220,236,146725,1,0,0:0:0:0:
218,292,146800,1,8,0:0:0:0:
251,338,146875,1,0,0:0:0:0:
305,355,146950,1,8,0:0:0:0:
358,337,147025,1,0,0:0:0:0:
389,289,147100,1,8,0:0:0:0:
386,233,147175,1,0,0:0:0:0:
384,180,147250,1,8,0:0:0:0:
380,128,147325,1,0,0:0:0:0:
396,80,147400,1,8,0:0:0:0:
436,48,147475,1,0,0:0:0:0:
488,44,147550,5,8,0:0:0:0:
496,96,147625,1,0,0:0:0:0:
480,144,147700,1,8,0:0:0:0:
440,176,147775,1,0,0:0:0:0:
384,180,147850,1,8,0:0:0:0:
336,156,147925,1,0,0:0:0:0:
300,116,148000,1,8,0:0:0:0:
252,96,148075,1,0,0:0:0:0:
200,88,148150,1,8,0:0:0:0:
148,92,148225,1,0,0:0:0:0:
100,108,148300,1,8,0:0:0:0:
60,140,148375,1,0,0:0:0:0:
32,184,148450,5,8,0:0:0:0:
80,172,148525,1,0,0:0:0:0:
132,172,148600,1,8,0:0:0:0:
180,188,148675,1,0,0:0:0:0:
216,224,148750,5,8,0:0:0:0:
168,240,148825,1,0,0:0:0:0:
132,276,148900,1,8,0:0:0:0:
108,320,148975,1,0,0:0:0:0:
108,372,149050,5,12,0:0:0:0:
156,352,149125,1,0,0:0:0:0:
184,308,149200,1,8,0:0:0:0:
192,256,149275,1,0,0:0:0:0:
176,208,149350,1,8,0:0:0:0:
140,168,149425,1,0,0:0:0:0:
124,116,149500,1,8,0:0:0:0:
132,64,149575,1,0,0:0:0:0:
168,28,149650,1,8,0:0:0:0:
220,16,149725,1,0,0:0:0:0:
272,20,149800,1,8,0:0:0:0:
316,48,149875,1,0,0:0:0:0:
336,96,149950,1,8,0:0:0:0:
328,148,150025,1,0,0:0:0:0:
300,192,150100,1,8,0:0:0:0:
272,236,150175,1,0,0:0:0:0:
276,288,150250,5,8,0:0:0:0:
320,260,150325,1,0,0:0:0:0:
344,212,150400,1,8,0:0:0:0:
332,160,150475,1,0,0:0:0:0:
296,124,150550,1,8,0:0:0:0:
244,116,150625,1,0,0:0:0:0:
196,136,150700,1,8,0:0:0:0:
172,184,150775,1,0,0:0:0:0:
180,236,150850,5,8,0:0:0:0:
228,216,150925,1,0,0:0:0:0:
252,168,151000,1,8,0:0:0:0:
244,116,151075,1,0,0:0:0:0:
208,80,151150,1,8,0:0:0:0:
156,68,151225,1,0,0:0:0:0:
108,92,151300,1,8,0:0:0:0:
84,136,151375,1,0,0:0:0:0:
88,188,151450,6,0,L|76:248,3,57.5,12|0|0|0,0:0|0:0|0:0|0:0,0:0:0:0:
180,236,151750,2,0,L|192:296,3,57.5,8|0|0|0,0:0|0:0|0:0|0:0,0:0:0:0:
276,188,152050,2,0,L|287:131,3,57.5,8|0|0|0,0:0|0:0|0:0|0:0,0:0:0:0:
372,240,152350,2,0,L|360:300,3,57.5,8|0|0|0,0:0|0:0|0:0|0:0,0:0:0:0:
276,336,152650,5,8,0:0:0:0:
228,356,152725,1,0,0:0:0:0:
176,356,152800,1,0,0:0:0:0:
128,336,152875,1,0,0:0:0:0:
96,296,152950,1,8,0:0:0:0:
80,248,153025,1,0,0:0:0:0:
88,196,153100,1,0,0:0:0:0:
116,152,153175,1,0,0:0:0:0:
160,128,153250,5,8,0:0:0:0:
188,172,153325,1,0,0:0:0:0:
216,216,153400,1,0,0:0:0:0:
244,260,153475,1,0,0:0:0:0:
272,304,153550,5,8,0:0:0:0:
300,260,153625,1,0,0:0:0:0:
328,216,153700,1,0,0:0:0:0:
356,172,153775,1,0,0:0:0:0:
384,128,153850,5,12,0:0:0:0:
424,148,153925,1,0,0:0:0:0:
452,184,154000,1,0,0:0:0:0:
460,228,154075,1,0,0:0:0:0:
452,272,154150,1,8,0:0:0:0:
424,308,154225,1,0,0:0:0:0:
384,328,154300,5,0,0:0:0:0:
372,296,154375,1,0,0:0:0:0:
360,264,154450,1,8,0:0:0:0:
348,232,154525,1,0,0:0:0:0:
336,200,154600,1,0,0:0:0:0:
324,168,154675,1,0,0:0:0:0:
312,136,154750,5,8,0:0:0:0:
300,160,154825,1,0,0:0:0:0:
288,188,154900,1,0,0:0:0:0:
276,216,154975,1,0,0:0:0:0:
264,244,155050,2,0,L|288:308,3,57.5,8|0|0|0,0:0|0:0|0:0|0:0,0:0:0:0:
216,128,155350,2,0,L|192:192,3,57.5,8|0|0|0,0:0|0:0|0:0|0:0,0:0:0:0:
300,60,155650,5,8,0:0:0:0:
280,48,155725,1,8,0:0:0:0:
260,40,155800,1,8,0:0:0:0:
236,36,155875,1,8,0:0:0:0:
212,36,155950,1,8,0:0:0:0:
188,40,156025,1,8,0:0:0:0:
168,48,156100,1,8,0:0:0:0:
148,60,156175,1,8,0:0:0:0:
132,76,156250,5,12,0:0:0:0:
182,102,156325,1,0,0:0:0:0:
211,150,156400,1,8,0:0:0:0:
210,207,156475,1,0,0:0:0:0:
179,255,156550,1,8,0:0:0:0:
128,279,156625,1,0,0:0:0:0:
72,272,156700,5,8,0:0:0:0:
104,224,156775,1,0,0:0:0:0:
156,200,156850,1,8,0:0:0:0:
210,207,156925,1,0,0:0:0:0:
260,240,157000,1,8,0:0:0:0:
292,288,157075,1,0,0:0:0:0:
340,320,157150,1,8,0:0:0:0:
396,332,157225,1,0,0:0:0:0:
452,320,157300,1,8,0:0:0:0:
496,280,157375,1,0,0:0:0:0:
512,224,157450,5,8,0:0:0:0:
468,232,157525,1,0,0:0:0:0:
424,240,157600,1,8,0:0:0:0:
380,248,157675,1,0,0:0:0:0:
336,256,157750,1,8,0:0:0:0:
292,264,157825,1,0,0:0:0:0:
248,272,157900,1,8,0:0:0:0:
204,280,157975,1,0,0:0:0:0:
160,288,158050,6,0,L|92:280,3,57.5,8|0|0|0,0:0|0:0|0:0|0:0,0:0:0:0:
56,184,158350,2,0,L|124:192,3,57.5,8|0|0|0,0:0|0:0|0:0|0:0,0:0:0:0:
72,76,158650,5,12,0:0:0:0:
116,80,158725,1,0,0:0:0:0:
160,84,158800,1,8,0:0:0:0:
204,88,158875,1,0,0:0:0:0:
248,92,158950,1,8,0:0:0:0:
292,96,159025,1,0,0:0:0:0:
336,100,159100,5,8,0:0:0:0:
304,64,159175,1,0,0:0:0:0:
260,48,159250,1,8,0:0:0:0:
216,52,159325,1,0,0:0:0:0:
176,76,159400,1,8,0:0:0:0:
160,120,159475,1,0,0:0:0:0:
160,168,159550,5,8,0:0:0:0:
200,148,159625,1,0,0:0:0:0:
244,148,159700,1,8,0:0:0:0:
284,168,159775,1,0,0:0:0:0:
316,200,159850,1,8,0:0:0:0:
324,244,159925,1,0,0:0:0:0:
316,288,160000,1,8,0:0:0:0:
292,328,160075,1,0,0:0:0:0:
252,348,160150,1,8,0:0:0:0:
208,348,160225,1,0,0:0:0:0:
164,336,160300,1,8,0:0:0:0:
132,304,160375,1,0,0:0:0:0:
116,260,160450,6,0,L|52:288,3,57.5,8|0|0|0,0:0|0:0|0:0|0:0,0:0:0:0:
220,220,160750,2,0,L|284:248,3,57.5,8|0|0|0,0:0|0:0|0:0|0:0,0:0:0:0:
320,160,161050,1,12,0:0:0:0:
364,176,161125,1,0,0:0:0:0:
408,176,161200,1,0,0:0:0:0:
448,152,161275,1,0,0:0:0:0:
472,112,161350,1,8,0:0:0:0:
468,68,161425,1,0,0:0:0:0:
444,28,161500,1,0,0:0:0:0:
404,4,161575,1,0,0:0:0:0:
360,0,161650,5,8,0:0:0:0:
316,16,161725,1,0,0:0:0:0:
272,32,161800,1,0,0:0:0:0:
228,48,161875,1,0,0:0:0:0:
184,64,161950,1,8,0:0:0:0:
140,80,162025,1,0,0:0:0:0:
96,96,162100,1,0,0:0:0:0:
52,112,162175,1,0,0:0:0:0:
8,128,162250,5,8,0:0:0:0:
40,164,162325,1,0,0:0:0:0:
80,184,162400,1,0,0:0:0:0:
124,192,162475,1,0,0:0:0:0:
168,192,162550,1,8,0:0:0:0:
212,176,162625,1,0,0:0:0:0:
252,152,162700,1,0,0:0:0:0:
296,140,162775,1,0,0:0:0:0:
340,144,162850,6,0,L|404:156,3,57.5,8|0|0|0,0:0|0:0|0:0|0:0,0:0:0:0:
416,260,163150,2,0,L|480:272,3,57.5,8|0|0|0,0:0|0:0|0:0|0:0,0:0:0:0:
288,276,163450,5,12,0:0:0:0:
296,212,163525,1,8,0:0:0:0:
272,152,163600,1,8,0:0:0:0:
220,116,163675,1,8,0:0:0:0:
188,108,163750,1,0,0:0:0:0:
152,108,163825,1,0,0:0:0:0:
120,124,163900,1,0,0:0:0:0:
96,148,163975,1,0,0:0:0:0:
124,220,164050,5,12,0:0:0:0:
184,236,164125,1,8,0:0:0:0:
244,212,164200,1,8,0:0:0:0:
272,152,164275,1,8,0:0:0:0:
268,88,164350,1,0,0:0:0:0:
248,60,164425,1,0,0:0:0:0:
216,44,164500,1,0,0:0:0:0:
184,36,164575,1,0,0:0:0:0:
120,84,164650,5,12,0:0:0:0:
148,140,164725,1,8,0:0:0:0:
204,172,164800,1,8,0:0:0:0:
268,172,164875,1,8,0:0:0:0:
320,136,164950,1,8,0:0:0:0:
344,80,165025,1,8,0:0:0:0:
392,40,165100,1,8,0:0:0:0:
456,36,165175,1,8,0:0:0:0:
512,68,165250,5,12,0:0:0:0:
468,76,165325,1,0,0:0:0:0:
432,104,165400,1,8,0:0:0:0:
408,144,165475,1,0,0:0:0:0:
396,188,165550,1,8,0:0:0:0:
400,232,165625,1,0,0:0:0:0:
412,276,165700,1,8,0:0:0:0:
444,308,165775,1,0,0:0:0:0:
484,332,165850,5,12,0:0:0:0:
480,280,165925,1,0,0:0:0:0:
444,244,166000,1,8,0:0:0:0:
396,236,166075,1,0,0:0:0:0:
348,256,166150,1,8,0:0:0:0:
312,292,166225,1,0,0:0:0:0:
268,320,166300,1,8,0:0:0:0:
216,316,166375,1,0,0:0:0:0:
172,288,166450,1,8,0:0:0:0:
152,240,166525,1,0,0:0:0:0:
164,188,166600,1,8,0:0:0:0:
204,152,166675,1,0,0:0:0:0:
256,144,166750,1,8,0:0:0:0:
308,152,166825,1,0,0:0:0:0:
356,128,166900,1,8,0:0:0:0:
380,84,166975,1,0,0:0:0:0:
384,32,167050,5,8,0:0:0:0:
332,40,167125,1,0,0:0:0:0:
288,68,167200,1,8,0:0:0:0:
268,116,167275,1,0,0:0:0:0:
268,168,167350,1,8,0:0:0:0:
288,216,167425,1,0,0:0:0:0:
328,252,167500,1,8,0:0:0:0:
380,264,167575,1,0,0:0:0:0:
432,252,167650,6,0,L|496:216,3,57.5,8|0|0|0,0:0|0:0|0:0|0:0,0:0:0:0:
428,136,167950,2,0,L|364:100,3,57.5,8|0|0|0,0:0|0:0|0:0|0:0,0:0:0:0:
324,196,168250,5,12,0:0:0:0:
280,168,168325,1,0,0:0:0:0:
236,140,168400,1,8,0:0:0:0:
192,112,168475,1,0,0:0:0:0:
148,84,168550,1,8,0:0:0:0:
104,56,168625,1,0,0:0:0:0:
60,28,168700,5,8,0:0:0:0:
48,80,168775,1,0,0:0:0:0:
64,128,168850,1,8,0:0:0:0:
96,168,168925,1,0,0:0:0:0:
144,184,169000,1,8,0:0:0:0:
196,180,169075,1,0,0:0:0:0:
240,152,169150,1,8,0:0:0:0:
288,136,169225,1,0,0:0:0:0:
340,136,169300,1,8,0:0:0:0:
388,156,169375,1,0,0:0:0:0:
424,196,169450,5,8,0:0:0:0:
440,244,169525,1,0,0:0:0:0:
436,296,169600,1,8,0:0:0:0:
412,344,169675,1,0,0:0:0:0:
372,380,169750,1,8,0:0:0:0:
324,360,169825,1,0,0:0:0:0:
276,340,169900,1,8,0:0:0:0:
228,320,169975,1,0,0:0:0:0:
180,300,170050,6,0,L|116:328,3,57.5,8|0|0|0,0:0|0:0|0:0|0:0,0:0:0:0:
72,248,170350,2,0,L|8:220,3,57.5,8|0|0|0,0:0|0:0|0:0|0:0,0:0:0:0:
180,204,170650,5,12,0:0:0:0:
228,224,170725,1,0,0:0:0:0:
276,244,170800,1,0,0:0:0:0:
324,264,170875,1,0,0:0:0:0:
372,284,170950,1,8,0:0:0:0:
420,304,171025,1,0,0:0:0:0:
468,324,171100,5,0,0:0:0:0:
432,364,171175,1,0,0:0:0:0:
380,372,171250,1,8,0:0:0:0:
332,356,171325,1,0,0:0:0:0:
304,312,171400,1,0,0:0:0:0:
304,260,171475,1,0,0:0:0:0:
304,208,171550,1,8,0:0:0:0:
304,156,171625,1,0,0:0:0:0:
304,104,171700,1,0,0:0:0:0:
304,52,171775,1,0,0:0:0:0:
304,0,171850,5,8,0:0:0:0:
336,40,171925,1,0,0:0:0:0:
344,92,172000,1,0,0:0:0:0:
324,140,172075,1,0,0:0:0:0:
280,168,172150,1,8,0:0:0:0:
228,172,172225,1,0,0:0:0:0:
184,144,172300,1,0,0:0:0:0:
156,100,172375,1,0,0:0:0:0:
152,48,172450,6,0,L|224:56,3,57.5,8|0|0|0,0:0|0:0|0:0|0:0,0:0:0:0:
280,168,172750,2,0,L|352:160,3,57.5,8|0|0|0,0:0|0:0|0:0|0:0,0:0:0:0:
196,268,173050,5,12,0:0:0:0:
228,308,173125,1,0,0:0:0:0:
276,324,173200,1,0,0:0:0:0:
328,316,173275,1,0,0:0:0:0:
368,284,173350,1,8,0:0:0:0:
388,236,173425,1,0,0:0:0:0:
412,188,173500,1,0,0:0:0:0:
456,164,173575,1,0,0:0:0:0:
508,168,173650,5,8,0:0:0:0:
498,212,173725,1,0,0:0:0:0:
471,249,173800,1,0,0:0:0:0:
428,266,173875,1,0,0:0:0:0:
382,261,173950,1,8,0:0:0:0:
341,238,174025,1,0,0:0:0:0:
316,199,174100,1,0,0:0:0:0:
312,152,174175,1,0,0:0:0:0:
322,107,174250,5,8,0:0:0:0:
282,130,174325,1,0,0:0:0:0:
236,135,174400,1,0,0:0:0:0:
190,125,174475,1,0,0:0:0:0:
152,97,174550,1,8,0:0:0:0:
110,76,174625,1,0,0:0:0:0:
64,77,174700,1,0,0:0:0:0:
27,104,174775,1,0,0:0:0:0:
11,147,174850,6,0,L|19:219,3,57.5,8|0|0|0,0:0|0:0|0:0|0:0,0:0:0:0:
132,320,175150,2,0,L|140:392,3,57.5,8|0|0|0,0:0|0:0|0:0|0:0,0:0:0:0:
36,300,175450,5,12,0:0:0:0:
60,252,175525,1,0,0:0:0:0:
104,228,175600,1,8,0:0:0:0:
156,228,175675,1,0,0:0:0:0:
204,244,175750,1,8,0:0:0:0:
240,284,175825,1,0,0:0:0:0:
284,312,175900,1,8,0:0:0:0:
336,316,175975,1,0,0:0:0:0:
384,300,176050,1,8,0:0:0:0:
416,260,176125,1,0,0:0:0:0:
424,208,176200,1,8,0:0:0:0:
412,156,176275,1,0,0:0:0:0:
376,116,176350,1,8,0:0:0:0:
328,100,176425,1,0,0:0:0:0:
276,112,176500,1,8,0:0:0:0:
240,148,176575,1,0,0:0:0:0:
192,172,176650,5,8,0:0:0:0:
140,172,176725,1,0,0:0:0:0:
92,156,176800,1,8,0:0:0:0:
52,124,176875,1,0,0:0:0:0:
36,76,176950,5,8,0:0:0:0:
88,80,177025,1,0,0:0:0:0:
140,84,177100,1,8,0:0:0:0:
192,88,177175,1,0,0:0:0:0:
244,92,177250,6,0,L|312:96,3,57.5,8|0|0|0,0:0|0:0|0:0|0:0,0:0:0:0:
320,192,177550,2,0,L|388:196,3,57.5,8|0|0|0,0:0|0:0|0:0|0:0,0:0:0:0:
452,100,177850,5,12,0:0:0:0:
488,136,177925,1,0,0:0:0:0:
500,188,178000,1,8,0:0:0:0:
496,240,178075,1,0,0:0:0:0:
476,288,178150,1,8,0:0:0:0:
436,320,178225,1,0,0:0:0:0:
384,332,178300,5,8,0:0:0:0:
352,292,178375,1,0,0:0:0:0:
324,248,178450,1,8,0:0:0:0:
296,204,178525,1,0,0:0:0:0:
268,160,178600,1,8,0:0:0:0:
240,116,178675,1,0,0:0:0:0:
212,72,178750,1,8,0:0:0:0:
160,68,178825,1,0,0:0:0:0:
108,80,178900,1,8,0:0:0:0:
68,112,178975,1,0,0:0:0:0:
44,156,179050,5,8,0:0:0:0:
88,184,179125,1,0,0:0:0:0:
136,200,179200,1,8,0:0:0:0:
188,204,179275,1,0,0:0:0:0:
240,192,179350,1,8,0:0:0:0:
288,172,179425,1,0,0:0:0:0:
328,140,179500,1,8,0:0:0:0:
356,96,179575,1,0,0:0:0:0:
364,44,179650,6,0,L|306:40,3,57.5,8|0|0|0,0:0|0:0|0:0|0:0,0:0:0:0:
452,120,179950,2,0,L|509:116,3,57.5,8|0|0|0,0:0|0:0|0:0|0:0,0:0:0:0:
396,216,180250,5,12,0:0:0:0:
360,220,180325,1,0,0:0:0:0:
324,224,180400,1,0,0:0:0:0:
288,228,180475,1,0,0:0:0:0:
252,232,180550,1,8,0:0:0:0:
216,236,180625,1,0,0:0:0:0:
180,240,180700,1,0,0:0:0:0:
144,244,180775,1,0,0:0:0:0:
108,248,180850,5,8,0:0:0:0:
136,216,180925,1,0,0:0:0:0:
164,188,181000,1,0,0:0:0:0:
192,160,181075,1,0,0:0:0:0:
220,132,181150,1,8,0:0:0:0:
248,104,181225,1,0,0:0:0:0:
276,76,181300,1,0,0:0:0:0:
304,48,181375,1,0,0:0:0:0:
332,20,181450,5,8,0:0:0:0:
336,64,181525,1,0,0:0:0:0:
328,108,181600,1,0,0:0:0:0:
300,144,181675,1,0,0:0:0:0:
256,164,181750,1,8,0:0:0:0:
212,164,181825,1,0,0:0:0:0:
168,152,181900,1,0,0:0:0:0:
132,124,181975,1,0,0:0:0:0:
112,84,182050,5,8,0:0:0:0:
164,84,182125,1,0,0:0:0:0:
212,104,182200,1,0,0:0:0:0:
240,148,182275,1,0,0:0:0:0:
240,200,182350,1,8,0:0:0:0:
224,248,182425,1,0,0:0:0:0:
184,280,182500,1,0,0:0:0:0:
132,292,182575,1,0,0:0:0:0:
144,216,182650,5,12,0:0:0:0:
192,268,182725,1,8,0:0:0:0:
256,296,182800,1,8,0:0:0:0:
324,304,182875,1,8,0:0:0:0:
392,288,182950,1,8,0:0:0:0:
444,240,183025,1,8,0:0:0:0:
476,180,183100,1,8,0:0:0:0:
480,112,183175,1,8,0:0:0:0:
460,48,183250,5,8,0:0:0:0:
388,68,183325,1,8,0:0:0:0:
316,88,183400,1,8,0:0:0:0:
244,108,183475,1,8,0:0:0:0:
172,124,183550,1,8,0:0:0:0:
200,144,183625,1,0,0:0:0:0:
228,164,183700,1,0,0:0:0:0:
256,184,183775,1,0,0:0:0:0:
336,180,183850,5,12,0:0:0:0:
320,100,183925,1,8,0:0:0:0:
256,52,184000,1,8,0:0:0:0:
176,56,184075,1,8,0:0:0:0:
120,116,184150,1,8,0:0:0:0:
148,136,184225,1,0,0:0:0:0:
176,156,184300,1,0,0:0:0:0:
204,176,184375,1,0,0:0:0:0:
232,196,184450,5,8,0:0:0:0:
212,208,184525,1,0,0:0:0:0:
192,216,184600,1,0,0:0:0:0:
172,224,184675,1,0,0:0:0:0:
152,232,184750,5,8,0:0:0:0:
168,240,184825,1,0,0:0:0:0:
184,248,184900,1,0,0:0:0:0:
200,256,184975,1,0,0:0:0:0:
216,264,185050,5,8,0:0:0:0:
296,264,186250,1,0,0:0:0:0:
216,184,187450,5,0,0:0:0:0:
296,184,188650,1,0,0:0:0:0:
216,104,189850,5,0,0:0:0:0:
296,104,191050,1,0,0:0:0:0:
216,24,192250,5,0,0:0:0:0:
296,24,193450,1,0,0:0:0:0:
256,96,195250,5,0,0:0:0:0:
256,288,195550,1,0,0:0:0:0:
256,288,195850,6,0,B|348:312|424:256|424:256|396:240|384:216,1,230,4|0,0:0|0:0,0:0:0:0:
336,104,196250,1,0,0:0:0:0:
288,128,196350,1,0,0:0:0:0:
240,152,196450,2,0,B|196:172|164:172|164:172|152:220|164:264,1,172.5
84,280,196750,2,0,P|76:204|100:108,1,172.5
148,88,197050,5,4,0:0:0:0:
196,64,197150,1,0,0:0:0:0:
244,40,197250,1,0,0:0:0:0:
292,16,197350,1,0,0:0:0:0:
484,88,197650,6,0,P|496:144|480:208,1,76.6666666666667
476,288,197850,1,0,0:0:0:0:
372,284,197950,2,0,P|360:324|367:388,2,76.6666666666667
376,204,198250,6,0,P|358:170|326:145,1,76.6666666666667,4|0,0:0|0:0,0:0:0:0:
248,120,198450,1,0,0:0:0:0:
169,164,198550,2,0,P|124:172|80:156,1,76.6666666666667
16,128,198750,1,0,0:0:0:0:
76,48,198850,2,0,B|114:9|178:5|178:5|214:53|286:53|286:53|314:25|358:21,1,306.666666666667
476,56,199450,5,4,0:0:0:0:
464,116,199550,1,0,0:0:0:0:
452,176,199650,1,0,0:0:0:0:
392,136,199750,1,0,0:0:0:0:
380,196,199850,1,0,0:0:0:0:
368,256,199950,1,0,0:0:0:0:
324,300,200050,5,4,0:0:0:0:
264,292,200150,1,0,0:0:0:0:
232,240,200250,1,0,0:0:0:0:
304,232,200350,1,0,0:0:0:0:
276,176,200450,1,0,0:0:0:0:
252,120,200550,1,0,0:0:0:0:
228,64,200650,6,0,B|144:31|80:75|80:75|60:120|76:180,1,230,4|0,0:0|0:0,0:0:0:0:
92,224,201050,1,0,0:0:0:0:
304,232,201250,5,0,0:0:0:0:
252,244,201350,1,0,0:0:0:0:
236,296,201450,1,0,0:0:0:0:
268,340,201550,2,0,B|328:320|328:320|432:340,1,153.333333333333
480,352,201850,5,4,0:0:0:0:
480,300,201950,1,0,0:0:0:0:
480,248,202050,1,0,0:0:0:0:
480,196,202150,1,0,0:0:0:0:
480,144,202250,1,0,0:0:0:0:
480,24,202450,5,0,0:0:0:0:
464,76,202550,1,0,0:0:0:0:
420,108,202650,1,0,0:0:0:0:
368,116,202750,1,0,0:0:0:0:
316,100,202850,1,0,0:0:0:0:
284,56,202950,1,0,0:0:0:0:
336,44,203050,6,0,P|304:164|184:32,1,383.333333333333,4|0,0:0|0:0,0:0:0:0:
232,56,203650,1,0,0:0:0:0:
200,100,203750,1,0,0:0:0:0:
148,116,203850,1,0,0:0:0:0:
96,104,203950,1,0,0:0:0:0:
96,104,204250,5,4,0:0:0:0:
64,144,204350,1,0,0:0:0:0:
56,196,204450,1,0,0:0:0:0:
72,248,204550,1,0,0:0:0:0:
112,284,204650,1,0,0:0:0:0:
164,296,204750,1,0,0:0:0:0:
216,284,204850,5,4,0:0:0:0:
276,236,204950,1,0,0:0:0:0:
260,184,205050,1,0,0:0:0:0:
188,164,205150,1,0,0:0:0:0:
172,112,205250,1,0,0:0:0:0:
228,68,205350,1,0,0:0:0:0:
214,16,205450,6,0,B|257:31|305:23|305:23|320:80|372:64|396:124,1,230,4|0,0:0|0:0,0:0:0:0:
416,172,205850,1,0,0:0:0:0:
448,272,206050,1,0,0:0:0:0:
494,234,206150,1,0,0:0:0:0:
512,174,206250,1,0,0:0:0:0:
494,117,206350,1,0,0:0:0:0:
446,77,206450,1,0,0:0:0:0:
320,68,206650,5,4,0:0:0:0:
304,128,206750,1,0,0:0:0:0:
288,188,206850,1,0,0:0:0:0:
272,248,206950,1,0,0:0:0:0:
272,248,207250,5,0,0:0:0:0:
248,192,207350,1,0,0:0:0:0:
192,164,207450,1,0,0:0:0:0:
132,172,207550,1,0,0:0:0:0:
88,212,207650,1,0,0:0:0:0:
80,272,207750,1,0,0:0:0:0:
104,328,207850,6,0,B|144:352|184:336|184:336|256:292|348:348,1,230,4|0,0:0|0:0,0:0:0:0:
496,216,208350,1,0,0:0:0:0:
496,216,208450,2,0,B|456:192|416:208|416:208|344:252|252:196,1,230,4|0,0:0|0:0,0:0:0:0:
100,152,209050,5,4,0:0:0:0:
160,144,209150,1,0,0:0:0:0:
220,136,209250,1,0,0:0:0:0:
260,196,209350,1,0,0:0:0:0:
320,188,209450,1,0,0:0:0:0:
380,176,209550,1,0,0:0:0:0:
452,164,209650,5,4,0:0:0:0:
468,224,209750,1,0,0:0:0:0:
480,284,209850,1,0,0:0:0:0:
492,356,209950,1,0,0:0:0:0:
452,312,210050,1,0,0:0:0:0:
392,300,210150,1,0,0:0:0:0:
344,328,210250,6,0,P|386:311|296:232,1,230,4|0,0:0|0:0,0:0:0:0:
123,327,210750,1,0,0:0:0:0:
123,327,210850,2,0,B|239:295|239:295|355:331,1,230
396,260,211450,6,0,L|323:238,2,76.6666666666667,4|0|0,0:0|0:0|0:0,0:0:0:0:
428,168,211750,2,0,L|502:146,2,76.6666666666667
396,76,212050,2,0,L|323:54,1,76.6666666666667
224,28,212250,1,0,0:0:0:0:
180,136,212350,2,0,L|107:159,1,76.6666666666667
16,192,212550,1,0,0:0:0:0:
72,292,212650,6,0,L|156:264,1,76.6666666666667,4|0,0:0|0:0,0:0:0:0:
232,232,212850,1,0,0:0:0:0:
359,180,212950,2,0,P|396:169|433:176,1,76.6666666666667
512,244,213150,1,0,0:0:0:0:
436,352,213250,2,0,P|399:362|362:355,1,76.6666666666667
284,288,213450,1,0,0:0:0:0:
224,168,213550,2,0,P|224:97|280:36,1,153.333333333333
336,40,213850,5,4,0:0:0:0:
383,78,213950,1,0,0:0:0:0:
383,137,214050,1,0,0:0:0:0:
337,175,214150,1,4,0:0:0:0:
279,163,214250,1,0,0:0:0:0:
251,111,214350,1,0,0:0:0:0:
275,56,214450,5,4,0:0:0:0:
202,37,214550,1,0,0:0:0:0:
147,82,214650,1,0,0:0:0:0:
147,151,214750,1,4,0:0:0:0:
201,196,214850,1,0,0:0:0:0:
269,182,214950,1,0,0:0:0:0:
300,120,215050,5,4,0:0:0:0:
360,280,215350,1,4,0:0:0:0:
152,280,217750,5,4,0:0:0:0:
360,280,218650,5,4,0:0:0:0:
360,280,218800,1,4,0:0:0:0:
152,280,220150,5,4,0:0:0:0:
360,280,220750,5,4,0:0:0:0:
152,280,221050,1,4,0:0:0:0:
360,280,222250,5,0,0:0:0:0:
360,280,222400,1,0,0:0:0:0:
152,280,222850,5,0,0:0:0:0:
152,280,223000,1,0,0:0:0:0:
256,136,223750,5,0,0:0:0:0:
256,340,224050,1,0,0:0:0:0:
332,296,224650,6,12,B|400:256|448:240|448:240|416:208|400:176|400:176|416:144|480:64|480:64|432:64|432:64|400:64|336:96|336:96|320:160|256:216|256:216|192:160|176:96|176:96|112:64|80:64|80:64|32:64|32:64|96:144|112:176|112:176|96:208|64:240|64:240|112:256|179:298,1,1287.99996069336
256,336,227650,5,8,0:0:0:0:
256,320,227725,1,8,0:0:0:0:
256,304,227800,1,8,0:0:0:0:
256,288,227875,1,8,0:0:0:0:
256,272,227950,2,8,L|256:232,3,40.2499987716675
356,172,228250,2,0,L|356:212,3,40.2499987716675,8|0|0|0,0:0|0:0|0:0|0:0,0:0:0:0:
256,108,228550,2,0,L|256:148,3,40.2499987716675,8|0|0|0,0:0|0:0|0:0|0:0,0:0:0:0:
156,172,228850,2,0,L|156:212,3,40.2499987716675,8|0|0|0,0:0|0:0|0:0|0:0,0:0:0:0:
256,272,229150,5,8,0:0:0:0:
256,288,229225,1,8,0:0:0:0:
256,304,229300,1,8,0:0:0:0:
256,320,229375,1,8,0:0:0:0:
256,336,229450,2,12,B|176:304|96:304|96:304|96:240|48:192|48:192|112:144|112:64|112:64|144:80|144:80|176:192|336:192|368:80|368:80|400:64|400:64|400:144|464:192|464:192|416:240|416:304|416:304|372:312|336:336|336:336|336:292|320:256|320:256|344:236|356:212,1,1287.99996069336
256,56,232450,5,8,0:0:0:0:
256,72,232525,1,8,0:0:0:0:
256,88,232600,1,8,0:0:0:0:
256,104,232675,1,8,0:0:0:0:
256,120,232750,2,8,L|256:160,3,40.2499987716675
308,240,233050,2,0,L|340:276,3,40.2499987716675,8|0|0|0,0:0|0:0|0:0|0:0,0:0:0:0:
204,240,233350,2,0,L|172:276,3,40.2499987716675,8|0|0|0,0:0|0:0|0:0|0:0,0:0:0:0:
256,160,233650,1,8,0:0:0:0:
256,144,233725,1,8,0:0:0:0:
256,128,233800,1,8,0:0:0:0:
256,112,233875,1,8,0:0:0:0:
256,96,233950,1,8,0:0:0:0:
256,80,234025,1,8,0:0:0:0:
256,64,234100,1,8,0:0:0:0:
256,48,234175,1,8,0:0:0:0:
256,32,234250,5,12,0:0:0:0:
293,67,234325,1,0,0:0:0:0:
303,117,234400,1,0,0:0:0:0:
285,165,234475,1,0,0:0:0:0:
242,194,234550,1,8,0:0:0:0:
190,200,234625,1,0,0:0:0:0:
148,172,234700,1,0,0:0:0:0:
168,124,234775,1,0,0:0:0:0:
204,88,234850,1,8,0:0:0:0:
256,76,234925,1,0,0:0:0:0:
308,84,235000,1,0,0:0:0:0:
356,108,235075,1,0,0:0:0:0:
396,140,235150,1,8,0:0:0:0:
412,188,235225,5,0,0:0:0:0:
440,144,235300,1,0,0:0:0:0:
468,100,235375,1,0,0:0:0:0:
496,56,235450,1,8,0:0:0:0:
452,48,235525,1,0,0:0:0:0:
408,40,235600,2,0,L|324:28,1,57.5
260,200,235750,5,8,0:0:0:0:
304,192,235825,1,0,0:0:0:0:
348,184,235900,2,0,L|432:172,1,57.5
496,348,236050,5,8,0:0:0:0:
452,340,236125,1,0,0:0:0:0:
408,332,236200,2,0,L|324:320,1,57.5
156,360,236350,5,8,0:0:0:0:
164,316,236425,1,0,0:0:0:0:
172,272,236500,2,0,L|184:188,1,57.5
312,92,236650,5,12,0:0:0:0:
288,88,236725,1,0,0:0:0:0:
264,84,236800,1,0,0:0:0:0:
240,80,236875,1,0,0:0:0:0:
216,76,236950,1,8,0:0:0:0:
192,72,237025,1,0,0:0:0:0:
168,68,237100,1,0,0:0:0:0:
144,64,237175,1,0,0:0:0:0:
120,60,237250,1,8,0:0:0:0:
96,56,237325,1,0,0:0:0:0:
72,52,237400,1,0,0:0:0:0:
48,48,237475,1,0,0:0:0:0:
24,44,237550,5,8,0:0:0:0:
4,80,237625,1,0,0:0:0:0:
8,120,237700,1,0,0:0:0:0:
24,156,237775,1,0,0:0:0:0:
52,188,237850,1,8,0:0:0:0:
64,228,237925,1,0,0:0:0:0:
56,268,238000,2,0,L|36:336,1,57.5
208,356,238150,5,8,0:0:0:0:
196,316,238225,1,0,0:0:0:0:
204,276,238300,2,0,L|224:208,1,57.5
364,140,238450,5,8,0:0:0:0:
376,180,238525,1,0,0:0:0:0:
368,220,238600,2,0,L|348:288,1,57.5
228,192,238750,5,8,0:0:0:0:
188,204,238825,1,0,0:0:0:0:
148,196,238900,2,0,L|80:176,1,57.5
176,64,239050,5,12,0:0:0:0:
216,48,239125,1,0,0:0:0:0:
259,41,239200,1,0,0:0:0:0:
302,41,239275,1,0,0:0:0:0:
344,48,239350,1,8,0:0:0:0:
385,63,239425,1,0,0:0:0:0:
422,85,239500,1,0,0:0:0:0:
452,116,239575,1,0,0:0:0:0:
473,153,239650,5,8,0:0:0:0:
454,190,239725,1,0,0:0:0:0:
423,220,239800,1,0,0:0:0:0:
386,243,239875,1,0,0:0:0:0:
347,259,239950,1,8,0:0:0:0:
304,272,240025,1,0,0:0:0:0:
262,276,240100,1,0,0:0:0:0:
219,276,240175,1,0,0:0:0:0:
176,270,240250,5,8,0:0:0:0:
180,224,240325,1,0,0:0:0:0:
193,178,240400,1,0,0:0:0:0:
215,136,240475,1,0,0:0:0:0:
246,99,240550,1,8,0:0:0:0:
284,70,240625,1,0,0:0:0:0:
327,49,240700,1,0,0:0:0:0:
373,38,240775,1,0,0:0:0:0:
420,40,240850,5,8,0:0:0:0:
396,80,240925,1,0,0:0:0:0:
384,124,241000,1,0,0:0:0:0:
380,168,241075,1,0,0:0:0:0:
388,212,241150,2,0,P|400:240|416:264,1,57.5,8|0,0:0|0:0,0:0:0:0:
328,356,241300,2,0,P|316:328|300:304,1,57.5,8|0,0:0|0:0,0:0:0:0:
368,204,241450,5,12,0:0:0:0:
332,200,241525,1,0,0:0:0:0:
296,196,241600,1,0,0:0:0:0:
260,192,241675,1,0,0:0:0:0:
228,188,241750,1,8,0:0:0:0:
192,184,241825,1,0,0:0:0:0:
156,180,241900,1,0,0:0:0:0:
120,176,241975,1,0,0:0:0:0:
84,172,242050,1,8,0:0:0:0:
52,180,242125,1,0,0:0:0:0:
28,204,242200,1,0,0:0:0:0:
16,236,242275,1,0,0:0:0:0:
16,272,242350,5,8,0:0:0:0:
56,260,242425,1,0,0:0:0:0:
84,232,242500,1,0,0:0:0:0:
100,196,242575,1,0,0:0:0:0:
100,156,242650,5,12,0:0:0:0:
136,200,242725,1,8,0:0:0:0:
192,220,242800,1,8,0:0:0:0:
248,200,242875,1,8,0:0:0:0:
272,148,242950,1,8,0:0:0:0:
260,116,243025,1,0,0:0:0:0:
248,84,243100,1,0,0:0:0:0:
236,52,243175,1,0,0:0:0:0:
224,20,243250,5,12,0:0:0:0:
209,76,243325,1,8,0:0:0:0:
222,131,243400,1,8,0:0:0:0:
264,169,243475,1,8,0:0:0:0:
320,180,243550,1,8,0:0:0:0:
372,159,243625,1,8,0:0:0:0:
405,113,243700,1,8,0:0:0:0:
408,56,243775,1,8,0:0:0:0:
380,4,243850,5,12,0:0:0:0:
352,48,243925,1,0,0:0:0:0:
324,92,244000,1,0,0:0:0:0:
296,136,244075,1,0,0:0:0:0:
268,180,244150,1,8,0:0:0:0:
240,224,244225,1,0,0:0:0:0:
212,268,244300,1,0,0:0:0:0:
168,296,244375,1,0,0:0:0:0:
116,304,244450,1,8,0:0:0:0:
68,284,244525,1,0,0:0:0:0:
28,248,244600,1,0,0:0:0:0:
20,196,244675,1,0,0:0:0:0:
32,144,244750,5,8,0:0:0:0:
76,168,244825,1,0,0:0:0:0:
128,172,244900,1,0,0:0:0:0:
176,148,244975,1,0,0:0:0:0:
200,104,245050,1,8,0:0:0:0:
240,68,245125,1,0,0:0:0:0:
292,60,245200,2,0,L|364:68,1,57.5
464,176,245350,5,8,0:0:0:0:
424,212,245425,1,0,0:0:0:0:
372,220,245500,2,0,L|300:212,1,57.5
200,312,245650,5,8,0:0:0:0:
240,348,245725,1,0,0:0:0:0:
292,356,245800,2,0,L|364:348,1,57.5
504,208,245950,5,8,0:0:0:0:
464,176,246025,1,0,0:0:0:0:
412,168,246100,2,0,L|340:176,1,57.5
172,228,246250,5,12,0:0:0:0:
164,182,246325,1,0,0:0:0:0:
173,137,246400,1,0,0:0:0:0:
198,97,246475,1,0,0:0:0:0:
235,69,246550,1,8,0:0:0:0:
280,56,246625,1,0,0:0:0:0:
327,61,246700,1,0,0:0:0:0:
368,82,246775,1,0,0:0:0:0:
400,116,246850,1,8,0:0:0:0:
416,160,246925,1,0,0:0:0:0:
416,207,247000,1,0,0:0:0:0:
399,250,247075,1,0,0:0:0:0:
372,288,247150,2,0,L|312:284,3,57.5,8|0|0|0,0:0|0:0|0:0|0:0,0:0:0:0:
316,168,247450,5,8,0:0:0:0:
272,176,247525,1,0,0:0:0:0:
228,184,247600,2,0,L|156:196,1,57.5
36,316,247750,5,8,0:0:0:0:
80,324,247825,1,0,0:0:0:0:
124,332,247900,2,0,L|196:344,1,57.5
324,212,248050,5,8,0:0:0:0:
316,168,248125,1,0,0:0:0:0:
308,124,248200,2,0,L|296:52,1,57.5
116,12,248350,5,8,0:0:0:0:
108,56,248425,1,0,0:0:0:0:
100,100,248500,2,0,L|88:172,1,57.5
8,300,248650,5,12,0:0:0:0:
52,296,248725,1,0,0:0:0:0:
96,292,248800,1,0,0:0:0:0:
140,288,248875,1,0,0:0:0:0:
184,284,248950,1,8,0:0:0:0:
228,280,249025,1,0,0:0:0:0:
272,276,249100,1,0,0:0:0:0:
316,272,249175,1,0,0:0:0:0:
360,268,249250,1,8,0:0:0:0:
398,226,249325,1,0,0:0:0:0:
409,170,249400,1,0,0:0:0:0:
388,117,249475,1,0,0:0:0:0:
343,83,249550,1,8,0:0:0:0:
287,77,249625,1,0,0:0:0:0:
236,101,249700,1,0,0:0:0:0:
204,148,249775,1,0,0:0:0:0:
202,205,249850,5,8,0:0:0:0:
239,227,249925,1,0,0:0:0:0:
281,226,250000,1,0,0:0:0:0:
318,204,250075,1,0,0:0:0:0:
337,166,250150,1,8,0:0:0:0:
334,124,250225,1,0,0:0:0:0:
309,89,250300,1,0,0:0:0:0:
270,72,250375,1,0,0:0:0:0:
228,77,250450,2,0,P|192:76|156:56,7,57.5,8|0|0|0|8|0|0|0,0:0|0:0|0:0|0:0|0:0|0:0|0:0|0:0,0:0:0:0:
311,42,251050,5,12,0:0:0:0:
345,31,251125,1,0,0:0:0:0:
382,31,251200,1,0,0:0:0:0:
417,42,251275,1,0,0:0:0:0:
447,64,251350,1,0,0:0:0:0:
468,94,251425,1,0,0:0:0:0:
480,128,251500,1,8,0:0:0:0:
480,164,251575,1,0,0:0:0:0:
467,199,251650,1,0,0:0:0:0:
446,228,251725,1,0,0:0:0:0:
416,249,251800,1,0,0:0:0:0:
382,261,251875,1,0,0:0:0:0:
345,259,251950,1,8,0:0:0:0:
310,248,252025,1,0,0:0:0:0:
281,226,252100,1,0,0:0:0:0:
260,195,252175,1,0,0:0:0:0:
272,180,252250,5,0,0:0:0:0:
289,174,252325,1,0,0:0:0:0:
307,174,252400,1,8,0:0:0:0:
325,180,252475,1,0,0:0:0:0:
340,191,252550,1,0,0:0:0:0:
350,206,252625,1,0,0:0:0:0:
356,223,252700,1,0,0:0:0:0:
356,241,252775,1,0,0:0:0:0:
350,258,252850,1,8,0:0:0:0:
339,273,252925,1,0,0:0:0:0:
324,283,253000,1,0,0:0:0:0:
307,289,253075,1,0,0:0:0:0:
289,289,253150,1,8,0:0:0:0:
271,283,253225,1,0,0:0:0:0:
257,272,253300,1,0,0:0:0:0:
246,256,253375,1,0,0:0:0:0:
256,248,253450,5,12,0:0:0:0:
266,241,253525,1,0,0:0:0:0:
276,236,253600,1,0,0:0:0:0:
287,234,253675,1,0,0:0:0:0:
298,233,253750,1,0,0:0:0:0:
310,235,253825,1,0,0:0:0:0:
320,239,253900,1,8,0:0:0:0:
330,246,253975,1,0,0:0:0:0:
338,254,254050,1,0,0:0:0:0:
344,264,254125,1,0,0:0:0:0:
348,275,254200,1,0,0:0:0:0:
349,286,254275,1,0,0:0:0:0:
348,297,254350,1,8,0:0:0:0:
345,308,254425,1,0,0:0:0:0:
339,318,254500,1,0,0:0:0:0:
332,327,254575,1,0,0:0:0:0:
324,332,254650,1,0,0:0:0:0:
315,331,254725,1,0,0:0:0:0:
307,330,254800,1,8,0:0:0:0:
299,330,254875,1,0,0:0:0:0:
291,329,254950,1,0,0:0:0:0:
283,329,255025,1,0,0:0:0:0:
274,328,255100,1,0,0:0:0:0:
266,328,255175,1,0,0:0:0:0:
236,324,255250,5,8,0:0:0:0:
200,309,255325,1,8,0:0:0:0:
172,281,255400,1,8,0:0:0:0:
148,249,255475,1,8,0:0:0:0:
132,213,255550,1,8,0:0:0:0:
124,173,255625,1,8,0:0:0:0:
124,133,255700,1,8,0:0:0:0:
132,93,255775,1,8,0:0:0:0:
148,56,255850,6,0,P|168:28|212:8,4,57.5,12|0|0|0|0,0:0|0:0|0:0|0:0|0:0,0:0:0:0:
408,48,256300,5,0,0:0:0:0:
412,68,256375,1,0,0:0:0:0:
416,88,256450,1,0,0:0:0:0:
420,108,256525,1,0,0:0:0:0:
424,128,256600,1,0,0:0:0:0:
428,148,256675,1,0,0:0:0:0:
432,168,256750,2,0,L|424:228,3,57.5
340,288,257050,6,0,L|312:172,1,115
216,292,257350,2,0,L|236:364,2,57.5
88,192,257650,1,0,0:0:0:0:
112,188,257725,1,0,0:0:0:0:
136,184,257800,1,0,0:0:0:0:
156,180,257875,1,0,0:0:0:0:
176,176,257950,2,0,L|148:60,1,115
296,88,258250,6,0,L|316:16,2,57.5,4|0|0,0:0|0:0|0:0,0:0:0:0:
412,188,258550,1,0,0:0:0:0:
276,248,258700,1,0,0:0:0:0:
280,268,258775,1,0,0:0:0:0:
284,288,258850,1,0,0:0:0:0:
288,308,258925,1,0,0:0:0:0:
292,328,259000,2,0,L|280:384,4,57.5
444,308,259450,5,0,0:0:0:0:
440,288,259525,1,0,0:0:0:0:
436,268,259600,1,0,0:0:0:0:
432,248,259675,1,0,0:0:0:0:
428,228,259750,1,0,0:0:0:0:
424,208,259825,1,0,0:0:0:0:
420,188,259900,5,0,0:0:0:0:
399,168,259975,1,0,0:0:0:0:
373,156,260050,1,0,0:0:0:0:
344,156,260125,1,0,0:0:0:0:
317,164,260200,1,0,0:0:0:0:
291,178,260275,1,0,0:0:0:0:
264,186,260350,1,0,0:0:0:0:
235,187,260425,1,0,0:0:0:0:
208,179,260500,1,0,0:0:0:0:
185,162,260575,1,0,0:0:0:0:
169,138,260650,5,0,0:0:0:0:
52,48,260850,2,0,L|36:124,1,76.6666666666667
12,232,261050,1,0,0:0:0:0:
164,240,261250,5,0,0:0:0:0:
204,204,261350,1,0,0:0:0:0:
256,192,261450,1,0,0:0:0:0:
308,208,261550,1,0,0:0:0:0:
344,248,261650,1,0,0:0:0:0:
392,268,261750,1,0,0:0:0:0:
444,260,261850,5,4,0:0:0:0:
484,72,262050,2,0,L|392:84,1,76.6666666666667
288,100,262250,1,0,0:0:0:0:
124,36,262450,5,0,0:0:0:0:
128,96,262550,1,0,0:0:0:0:
132,156,262650,1,0,0:0:0:0:
76,192,262750,1,0,0:0:0:0:
80,252,262850,1,0,0:0:0:0:
84,312,262950,1,0,0:0:0:0:
136,344,263050,1,4,0:0:0:0:
196,332,263150,1,0,0:0:0:0:
220,276,263250,1,0,0:0:0:0:
200,220,263350,2,0,B|160:176|160:176|184:72,1,153.333333333333
128,40,263650,5,4,0:0:0:0:
108,96,263750,1,0,0:0:0:0:
92,156,263850,1,0,0:0:0:0:
76,216,263950,2,0,B|152:300|152:300|208:352|280:316,1,230,0|4,0:0|0:0,0:0:0:0:
440,312,264550,5,0,0:0:0:0:
408,264,264650,1,0,0:0:0:0:
376,216,264750,1,0,0:0:0:0:
344,168,264850,2,0,P|292:116|208:112,1,153.333333333333,4|0,0:0|0:0,0:0:0:0:
120,144,265150,5,0,0:0:0:0:
64,128,265250,1,0,0:0:0:0:
36,76,265350,1,0,0:0:0:0:
44,20,265450,5,4,0:0:0:0:
68,32,265525,1,0,0:0:0:0:
92,44,265600,1,0,0:0:0:0:
116,56,265675,1,0,0:0:0:0:
140,68,265750,2,0,L|200:44,3,57.5
244,124,266050,2,0,L|304:100,3,57.5
140,192,266350,1,0,0:0:0:0:
164,204,266425,1,0,0:0:0:0:
188,216,266500,1,0,0:0:0:0:
212,228,266575,1,0,0:0:0:0:
236,240,266650,6,0,B|300:212|300:212|348:236,1,115,4|0,0:0|0:0,0:0:0:0:
348,112,266950,1,0,0:0:0:0:
348,92,267025,1,0,0:0:0:0:
348,72,267100,2,0,L|240:16,1,115
80,40,267400,1,0,0:0:0:0:
80,60,267475,1,0,0:0:0:0:
80,80,267550,2,0,L|188:136,1,115
184,268,267850,6,0,L|132:300,5,57.5,4|0|0|0|0|0,0:0|0:0|0:0|0:0|0:0|0:0,0:0:0:0:
328,268,268300,2,0,L|380:300,3,57.5
328,180,268600,2,0,L|380:148,5,57.5
256,132,269050,5,4,0:0:0:0:
256,116,269125,1,0,0:0:0:0:
256,100,269200,1,0,0:0:0:0:
256,84,269275,1,0,0:0:0:0:
256,68,269350,1,0,0:0:0:0:
256,52,269425,1,0,0:0:0:0:
256,36,269500,5,0,0:0:0:0:
224,48,269575,1,0,0:0:0:0:
200,80,269650,1,0,0:0:0:0:
196,120,269725,1,0,0:0:0:0:
212,156,269800,1,0,0:0:0:0:
244,184,269875,1,0,0:0:0:0:
268,216,269950,1,0,0:0:0:0:
276,256,270025,1,0,0:0:0:0:
268,296,270100,1,0,0:0:0:0:
252,332,270175,1,0,0:0:0:0:
220,356,270250,5,4,0:0:0:0:
172,218,270450,2,0,P|193:170|226:148,1,76.6666666666667
328,132,270650,1,0,0:0:0:0:
256,36,270850,5,0,0:0:0:0:
227,81,270950,1,0,0:0:0:0:
222,135,271050,1,0,0:0:0:0:
234,188,271150,1,0,0:0:0:0:
269,230,271250,1,0,0:0:0:0:
281,283,271350,1,0,0:0:0:0:
270,336,271450,5,4,0:0:0:0:
112,324,271650,2,0,L|96:232,1,76.6666666666667
76,120,271850,1,0,0:0:0:0:
298,217,272050,5,0,0:0:0:0:
329,166,272150,1,0,0:0:0:0:
311,109,272250,1,0,0:0:0:0:
256,86,272350,1,0,0:0:0:0:
202,111,272450,1,0,0:0:0:0:
186,169,272550,1,0,0:0:0:0:
219,218,272650,5,4,0:0:0:0:
256,260,272750,1,0,0:0:0:0:
292,304,272850,1,0,0:0:0:0:
336,260,272950,1,0,0:0:0:0:
376,304,273050,1,0,0:0:0:0:
416,260,273150,1,0,0:0:0:0:
376,216,273250,5,4,0:0:0:0:
340,168,273350,1,0,0:0:0:0:
300,124,273450,1,0,0:0:0:0:
260,80,273550,1,0,0:0:0:0:
220,36,273650,2,0,L|132:52,1,76.6666666666667
32,184,273850,6,0,P|112:144|72:236,1,230,4|0,0:0|0:0,0:0:0:0:
32,256,274250,1,0,0:0:0:0:
44,316,274350,1,0,0:0:0:0:
88,360,274450,2,0,P|156:376|228:328,1,115,4|0,0:0|0:0,0:0:0:0:
228,208,274750,2,0,B|220:92|220:92|276:44|344:92,1,230
256,192,284650,5,12,0:0:0:0:
292,148,284725,1,0,0:0:0:0:
294,92,284800,1,8,0:0:0:0:
261,46,284875,1,0,0:0:0:0:
207,29,284950,1,8,0:0:0:0:
154,47,285025,1,0,0:0:0:0:
123,95,285100,1,8,0:0:0:0:
126,151,285175,1,0,0:0:0:0:
128,204,285250,1,8,0:0:0:0:
132,256,285325,1,0,0:0:0:0:
116,304,285400,1,8,0:0:0:0:
76,336,285475,1,0,0:0:0:0:
24,340,285550,5,8,0:0:0:0:
16,288,285625,1,0,0:0:0:0:
32,240,285700,1,8,0:0:0:0:
72,208,285775,1,0,0:0:0:0:
128,204,285850,1,8,0:0:0:0:
176,228,285925,1,0,0:0:0:0:
212,268,286000,1,8,0:0:0:0:
260,288,286075,1,0,0:0:0:0:
312,296,286150,1,8,0:0:0:0:
364,292,286225,1,0,0:0:0:0:
412,276,286300,1,8,0:0:0:0:
452,244,286375,1,0,0:0:0:0:
480,200,286450,5,8,0:0:0:0:
432,212,286525,1,0,0:0:0:0:
380,212,286600,1,8,0:0:0:0:
332,196,286675,1,0,0:0:0:0:
296,160,286750,5,8,0:0:0:0:
344,144,286825,1,0,0:0:0:0:
380,108,286900,1,8,0:0:0:0:
404,64,286975,1,0,0:0:0:0:
404,12,287050,5,12,0:0:0:0:
356,32,287125,1,0,0:0:0:0:
328,76,287200,1,8,0:0:0:0:
320,128,287275,1,0,0:0:0:0:
336,176,287350,1,8,0:0:0:0:
372,216,287425,1,0,0:0:0:0:
388,268,287500,1,8,0:0:0:0:
380,320,287575,1,0,0:0:0:0:
344,356,287650,1,8,0:0:0:0:
292,368,287725,1,0,0:0:0:0:
240,364,287800,1,8,0:0:0:0:
196,336,287875,1,0,0:0:0:0:
176,288,287950,1,8,0:0:0:0:
184,236,288025,1,0,0:0:0:0:
212,192,288100,1,8,0:0:0:0:
240,148,288175,1,0,0:0:0:0:
236,96,288250,5,8,0:0:0:0:
192,124,288325,1,0,0:0:0:0:
168,172,288400,1,8,0:0:0:0:
180,224,288475,1,0,0:0:0:0:
216,260,288550,1,8,0:0:0:0:
268,268,288625,1,0,0:0:0:0:
316,248,288700,1,8,0:0:0:0:
340,200,288775,1,0,0:0:0:0:
332,148,288850,5,8,0:0:0:0:
284,168,288925,1,0,0:0:0:0:
260,216,289000,1,8,0:0:0:0:
268,268,289075,1,0,0:0:0:0:
304,304,289150,1,8,0:0:0:0:
356,316,289225,1,0,0:0:0:0:
404,292,289300,1,8,0:0:0:0:
428,248,289375,1,0,0:0:0:0:
424,196,289450,6,0,L|436:136,3,57.5,12|0|0|0,0:0|0:0|0:0|0:0,0:0:0:0:
332,148,289750,2,0,L|320:88,3,57.5,8|0|0|0,0:0|0:0|0:0|0:0,0:0:0:0:
236,196,290050,2,0,L|225:253,3,57.5,8|0|0|0,0:0|0:0|0:0|0:0,0:0:0:0:
140,144,290350,2,0,L|152:84,3,57.5,8|0|0|0,0:0|0:0|0:0|0:0,0:0:0:0:
236,48,290650,5,8,0:0:0:0:
284,28,290725,1,0,0:0:0:0:
336,28,290800,1,0,0:0:0:0:
384,48,290875,1,0,0:0:0:0:
416,88,290950,1,8,0:0:0:0:
432,136,291025,1,0,0:0:0:0:
424,188,291100,1,0,0:0:0:0:
396,232,291175,1,0,0:0:0:0:
352,256,291250,5,8,0:0:0:0:
324,212,291325,1,0,0:0:0:0:
296,168,291400,1,0,0:0:0:0:
268,124,291475,1,0,0:0:0:0:
240,80,291550,5,8,0:0:0:0:
212,124,291625,1,0,0:0:0:0:
184,168,291700,1,0,0:0:0:0:
156,212,291775,1,0,0:0:0:0:
128,256,291850,5,12,0:0:0:0:
88,236,291925,1,0,0:0:0:0:
60,200,292000,1,0,0:0:0:0:
52,156,292075,1,0,0:0:0:0:
60,112,292150,1,8,0:0:0:0:
88,76,292225,1,0,0:0:0:0:
128,56,292300,5,0,0:0:0:0:
140,88,292375,1,0,0:0:0:0:
152,120,292450,1,8,0:0:0:0:
164,152,292525,1,0,0:0:0:0:
176,184,292600,1,0,0:0:0:0:
188,216,292675,1,0,0:0:0:0:
200,248,292750,5,8,0:0:0:0:
212,224,292825,1,0,0:0:0:0:
224,196,292900,1,0,0:0:0:0:
236,168,292975,1,0,0:0:0:0:
248,140,293050,2,0,L|224:76,3,57.5,8|0|0|0,0:0|0:0|0:0|0:0,0:0:0:0:
296,256,293350,2,0,L|320:192,3,57.5,8|0|0|0,0:0|0:0|0:0|0:0,0:0:0:0:
212,324,293650,5,8,0:0:0:0:
232,336,293725,1,8,0:0:0:0:
252,344,293800,1,8,0:0:0:0:
276,348,293875,1,8,0:0:0:0:
300,348,293950,1,8,0:0:0:0:
324,344,294025,1,8,0:0:0:0:
344,336,294100,1,8,0:0:0:0:
364,324,294175,1,8,0:0:0:0:
380,308,294250,5,12,0:0:0:0:
330,282,294325,1,0,0:0:0:0:
301,234,294400,1,8,0:0:0:0:
302,177,294475,1,0,0:0:0:0:
333,129,294550,1,8,0:0:0:0:
384,105,294625,1,0,0:0:0:0:
440,112,294700,5,8,0:0:0:0:
408,160,294775,1,0,0:0:0:0:
356,184,294850,1,8,0:0:0:0:
302,177,294925,1,0,0:0:0:0:
252,144,295000,1,8,0:0:0:0:
220,96,295075,1,0,0:0:0:0:
172,64,295150,1,8,0:0:0:0:
116,52,295225,1,0,0:0:0:0:
60,64,295300,1,8,0:0:0:0:
16,104,295375,1,0,0:0:0:0:
0,160,295450,5,8,0:0:0:0:
44,152,295525,1,0,0:0:0:0:
88,144,295600,1,8,0:0:0:0:
132,136,295675,1,0,0:0:0:0:
176,128,295750,1,8,0:0:0:0:
220,120,295825,1,0,0:0:0:0:
264,112,295900,1,8,0:0:0:0:
308,104,295975,1,0,0:0:0:0:
352,96,296050,6,0,L|420:104,3,57.5,8|0|0|0,0:0|0:0|0:0|0:0,0:0:0:0:
456,200,296350,2,0,L|388:192,3,57.5,8|0|0|0,0:0|0:0|0:0|0:0,0:0:0:0:
440,308,296650,5,12,0:0:0:0:
396,304,296725,1,0,0:0:0:0:
352,300,296800,1,8,0:0:0:0:
308,296,296875,1,0,0:0:0:0:
264,292,296950,1,8,0:0:0:0:
220,288,297025,1,0,0:0:0:0:
176,284,297100,5,8,0:0:0:0:
208,320,297175,1,0,0:0:0:0:
252,336,297250,1,8,0:0:0:0:
296,332,297325,1,0,0:0:0:0:
336,308,297400,1,8,0:0:0:0:
352,264,297475,1,0,0:0:0:0:
352,216,297550,5,8,0:0:0:0:
312,236,297625,1,0,0:0:0:0:
268,236,297700,1,8,0:0:0:0:
228,216,297775,1,0,0:0:0:0:
196,184,297850,1,8,0:0:0:0:
186,138,297925,1,0,0:0:0:0:
191,92,298000,1,8,0:0:0:0:
217,54,298075,1,0,0:0:0:0:
255,28,298150,1,8,0:0:0:0:
300,25,298225,1,0,0:0:0:0:
344,38,298300,1,8,0:0:0:0:
377,68,298375,1,0,0:0:0:0:
393,111,298450,6,0,L|457:83,3,57.5,8|0|0|0,0:0|0:0|0:0|0:0,0:0:0:0:
299,170,298750,2,0,L|235:142,3,57.5,8|0|0|0,0:0|0:0|0:0|0:0,0:0:0:0:
192,224,299050,5,12,0:0:0:0:
148,208,299125,1,0,0:0:0:0:
104,208,299200,1,0,0:0:0:0:
64,232,299275,1,0,0:0:0:0:
40,272,299350,1,8,0:0:0:0:
44,316,299425,1,0,0:0:0:0:
68,356,299500,1,0,0:0:0:0:
108,380,299575,1,0,0:0:0:0:
152,384,299650,1,8,0:0:0:0:
196,368,299725,1,0,0:0:0:0:
240,352,299800,1,0,0:0:0:0:
284,336,299875,1,0,0:0:0:0:
328,320,299950,1,8,0:0:0:0:
372,304,300025,1,0,0:0:0:0:
416,288,300100,1,0,0:0:0:0:
460,272,300175,1,0,0:0:0:0:
504,256,300250,5,8,0:0:0:0:
472,220,300325,1,0,0:0:0:0:
432,200,300400,1,0,0:0:0:0:
388,192,300475,1,0,0:0:0:0:
344,192,300550,1,8,0:0:0:0:
300,208,300625,1,0,0:0:0:0:
260,232,300700,1,0,0:0:0:0:
216,244,300775,1,0,0:0:0:0:
172,240,300850,6,0,L|108:228,3,57.5,8|0|0|0,0:0|0:0|0:0|0:0,0:0:0:0:
96,124,301150,2,0,L|32:112,3,57.5,8|0|0|0,0:0|0:0|0:0|0:0,0:0:0:0:
224,108,301450,5,12,0:0:0:0:
216,172,301525,1,8,0:0:0:0:
240,232,301600,1,8,0:0:0:0:
292,268,301675,1,8,0:0:0:0:
324,276,301750,1,0,0:0:0:0:
356,284,301825,1,0,0:0:0:0:
388,292,301900,1,0,0:0:0:0:
420,300,301975,1,0,0:0:0:0:
480,240,302050,5,12,0:0:0:0:
412,224,302125,1,8,0:0:0:0:
344,208,302200,1,8,0:0:0:0:
276,192,302275,1,8,0:0:0:0:
248,204,302350,1,0,0:0:0:0:
220,216,302425,1,0,0:0:0:0:
192,228,302500,1,0,0:0:0:0:
164,240,302575,1,0,0:0:0:0:
156,320,302650,5,12,0:0:0:0:
220,292,302725,1,8,0:0:0:0:
284,264,302800,1,8,0:0:0:0:
344,232,302875,1,8,0:0:0:0:
344,168,302950,1,8,0:0:0:0:
296,124,303025,1,8,0:0:0:0:
232,128,303100,1,8,0:0:0:0:
200,180,303175,1,8,0:0:0:0:
212,244,303250,5,12,0:0:0:0:
172,252,303325,1,0,0:0:0:0:
136,236,303400,1,8,0:0:0:0:
112,204,303475,1,0,0:0:0:0:
104,164,303550,1,8,0:0:0:0:
108,124,303625,1,0,0:0:0:0:
96,84,303700,1,8,0:0:0:0:
68,56,303775,1,0,0:0:0:0:
28,52,303850,5,12,0:0:0:0:
32,104,303925,1,0,0:0:0:0:
68,140,304000,1,8,0:0:0:0:
116,148,304075,1,0,0:0:0:0:
164,128,304150,1,8,0:0:0:0:
200,92,304225,1,0,0:0:0:0:
244,64,304300,1,8,0:0:0:0:
296,68,304375,1,0,0:0:0:0:
340,96,304450,1,8,0:0:0:0:
360,144,304525,1,0,0:0:0:0:
348,196,304600,1,8,0:0:0:0:
308,232,304675,1,0,0:0:0:0:
256,240,304750,1,8,0:0:0:0:
204,232,304825,1,0,0:0:0:0:
156,256,304900,1,8,0:0:0:0:
132,300,304975,1,0,0:0:0:0:
128,352,305050,5,8,0:0:0:0:
180,344,305125,1,0,0:0:0:0:
224,316,305200,1,8,0:0:0:0:
244,268,305275,1,0,0:0:0:0:
244,216,305350,1,8,0:0:0:0:
224,168,305425,1,0,0:0:0:0:
184,132,305500,1,8,0:0:0:0:
132,120,305575,1,0,0:0:0:0:
80,132,305650,6,0,L|16:168,3,57.5,8|0|0|0,0:0|0:0|0:0|0:0,0:0:0:0:
84,248,305950,2,0,L|148:284,3,57.5,8|0|0|0,0:0|0:0|0:0|0:0,0:0:0:0:
188,188,306250,5,12,0:0:0:0:
232,216,306325,1,0,0:0:0:0:
276,244,306400,1,8,0:0:0:0:
320,272,306475,1,0,0:0:0:0:
364,300,306550,1,8,0:0:0:0:
408,328,306625,1,0,0:0:0:0:
452,356,306700,5,8,0:0:0:0:
464,305,306775,1,0,0:0:0:0:
453,254,306850,1,8,0:0:0:0:
416,216,306925,1,0,0:0:0:0:
368,200,307000,1,8,0:0:0:0:
316,204,307075,1,0,0:0:0:0:
272,232,307150,1,8,0:0:0:0:
224,248,307225,1,0,0:0:0:0:
172,248,307300,1,8,0:0:0:0:
124,228,307375,1,0,0:0:0:0:
88,188,307450,1,8,0:0:0:0:
72,140,307525,1,0,0:0:0:0:
76,88,307600,1,8,0:0:0:0:
100,40,307675,1,0,0:0:0:0:
140,4,307750,5,8,0:0:0:0:
188,24,307825,1,0,0:0:0:0:
236,44,307900,1,8,0:0:0:0:
284,64,307975,1,0,0:0:0:0:
332,84,308050,6,0,L|396:56,3,57.5,8|0|0|0,0:0|0:0|0:0|0:0,0:0:0:0:
440,136,308350,2,0,L|504:164,3,57.5,8|0|0|0,0:0|0:0|0:0|0:0,0:0:0:0:
332,180,308650,5,12,0:0:0:0:
284,160,308725,1,0,0:0:0:0:
236,140,308800,1,0,0:0:0:0:
188,120,308875,1,0,0:0:0:0:
140,100,308950,1,8,0:0:0:0:
92,80,309025,1,0,0:0:0:0:
44,60,309100,5,0,0:0:0:0:
80,20,309175,1,0,0:0:0:0:
132,12,309250,1,8,0:0:0:0:
180,28,309325,1,0,0:0:0:0:
208,72,309400,1,0,0:0:0:0:
208,124,309475,1,0,0:0:0:0:
208,176,309550,1,8,0:0:0:0:
208,228,309625,1,0,0:0:0:0:
208,280,309700,1,0,0:0:0:0:
208,332,309775,1,0,0:0:0:0:
208,384,309850,5,8,0:0:0:0:
176,344,309925,1,0,0:0:0:0:
168,292,310000,1,0,0:0:0:0:
188,244,310075,1,0,0:0:0:0:
232,216,310150,1,8,0:0:0:0:
284,212,310225,1,0,0:0:0:0:
328,240,310300,1,0,0:0:0:0:
356,284,310375,1,0,0:0:0:0:
356,338,310450,6,0,L|284:330,3,57.5,8|0|0|0,0:0|0:0|0:0|0:0,0:0:0:0:
232,216,310750,2,0,L|160:224,3,57.5,8|0|0|0,0:0|0:0|0:0|0:0,0:0:0:0:
316,116,311050,5,12,0:0:0:0:
284,76,311125,1,0,0:0:0:0:
236,60,311200,1,0,0:0:0:0:
184,68,311275,1,0,0:0:0:0:
144,100,311350,1,8,0:0:0:0:
124,148,311425,1,0,0:0:0:0:
100,196,311500,1,0,0:0:0:0:
56,220,311575,1,0,0:0:0:0:
12,216,311650,5,8,0:0:0:0:
22,172,311725,1,0,0:0:0:0:
49,135,311800,1,0,0:0:0:0:
92,118,311875,1,0,0:0:0:0:
138,123,311950,1,8,0:0:0:0:
179,146,312025,1,0,0:0:0:0:
204,185,312100,1,0,0:0:0:0:
208,232,312175,1,0,0:0:0:0:
198,277,312250,5,8,0:0:0:0:
238,254,312325,1,0,0:0:0:0:
284,249,312400,1,0,0:0:0:0:
330,259,312475,1,0,0:0:0:0:
368,287,312550,1,8,0:0:0:0:
410,308,312625,1,0,0:0:0:0:
456,307,312700,1,0,0:0:0:0:
496,280,312775,1,0,0:0:0:0:
512,236,312850,6,0,L|504:164,3,57.5,8|0|0|0,0:0|0:0|0:0|0:0,0:0:0:0:
380,64,313150,2,0,L|372:-8,3,57.5,8|0|0|0,0:0|0:0|0:0|0:0,0:0:0:0:
476,84,313450,5,12,0:0:0:0:
452,132,313525,1,0,0:0:0:0:
408,156,313600,1,8,0:0:0:0:
356,156,313675,1,0,0:0:0:0:
308,140,313750,1,8,0:0:0:0:
272,100,313825,1,0,0:0:0:0:
228,72,313900,5,8,0:0:0:0:
176,68,313975,1,0,0:0:0:0:
128,84,314050,1,8,0:0:0:0:
96,124,314125,1,0,0:0:0:0:
88,176,314200,1,8,0:0:0:0:
100,228,314275,1,0,0:0:0:0:
136,268,314350,1,8,0:0:0:0:
184,284,314425,1,0,0:0:0:0:
236,272,314500,1,8,0:0:0:0:
272,236,314575,1,0,0:0:0:0:
320,212,314650,1,8,0:0:0:0:
372,212,314725,1,0,0:0:0:0:
420,228,314800,1,8,0:0:0:0:
460,260,314875,1,0,0:0:0:0:
476,308,314950,5,8,0:0:0:0:
424,304,315025,1,0,0:0:0:0:
372,300,315100,1,8,0:0:0:0:
320,296,315175,1,0,0:0:0:0:
268,292,315250,6,0,L|200:288,3,57.5,8|0|0|0,0:0|0:0|0:0|0:0,0:0:0:0:
192,192,315550,2,0,L|124:188,3,57.5,8|0|0|0,0:0|0:0|0:0|0:0,0:0:0:0:
60,284,315850,5,12,0:0:0:0:
24,248,315925,1,0,0:0:0:0:
12,196,316000,1,8,0:0:0:0:
16,144,316075,1,0,0:0:0:0:
36,96,316150,1,8,0:0:0:0:
76,64,316225,1,0,0:0:0:0:
128,52,316300,5,8,0:0:0:0:
160,92,316375,1,0,0:0:0:0:
188,136,316450,1,8,0:0:0:0:
216,180,316525,1,0,0:0:0:0:
244,224,316600,1,8,0:0:0:0:
272,268,316675,1,0,0:0:0:0:
300,312,316750,1,8,0:0:0:0:
352,316,316825,1,0,0:0:0:0:
404,304,316900,1,8,0:0:0:0:
444,272,316975,1,0,0:0:0:0:
468,228,317050,5,8,0:0:0:0:
424,200,317125,1,0,0:0:0:0:
376,184,317200,1,8,0:0:0:0:
324,180,317275,1,0,0:0:0:0:
272,192,317350,1,8,0:0:0:0:
224,212,317425,1,0,0:0:0:0:
184,244,317500,1,8,0:0:0:0:
156,288,317575,1,0,0:0:0:0:
148,340,317650,6,0,L|206:344,3,57.5,8|0|0|0,0:0|0:0|0:0|0:0,0:0:0:0:
60,264,317950,2,0,L|3:268,3,57.5,8|0|0|0,0:0|0:0|0:0|0:0,0:0:0:0:
116,168,318250,5,12,0:0:0:0:
152,164,318325,1,0,0:0:0:0:
188,160,318400,1,0,0:0:0:0:
224,156,318475,1,0,0:0:0:0:
260,152,318550,1,8,0:0:0:0:
296,148,318625,1,0,0:0:0:0:
332,144,318700,1,0,0:0:0:0:
368,140,318775,1,0,0:0:0:0:
404,136,318850,5,8,0:0:0:0:
376,168,318925,1,0,0:0:0:0:
348,196,319000,1,0,0:0:0:0:
320,224,319075,1,0,0:0:0:0:
292,252,319150,1,8,0:0:0:0:
264,280,319225,1,0,0:0:0:0:
236,308,319300,1,0,0:0:0:0:
208,336,319375,1,0,0:0:0:0:
180,364,319450,5,12,0:0:0:0:
176,320,319525,1,0,0:0:0:0:
184,276,319600,1,0,0:0:0:0:
212,240,319675,1,0,0:0:0:0:
256,220,319750,1,8,0:0:0:0:
300,220,319825,1,0,0:0:0:0:
344,232,319900,1,0,0:0:0:0:
380,260,319975,1,0,0:0:0:0:
400,300,320050,5,8,0:0:0:0:
348,300,320125,1,0,0:0:0:0:
300,280,320200,1,0,0:0:0:0:
272,236,320275,1,0,0:0:0:0:
272,184,320350,1,8,0:0:0:0:
288,136,320425,1,0,0:0:0:0:
328,104,320500,1,0,0:0:0:0:
380,92,320575,1,0,0:0:0:0:
456,92,320650,5,12,0:0:0:0:
380,92,320725,1,8,0:0:0:0:
304,92,320800,1,8,0:0:0:0:
228,92,320875,1,8,0:0:0:0:
152,92,320950,1,8,0:0:0:0:
76,92,321025,1,8,0:0:0:0:
32,152,321100,1,8,0:0:0:0:
36,228,321175,1,8,0:0:0:0:
76,292,321250,1,8,0:0:0:0:
148,316,321325,1,8,0:0:0:0:
220,284,321400,1,8,0:0:0:0:
292,248,321475,1,8,0:0:0:0:
364,212,321550,5,8,0:0:0:0:
364,240,321625,1,0,0:0:0:0:
364,268,321700,1,0,0:0:0:0:
364,296,321775,1,0,0:0:0:0:
436,264,321850,5,12,0:0:0:0:
468,192,321925,1,8,0:0:0:0:
448,112,322000,1,8,0:0:0:0:
380,68,322075,1,8,0:0:0:0:
300,68,322150,1,8,0:0:0:0:
272,68,322225,1,0,0:0:0:0:
244,68,322300,1,0,0:0:0:0:
232,92,322375,1,0,0:0:0:0:
220,116,322450,1,8,0:0:0:0:
208,144,322525,1,0,0:0:0:0:
196,172,322600,5,0,0:0:0:0:
184,144,322675,1,0,0:0:0:0:
172,116,322750,1,8,0:0:0:0:
160,92,322825,1,0,0:0:0:0:
148,64,322900,1,0,0:0:0:0:
120,64,322975,1,0,0:0:0:0:
92,64,323050,6,0,B|60:64|60:64|-4:104|-12:172|12:240,1,201.249993858338,12|0,0:0|0:0,0:0:0:0:
52,280,323500,2,0,L|260:296,1,201.249993858338,4|0,0:0|0:0,0:0:0:0:
336,296,323950,2,0,P|340:180|400:108,1,201.249993858338,4|0,0:0|0:0,0:0:0:0:
340,52,324400,6,0,L|176:172,1,201.249993858338,4|0,0:0|0:0,0:0:0:0:
100,176,324850,2,0,P|124:112|184:96,1,120.749996315003,4|0,0:0|0:0,0:0:0:0:
244,108,325150,2,0,P|276:172|260:224,1,120.749996315003,4|0,0:0|0:0,0:0:0:0:
188,252,325450,6,0,P|168:348|252:384,1,201.249993858338,4|0,0:0|0:0,0:0:0:0:
328,348,325900,2,0,L|312:140,1,201.249993858338,4|0,0:0|0:0,0:0:0:0:
252,100,326350,2,0,L|60:196,1,201.249993858338,4|0,0:0|0:0,0:0:0:0:
76,268,326800,6,0,L|268:384,1,201.249993858338,4|0,0:0|0:0,0:0:0:0:
300,316,327250,2,0,L|291:195,1,120.749996315003,4|0,0:0|0:0,0:0:0:0:
228,152,327550,2,0,L|119:206,1,120.749996315003,4|0,0:0|0:0,0:0:0:0:
76,268,327850,6,0,L|268:384,1,201.249993858338,4|0,0:0|0:0,0:0:0:0:
324,372,328300,2,0,P|388:336|300:308,1,201.249993858338,4|0,0:0|0:0,0:0:0:0:
248,344,328750,2,0,L|264:136,1,201.249993858338,4|0,0:0|0:0,0:0:0:0:
272,68,329200,6,0,P|336:112|272:220,1,201.249993858338,4|0,0:0|0:0,0:0:0:0:
224,216,329650,2,0,L|104:204,1,120.749996315003,4|0,0:0|0:0,0:0:0:0:
40,272,329950,2,0,L|160:284,1,120.749996315003,4|0,0:0|0:0,0:0:0:0:
212,364,330250,6,0,L|-8:344,1,201.249993858338,4|0,0:0|0:0,0:0:0:0:
40,272,330700,2,0,P|84:200|0:224,1,201.249993858338,4|0,0:0|0:0,0:0:0:0:
46,227,331150,2,0,L|62:23,1,201.249993858338,4|0,0:0|0:0,0:0:0:0:
140,28,331600,6,0,L|155:228,1,201.249993858338,4|0,0:0|0:0,0:0:0:0:
232,228,332050,2,0,L|244:80,1,120.749996315003,4|0,0:0|0:0,0:0:0:0:
320,108,332350,2,0,L|329:228,1,120.749996315003,4|0,0:0|0:0,0:0:0:0:
340,304,332650,6,0,P|424:328|396:252,1,201.249993858338,4|0,0:0|0:0,0:0:0:0:
329,228,333100,2,0,P|265:280|332:384,1,201.249993858338,4|0,0:0|0:0,0:0:0:0:
340,304,333550,2,0,P|404:252|337:148,1,201.249993858338,4|0,0:0|0:0,0:0:0:0:
288,140,334000,6,0,L|80:152,1,201.249993858338,4|0,0:0|0:0,0:0:0:0:
44,216,334450,2,0,P|20:276|52:340,1,120.749996315003,4|0,0:0|0:0,0:0:0:0:
144,332,334750,2,0,P|168:272|136:208,1,120.749996315003,4|0,0:0|0:0,0:0:0:0:
24,204,335050,6,0,P|-2:297|61:372,1,201.249993858338,4|0,0:0|0:0,0:0:0:0:
140,384,335500,2,0,L|344:368,1,201.249993858338,4|0,0:0|0:0,0:0:0:0:
380,304,335950,2,0,L|228:164,1,201.249993858338,4|0,0:0|0:0,0:0:0:0:
256,96,336400,6,0,L|460:80,1,201.249993858338,4|0,0:0|0:0,0:0:0:0:
424,160,336850,2,0,L|303:169,1,120.749996315003,4|0,0:0|0:0,0:0:0:0:
272,240,337150,2,0,L|364:324,1,120.749996315003,4|0,0:0|0:0,0:0:0:0:
440,320,337450,6,0,L|512:132,1,201.249993858338,4|0,0:0|0:0,0:0:0:0:
511,56,337900,2,0,P|423:96|333:57,1,201.249993858338,4|0,0:0|0:0,0:0:0:0:
279,3,338350,2,0,P|188:38|154:129,1,201.249993858338,4|0,0:0|0:0,0:0:0:0:
184,200,338800,6,0,P|278:226|363:177,1,201.249993858338,4|0,0:0|0:0,0:0:0:0:
320,80,339250,2,0,P|228:114|208:148,1,120.749996315003,4|0,0:0|0:0,0:0:0:0:
264,244,339550,2,0,P|332:236|376:188,1,120.749996315003,4|0,0:0|0:0,0:0:0:0:
392,124,339850,1,4,0:0:0:0:
363,256,342250,6,0,B|336:240|336:240|336:128|176:128|176:240|176:240|150:256,1,321.99999017334,4|0,0:0|0:0,0:0:0:0:
256,316,343150,2,0,L|256:235,1,80.499997543335
256,36,343600,5,0,0:0:0:0:
256,136,343750,1,0,0:0:0:0:
256,235,343900,1,0,0:0:0:0:
352,88,344050,2,0,P|425:96|383:152,1,160.99999508667
72,228,344650,5,4,0:0:0:0:
256,332,344950,5,0,0:0:0:0:
165,280,345100,1,0,0:0:0:0:
347,280,345250,2,0,P|379:255|301:234,1,160.99999508667
165,280,345700,2,0,P|133:255|211:234,1,160.99999508667
396,80,346300,5,0,0:0:0:0:
256,24,346450,2,0,L|256:185,1,160.99999508667
256,185,347050,5,4,0:0:0:0:
256,185,347350,5,0,0:0:0:0:
152,184,347500,1,0,0:0:0:0:
360,184,347650,2,0,P|400:240|328:248,1,160.99999508667
256,185,348100,1,0,0:0:0:0:
48,184,348400,5,0,0:0:0:0:
100,276,348550,1,0,0:0:0:0:
160,364,348700,1,0,0:0:0:0:
152,184,348850,2,0,L|224:80,1,120.749996315003
300,84,349150,2,0,L|368:183,1,120.749996315003
416,244,349450,1,4,0:0:0:0:
256,348,349750,5,0,0:0:0:0:
256,244,349900,1,0,0:0:0:0:
256,140,350050,2,0,L|256:16,1,120.749996315003
180,20,350350,5,0,0:0:0:0:
332,20,350500,1,0,0:0:0:0:
132,88,350650,1,0,0:0:0:0:
380,88,350800,1,0,0:0:0:0:
256,244,350950,1,0,0:0:0:0:
256,64,351100,1,0,0:0:0:0:
380,192,351250,1,0,0:0:0:0:
132,192,351400,1,0,0:0:0:0:
256,19,351550,1,0,0:0:0:0:
296,88,351850,6,0,P|256:144|215:89,1,160.99999508667,4|0,0:0|0:0,0:0:0:0:
340,20,352300,1,0,0:0:0:0:
356,164,352450,2,0,P|308:208|204:208,1,160.99999508667
156,164,352900,1,0,0:0:0:0:
360,300,353200,5,0,0:0:0:0:
256,300,353350,1,0,0:0:0:0:
152,300,353500,1,0,0:0:0:0:
308,207,353650,2,0,P|256:156|204:205,1,160.99999508667
464,300,354250,1,4,0:0:0:0:
464,92,354550,5,0,0:0:0:0:
464,196,354700,1,0,0:0:0:0:
464,300,354850,2,0,P|392:328|412:260,1,160.99999508667
464,92,355300,2,0,P|400:140|312:124,1,160.99999508667
323,130,355900,5,0,0:0:0:0:
128,52,356050,2,0,P|104:112|128:172,1,120.749996315003
200,168,356350,2,0,P|224:108|200:48,1,120.749996315003
100,32,356650,2,0,P|76:92|104:196,1,160.99999508667,4|0,0:0|0:0,0:0:0:0:
168,260,357100,1,0,0:0:0:0:
272,260,357250,2,0,P|308:324|236:320,1,160.99999508667
220,168,357700,1,0,0:0:0:0:
220,168,358000,5,0,0:0:0:0:
168,260,358150,1,0,0:0:0:0:
272,260,358300,1,0,0:0:0:0:
116,168,358450,2,0,P|132:100|200:68,1,120.749996315003
248,72,358750,2,0,L|380:77,1,120.749996315003
448,81,359050,6,0,B|448:144|480:192|480:192|480:240|448:288|448:288|412:260|368:256|368:256|368:220|384:192|384:192|304:264|209:206,1,563.499982803345,4|0,0:0|0:0,0:0:0:0:
148,124,360250,6,0,L|156:68,2,53.66666502889
72,192,360550,2,0,L|80:248,2,53.66666502889
172,228,360850,2,0,L|180:284,2,53.66666502889
272,264,361150,2,0,L|280:320,2,53.66666502889
372,300,361450,5,4,0:0:0:0:
488,128,361600,2,0,L|434:135,1,40.2499987716675
304,148,361750,1,0,0:0:0:0:
492,112,361900,6,0,L|436:120,1,57.5
300,164,362050,2,0,L|293:107,1,57.5
496,92,362200,1,0,0:0:0:0:
467,95,362275,1,0,0:0:0:0:
439,99,362350,1,0,0:0:0:0:
410,103,362425,1,0,0:0:0:0:
382,107,362500,1,4,0:0:0:0:
160,148,362800,1,0,0:0:0:0:
160,148,363100,1,0,0:0:0:0:
64,336,363250,5,0,0:0:0:0:
96,320,363325,1,0,0:0:0:0:
132,316,363400,1,0,0:0:0:0:
168,320,363475,1,0,0:0:0:0:
200,336,363550,1,0,0:0:0:0:
224,360,363625,1,0,0:0:0:0:
256,376,363700,1,0,0:0:0:0:
292,380,363775,1,0,0:0:0:0:
324,372,363850,5,4,0:0:0:0:
456,236,364000,2,0,L|396:252,1,57.5
280,280,364150,1,0,0:0:0:0:
476,231,364300,1,0,0:0:0:0:
261,285,364450,5,0,0:0:0:0:
257,261,364525,1,0,0:0:0:0:
253,237,364600,1,0,0:0:0:0:
249,213,364675,1,0,0:0:0:0:
245,189,364750,1,0,0:0:0:0:
241,165,364825,1,0,0:0:0:0:
237,141,364900,1,4,0:0:0:0:
408,112,365200,1,0,0:0:0:0:
408,112,365500,1,0,0:0:0:0:
340,304,365650,5,0,0:0:0:0:
336,280,365725,1,0,0:0:0:0:
332,256,365800,1,0,0:0:0:0:
328,232,365875,1,0,0:0:0:0:
324,208,365950,1,0,0:0:0:0:
320,184,366025,1,0,0:0:0:0:
316,160,366100,1,0,0:0:0:0:
312,136,366175,1,0,0:0:0:0:
308,112,366250,5,12,0:0:0:0:
264,100,366325,1,0,0:0:0:0:
220,100,366400,1,0,0:0:0:0:
176,112,366475,1,0,0:0:0:0:
140,140,366550,1,8,0:0:0:0:
176,168,366625,1,0,0:0:0:0:
220,180,366700,1,0,0:0:0:0:
264,180,366775,1,0,0:0:0:0:
308,168,366850,1,8,0:0:0:0:
344,140,366925,1,0,0:0:0:0:
368,100,367000,1,0,0:0:0:0:
388,140,367075,1,0,0:0:0:0:
408,184,367150,1,8,0:0:0:0:
436,148,367225,1,0,0:0:0:0:
452,104,367300,1,0,0:0:0:0:
448,60,367375,1,0,0:0:0:0:
424,20,367450,5,8,0:0:0:0:
464,44,367525,1,0,0:0:0:0:
484,84,367600,1,0,0:0:0:0:
488,128,367675,1,0,0:0:0:0:
484,172,367750,1,8,0:0:0:0:
464,212,367825,1,0,0:0:0:0:
428,240,367900,1,0,0:0:0:0:
384,252,367975,1,0,0:0:0:0:
340,244,368050,1,8,0:0:0:0:
300,220,368125,1,0,0:0:0:0:
256,208,368200,1,0,0:0:0:0:
212,208,368275,1,0,0:0:0:0:
172,228,368350,1,8,0:0:0:0:
148,268,368425,1,0,0:0:0:0:
152,312,368500,1,0,0:0:0:0:
172,352,368575,1,0,0:0:0:0:
212,376,368650,5,12,0:0:0:0:
216,332,368725,1,0,0:0:0:0:
220,288,368800,1,0,0:0:0:0:
224,244,368875,1,0,0:0:0:0:
228,200,368950,1,8,0:0:0:0:
232,156,369025,1,0,0:0:0:0:
236,112,369100,1,0,0:0:0:0:
268,144,369175,1,0,0:0:0:0:
300,176,369250,1,8,0:0:0:0:
292,220,369325,1,0,0:0:0:0:
260,252,369400,1,0,0:0:0:0:
216,264,369475,1,0,0:0:0:0:
168,252,369550,1,8,0:0:0:0:
164,280,369625,1,0,0:0:0:0:
160,308,369700,1,0,0:0:0:0:
156,340,369775,1,0,0:0:0:0:
152,368,369850,5,8,0:0:0:0:
108,364,369925,1,0,0:0:0:0:
68,340,370000,1,0,0:0:0:0:
40,304,370075,1,0,0:0:0:0:
28,260,370150,1,8,0:0:0:0:
32,216,370225,1,0,0:0:0:0:
52,172,370300,1,0,0:0:0:0:
88,144,370375,1,0,0:0:0:0:
132,128,370450,1,8,0:0:0:0:
176,132,370525,1,0,0:0:0:0:
220,148,370600,1,0,0:0:0:0:
264,152,370675,1,0,0:0:0:0:
308,144,370750,1,8,0:0:0:0:
348,120,370825,1,0,0:0:0:0:
372,80,370900,1,0,0:0:0:0:
404,48,370975,1,0,0:0:0:0:
448,32,371050,5,12,0:0:0:0:
512,208,371200,2,0,L|436:184,1,57.5
332,172,371350,1,0,0:0:0:0:
512,228,371500,2,0,L|440:204,1,57.5
332,172,371650,1,0,0:0:0:0:
336,200,371725,1,0,0:0:0:0:
340,228,371800,1,0,0:0:0:0:
344,256,371875,1,0,0:0:0:0:
348,284,371950,1,0,0:0:0:0:
352,312,372025,1,0,0:0:0:0:
356,340,372100,5,4,0:0:0:0:
356,340,372400,1,0,0:0:0:0:
356,340,372700,1,0,0:0:0:0:
216,304,372850,5,0,0:0:0:0:
189,327,372925,1,0,0:0:0:0:
154,335,373000,1,0,0:0:0:0:
120,325,373075,1,0,0:0:0:0:
94,301,373150,1,0,0:0:0:0:
83,267,373225,1,0,0:0:0:0:
90,232,373300,1,0,0:0:0:0:
112,204,373375,1,0,0:0:0:0:
145,191,373450,5,4,0:0:0:0:
292,232,373600,2,0,L|288:172,1,57.5
280,72,373750,1,0,0:0:0:0:
293,252,373900,1,0,0:0:0:0:
279,55,374050,1,0,0:0:0:0:
251,51,374125,1,0,0:0:0:0:
223,47,374200,1,0,0:0:0:0:
195,43,374275,1,0,0:0:0:0:
167,39,374350,1,0,0:0:0:0:
139,35,374425,1,0,0:0:0:0:
111,31,374500,5,4,0:0:0:0:
111,31,374800,1,0,0:0:0:0:
112,32,375100,1,0,0:0:0:0:
40,180,375250,5,0,0:0:0:0:
72,207,375325,1,0,0:0:0:0:
113,215,375400,1,0,0:0:0:0:
153,202,375475,1,0,0:0:0:0:
184,173,375550,1,0,0:0:0:0:
219,150,375625,1,0,0:0:0:0:
261,144,375700,1,0,0:0:0:0:
302,154,375775,1,0,0:0:0:0:
337,178,375850,5,12,0:0:0:0:
328,228,375925,1,0,0:0:0:0:
316,280,376000,1,0,0:0:0:0:
304,332,376075,1,0,0:0:0:0:
292,384,376150,1,8,0:0:0:0:
260,344,376225,1,0,0:0:0:0:
228,304,376300,1,0,0:0:0:0:
200,260,376375,1,0,0:0:0:0:
172,216,376450,1,8,0:0:0:0:
172,164,376525,1,0,0:0:0:0:
192,116,376600,1,0,0:0:0:0:
228,80,376675,1,0,0:0:0:0:
276,64,376750,1,8,0:0:0:0:
328,68,376825,1,0,0:0:0:0:
376,88,376900,1,0,0:0:0:0:
408,128,376975,1,0,0:0:0:0:
424,176,377050,5,8,0:0:0:0:
376,160,377125,1,0,0:0:0:0:
328,144,377200,1,0,0:0:0:0:
312,192,377275,1,0,0:0:0:0:
296,240,377350,1,8,0:0:0:0:
340,268,377425,1,0,0:0:0:0:
384,296,377500,1,0,0:0:0:0:
428,324,377575,1,0,0:0:0:0:
472,352,377650,1,8,0:0:0:0:
460,300,377725,1,0,0:0:0:0:
420,268,377800,1,0,0:0:0:0:
368,260,377875,1,0,0:0:0:0:
320,280,377950,1,8,0:0:0:0:
296,328,378025,1,0,0:0:0:0:
248,352,378100,1,0,0:0:0:0:
196,348,378175,1,0,0:0:0:0:
156,316,378250,5,12,0:0:0:0:
192,280,378325,1,0,0:0:0:0:
232,248,378400,1,0,0:0:0:0:
272,216,378475,1,0,0:0:0:0:
312,184,378550,1,8,0:0:0:0:
352,152,378625,1,0,0:0:0:0:
392,120,378700,1,0,0:0:0:0:
432,88,378775,1,0,0:0:0:0:
472,56,378850,1,8,0:0:0:0:
472,108,378925,1,0,0:0:0:0:
452,156,379000,1,0,0:0:0:0:
408,184,379075,1,0,0:0:0:0:
356,188,379150,1,8,0:0:0:0:
308,168,379225,1,0,0:0:0:0:
280,124,379300,1,0,0:0:0:0:
268,72,379375,1,0,0:0:0:0:
284,20,379450,5,12,0:0:0:0:
309,45,379525,1,0,0:0:0:0:
325,77,379600,1,0,0:0:0:0:
332,112,379675,1,0,0:0:0:0:
328,147,379750,1,12,0:0:0:0:
314,180,379825,1,0,0:0:0:0:
290,207,379900,1,0,0:0:0:0:
260,226,379975,1,0,0:0:0:0:
225,235,380050,1,12,0:0:0:0:
189,234,380125,1,0,0:0:0:0:
156,222,380200,1,0,0:0:0:0:
127,201,380275,1,0,0:0:0:0:
106,172,380350,1,12,0:0:0:0:
94,138,380425,1,0,0:0:0:0:
93,102,380500,1,0,0:0:0:0:
102,68,380575,1,0,0:0:0:0:
121,38,380650,6,0,L|180:32,19,57.5,12|0|0|0|0|0|0|0|0|0|0|0|0|0|0|0|0|0|0|0,0:0|0:0|0:0|0:0|0:0|0:0|0:0|0:0|0:0|0:0|0:0|0:0|0:0|0:0|0:0|0:0|0:0|0:0|0:0|0:0,0:0:0:0:
232,108,382150,6,0,L|289:102,3,57.5,2|0|0|0,0:0|0:0|0:0|0:0,0:0:0:0:
200,192,382450,2,0,L|142:197,3,57.5,2|0|0|0,0:0|0:0|0:0|0:0,0:0:0:0:
252,268,382750,2,0,L|309:262,1,57.5,2|0,0:0|0:0,0:0:0:0:
400,252,382900,1,2,0:0:0:0:
264,360,383050,6,0,L|205:353,3,57.5,2|0|0|0,0:0|0:0|0:0|0:0,0:0:0:0:
252,268,383350,2,0,L|194:262,1,57.5,2|0,0:0|0:0,0:0:0:0:
104,252,383500,1,2,0:0:0:0:
264,164,383650,2,0,L|322:157,3,57.5,2|0|0|0,0:0|0:0|0:0|0:0,0:0:0:0:
404,148,383950,5,2,0:0:0:0:
264,76,384100,2,0,L|205:69,3,57.5,2|0|0|0,0:0|0:0|0:0|0:0,0:0:0:0:
124,60,384400,1,2,0:0:0:0:
156,228,384550,2,0,L|213:233,3,57.5,2|0|0|0,0:0|0:0|0:0|0:0,0:0:0:0:
224,344,384850,6,0,L|165:337,1,57.5,2|0,0:0|0:0,0:0:0:0:
28,344,385000,2,0,L|86:337,1,57.5,2|0,0:0|0:0,0:0:0:0:
256,268,385150,2,0,L|197:261,1,57.5,2|0,0:0|0:0,0:0:0:0:
0,268,385300,2,0,L|58:261,1,57.5,2|0,0:0|0:0,0:0:0:0:
292,192,385450,6,0,L|233:185,3,57.5,2|0|0|0,0:0|0:0|0:0|0:0,0:0:0:0:
232,88,385750,2,0,L|289:82,1,57.5,2|0,0:0|0:0,0:0:0:0:
384,80,385900,2,0,L|441:85,3,57.5,2|0|0|0,0:0|0:0|0:0|0:0,0:0:0:0:
440,184,386200,2,0,L|382:189,1,57.5,2|0,0:0|0:0,0:0:0:0:
292,192,386350,6,0,L|234:186,1,57.5,2|0,0:0|0:0,0:0:0:0:
248,264,386500,2,0,L|190:258,1,57.5,2|0,0:0|0:0,0:0:0:0:
204,336,386650,2,0,L|146:330,3,57.5,2|0|0|0,0:0|0:0|0:0|0:0,0:0:0:0:
292,336,386950,6,0,L|349:330,1,57.5,2|0,0:0|0:0,0:0:0:0:
488,336,387100,2,0,L|430:330,1,57.5,2|0,0:0|0:0,0:0:0:0:
264,260,387250,2,0,L|321:254,1,57.5,2|0,0:0|0:0,0:0:0:0:
512,260,387400,2,0,L|454:254,1,57.5,2|0,0:0|0:0,0:0:0:0:
240,184,387550,2,0,L|297:178,1,57.5,2|0,0:0|0:0,0:0:0:0:
216,108,387700,2,0,L|273:102,1,57.5,2|0,0:0|0:0,0:0:0:0:
412,108,387850,2,0,L|354:102,3,57.5,2|0|0|0,0:0|0:0|0:0|0:0,0:0:0:0:
452,184,388150,6,0,L|394:189,1,57.5,2|0,0:0|0:0,0:0:0:0:
436,264,388300,2,0,L|378:269,1,57.5,2|0,0:0|0:0,0:0:0:0:
420,344,388450,2,0,L|362:349,1,57.5,2|0,0:0|0:0,0:0:0:0:
277,349,388600,2,0,L|220:344,3,57.5,2|0|0|0,0:0|0:0|0:0|0:0,0:0:0:0:
132,336,388900,5,2,0:0:0:0:
232,220,389050,2,0,L|174:225,3,57.5,2|0|0|0,0:0|0:0|0:0|0:0,0:0:0:0:
196,144,389350,2,0,L|138:149,1,57.5,2|0,0:0|0:0,0:0:0:0:
160,68,389500,2,0,L|102:73,1,57.5,2|0,0:0|0:0,0:0:0:0:
60,144,389650,6,0,L|2:149,1,57.5,2|0,0:0|0:0,0:0:0:0:
92,220,389800,2,0,L|34:225,1,57.5,2|0,0:0|0:0,0:0:0:0:
124,300,389950,2,0,L|66:305,3,57.5,2|0|0|0,0:0|0:0|0:0|0:0,0:0:0:0:
212,300,390250,2,0,L|269:305,6,57.5,2|0|0|0|0|0|0,0:0|0:0|0:0|0:0|0:0|0:0|0:0,0:0:0:0:
256,192,390850,5,2,0:0:0:0:
296,196,390925,1,0,0:0:0:0:
336,200,391000,1,0,0:0:0:0:
376,204,391075,1,0,0:0:0:0:
416,208,391150,1,2,0:0:0:0:
452,192,391225,1,0,0:0:0:0:
476,160,391300,1,0,0:0:0:0:
492,124,391375,1,0,0:0:0:0:
492,84,391450,5,2,0:0:0:0:
448,88,391525,1,0,0:0:0:0:
416,120,391600,1,0,0:0:0:0:
400,164,391675,1,0,0:0:0:0:
396,208,391750,1,2,0:0:0:0:
412,252,391825,1,0,0:0:0:0:
444,284,391900,1,0,0:0:0:0:
464,324,391975,1,0,0:0:0:0:
472,368,392050,5,2,0:0:0:0:
432,344,392125,1,0,0:0:0:0:
388,328,392200,1,0,0:0:0:0:
342,325,392275,1,0,0:0:0:0:
296,336,392350,1,2,0:0:0:0:
256,360,392425,1,0,0:0:0:0:
212,372,392500,1,0,0:0:0:0:
168,368,392575,1,0,0:0:0:0:
128,344,392650,6,0,L|136:288,3,57.5,2|0|0|0,0:0|0:0|0:0|0:0,0:0:0:0:
216,252,392950,2,0,L|208:196,1,57.5,2|0,0:0|0:0,0:0:0:0:
136,148,393100,2,0,L|144:92,1,57.5,2|0,0:0|0:0,0:0:0:0:
224,60,393250,2,0,L|216:4,3,57.5,2|0|0|0,0:0|0:0|0:0|0:0,0:0:0:0:
112,16,393550,5,2,0:0:0:0:
72,40,393625,1,0,0:0:0:0:
40,76,393700,1,0,0:0:0:0:
28,120,393775,1,0,0:0:0:0:
28,164,393850,1,2,0:0:0:0:
48,208,393925,1,0,0:0:0:0:
80,240,394000,1,0,0:0:0:0:
92,284,394075,1,0,0:0:0:0:
88,328,394150,5,2,0:0:0:0:
124,300,394225,1,0,0:0:0:0:
168,288,394300,1,0,0:0:0:0:
212,292,394375,1,0,0:0:0:0:
256,312,394450,1,2,0:0:0:0:
300,292,394525,1,0,0:0:0:0:
344,288,394600,1,0,0:0:0:0:
388,300,394675,1,0,0:0:0:0:
424,328,394750,5,2,0:0:0:0:
420,284,394825,1,0,0:0:0:0:
432,240,394900,1,0,0:0:0:0:
464,208,394975,1,0,0:0:0:0:
484,164,395050,2,0,P|488:128|476:88,3,57.5,2|0|0|0,0:0|0:0|0:0|0:0,0:0:0:0:
452,36,395350,5,2,0:0:0:0:
416,64,395425,1,0,0:0:0:0:
404,108,395500,1,0,0:0:0:0:
408,152,395575,1,0,0:0:0:0:
432,192,395650,1,2,0:0:0:0:
448,236,395725,1,0,0:0:0:0:
452,280,395800,1,0,0:0:0:0:
432,324,395875,1,0,0:0:0:0:
396,352,395950,1,2,0:0:0:0:
352,360,396025,1,0,0:0:0:0:
308,352,396100,1,0,0:0:0:0:
272,320,396175,1,0,0:0:0:0:
256,276,396250,1,2,0:0:0:0:
256,276,396550,5,2,0:0:0:0:
240,320,396625,1,0,0:0:0:0:
204,352,396700,1,0,0:0:0:0:
160,360,396775,1,0,0:0:0:0:
116,352,396850,1,2,0:0:0:0:
80,324,396925,1,0,0:0:0:0:
60,280,397000,1,0,0:0:0:0:
64,236,397075,1,0,0:0:0:0:
80,192,397150,1,2,0:0:0:0:
104,152,397225,1,0,0:0:0:0:
108,108,397300,1,0,0:0:0:0:
96,64,397375,1,0,0:0:0:0:
60,36,397450,1,2,0:0:0:0:
60,36,397750,5,2,0:0:0:0:
32,72,397825,1,0,0:0:0:0:
28,116,397900,1,0,0:0:0:0:
44,160,397975,1,0,0:0:0:0:
80,192,398050,1,2,0:0:0:0:
124,204,398125,1,0,0:0:0:0:
168,188,398200,1,0,0:0:0:0:
212,172,398275,1,0,0:0:0:0:
256,156,398350,1,2,0:0:0:0:
212,136,398425,1,0,0:0:0:0:
168,124,398500,1,0,0:0:0:0:
124,108,398575,1,0,0:0:0:0:
80,92,398650,5,2,0:0:0:0:
56,132,398725,1,0,0:0:0:0:
52,176,398800,1,0,0:0:0:0:
68,220,398875,1,0,0:0:0:0:
100,252,398950,1,2,0:0:0:0:
100,252,399250,5,2,0:0:0:0:
140,228,399325,1,0,0:0:0:0:
184,224,399400,1,0,0:0:0:0:
228,240,399475,1,0,0:0:0:0:
260,272,399550,1,2,0:0:0:0:
368,140,399850,6,0,L|388:76,3,57.5,4|0|0|0,0:0|0:0|0:0|0:0,0:0:0:0:
144,140,400300,2,0,L|124:76,3,57.5,4|0|0|0,0:0|0:0|0:0|0:0,0:0:0:0:
368,244,400750,2,0,L|388:308,3,57.5,4|0|0|0,0:0|0:0|0:0|0:0,0:0:0:0:
144,244,401200,2,0,L|124:308,3,57.5,4|0|0|0,0:0|0:0|0:0|0:0,0:0:0:0:
256,152,401650,2,0,L|256:88,3,57.5,4|0|0|0,0:0|0:0|0:0|0:0,0:0:0:0:
300,232,401950,2,0,L|344:284,3,57.5,4|0|0|0,0:0|0:0|0:0|0:0,0:0:0:0:
212,232,402250,6,0,L|168:284,3,57.5,4|0|0|0,0:0|0:0|0:0|0:0,0:0:0:0:
352,148,402700,2,0,L|396:96,3,57.5,4|0|0|0,0:0|0:0|0:0|0:0,0:0:0:0:
160,148,403150,2,0,L|116:96,3,57.5,4|0|0|0,0:0|0:0|0:0|0:0,0:0:0:0:
256,292,403600,2,0,L|256:356,3,57.5,4|0|0|0,0:0|0:0|0:0|0:0,0:0:0:0:
256,92,404050,2,0,L|256:28,3,57.5,4|0|0|0,0:0|0:0|0:0|0:0,0:0:0:0:
212,172,404350,2,0,L|168:224,3,57.5,4|0|0|0,0:0|0:0|0:0|0:0,0:0:0:0:
300,172,404650,6,0,L|344:224,3,57.5,4|0|0|0,0:0|0:0|0:0|0:0,0:0:0:0:
124,272,405100,2,0,L|80:324,3,57.5,4|0|0|0,0:0|0:0|0:0|0:0,0:0:0:0:
388,272,405550,2,0,L|432:324,3,57.5,4|0|0|0,0:0|0:0|0:0|0:0,0:0:0:0:
256,68,406000,2,0,L|256:10,3,57.5,4|0|0|0,0:0|0:0|0:0|0:0,0:0:0:0:
256,272,406450,2,0,L|256:336,3,57.5,4|0|0|0,0:0|0:0|0:0|0:0,0:0:0:0:
212,192,406750,2,0,L|168:140,3,57.5,4|0|0|0,0:0|0:0|0:0|0:0,0:0:0:0:
300,192,407050,6,0,L|344:140,3,57.5,4|0|0|0,0:0|0:0|0:0|0:0,0:0:0:0:
108,192,407500,2,0,L|64:140,3,57.5,4|0|0|0,0:0|0:0|0:0|0:0,0:0:0:0:
404,192,407950,2,0,L|448:140,3,57.5,4|0|0|0,0:0|0:0|0:0|0:0,0:0:0:0:
256,64,408400,2,0,L|256:6,3,57.5,4|0|0|0,0:0|0:0|0:0|0:0,0:0:0:0:
212,288,408850,2,0,L|168:340,3,57.5,4|0|0|0,0:0|0:0|0:0|0:0,0:0:0:0:
300,288,409150,2,0,L|344:340,3,57.5,4|0|0|0,0:0|0:0|0:0|0:0,0:0:0:0:
256,208,409450,5,4,0:0:0:0:
256,180,409525,1,0,0:0:0:0:
256,152,409600,1,0,0:0:0:0:
256,124,409675,1,0,0:0:0:0:
396,276,409900,5,4,0:0:0:0:
396,248,409975,1,0,0:0:0:0:
396,220,410050,1,0,0:0:0:0:
396,192,410125,1,0,0:0:0:0:
116,276,410350,5,4,0:0:0:0:
116,248,410425,1,0,0:0:0:0:
116,220,410500,1,0,0:0:0:0:
116,192,410575,1,0,0:0:0:0:
256,340,410800,5,4,0:0:0:0:
256,312,410875,1,0,0:0:0:0:
256,284,410950,1,0,0:0:0:0:
256,256,411025,1,0,0:0:0:0:
192,56,411250,5,4,0:0:0:0:
184,90,411325,1,0,0:0:0:0:
195,124,411400,1,0,0:0:0:0:
221,149,411475,1,0,0:0:0:0:
255,157,411550,1,4,0:0:0:0:
290,148,411625,1,0,0:0:0:0:
315,124,411700,1,0,0:0:0:0:
326,90,411775,1,0,0:0:0:0:
318,55,411850,6,0,P|296:28|256:20,3,57.5,4|0|0|0,0:0|0:0|0:0|0:0,0:0:0:0:
140,192,412300,2,0,P|118:219|78:227,3,57.5,4|0|0|0,0:0|0:0|0:0|0:0,0:0:0:0:
372,192,412750,2,0,P|394:219|434:227,3,57.5,4|0|0|0,0:0|0:0|0:0|0:0,0:0:0:0:
256,296,413200,2,0,L|256:356,3,57.5,4|0|0|0,0:0|0:0|0:0|0:0,0:0:0:0:
208,92,413650,2,0,P|186:65|146:57,3,57.5,4|0|0|0,0:0|0:0|0:0|0:0,0:0:0:0:
304,92,413950,2,0,P|326:65|366:57,3,57.5,4|0|0|0,0:0|0:0|0:0|0:0,0:0:0:0:
256,168,414250,5,4,0:0:0:0:
256,196,414325,1,0,0:0:0:0:
256,224,414400,1,0,0:0:0:0:
256,252,414475,1,0,0:0:0:0:
88,240,414700,5,4,0:0:0:0:
84,268,414775,1,0,0:0:0:0:
88,296,414850,1,0,0:0:0:0:
104,320,414925,1,0,0:0:0:0:
424,240,415150,5,4,0:0:0:0:
428,268,415225,1,0,0:0:0:0:
424,296,415300,1,0,0:0:0:0:
408,320,415375,1,0,0:0:0:0:
216,76,415600,5,4,0:0:0:0:
244,68,415675,1,0,0:0:0:0:
272,68,415750,1,0,0:0:0:0:
300,72,415825,1,0,0:0:0:0:
192,268,416050,5,4,0:0:0:0:
184,234,416125,1,0,0:0:0:0:
195,200,416200,1,0,0:0:0:0:
221,175,416275,1,0,0:0:0:0:
255,167,416350,1,4,0:0:0:0:
290,176,416425,1,0,0:0:0:0:
315,200,416500,1,0,0:0:0:0:
326,234,416575,1,0,0:0:0:0:
317,269,416649,6,0,P|300:292|272:304,3,57.5,4|0|0|0,0:0|0:0|0:0|0:0,0:0:0:0:
152,144,417100,2,0,P|168:120|194:108,3,57.5,4|0|0|0,0:0|0:0|0:0|0:0,0:0:0:0:
317,108,417550,2,0,P|343:120|360:144,3,57.5,4|0|0|0,0:0|0:0|0:0|0:0,0:0:0:0:
237,304,418001,2,0,P|211:292|195:269,3,57.5,4|0|0|0,0:0|0:0|0:0|0:0,0:0:0:0:
184,96,418450,5,4,0:0:0:0:
200,120,418525,1,0,0:0:0:0:
216,144,418600,1,0,0:0:0:0:
236,168,418675,1,0,0:0:0:0:
256,192,418750,1,4,0:0:0:0:
272,168,418825,1,0,0:0:0:0:
292,144,418900,1,0,0:0:0:0:
308,120,418975,1,0,0:0:0:0:
324,96,419050,6,0,L|350:58,1,46,4|0,0:0|0:0,0:0:0:0:
504,32,419200,2,0,L|477:69,1,46
408,160,419350,6,0,L|381:197,1,46
428,164,419500,2,0,L|401:201,1,46
400,336,419650,6,0,L|373:298,1,46
248,184,419800,2,0,L|274:221,1,46
248,356,419950,6,0,L|274:318,1,46
228,352,420100,2,0,L|254:314,1,46
120,268,420250,6,0,L|93:230,1,46
140,264,420400,2,0,L|113:226,1,46
248,184,420550,6,0,L|274:146,1,46
228,180,420700,2,0,L|254:142,1,46
124,104,420850,6,0,L|97:66,1,46
144,100,421000,2,0,L|117:62,1,46
20,180,421150,6,0,L|46:217,1,46
112,332,421300,2,0,L|85:369,1,46
180,216,421450,6,0,L|206:178,1,46,4|0,0:0|0:0,0:0:0:0:
160,212,421600,2,0,L|186:174,1,46
332,216,421750,6,0,L|305:178,1,46
352,212,421900,2,0,L|325:174,1,46
168,92,422050,6,0,L|194:54,1,46
344,92,422200,2,0,L|317:54,1,46
180,216,422350,6,0,L|153:253,1,46
160,212,422500,2,0,L|133:249,1,46
332,216,422650,6,0,L|358:253,1,46
352,212,422800,2,0,L|378:249,1,46
208,296,422950,6,0,L|181:333,1,46
188,292,423100,2,0,L|161:329,1,46
304,296,423250,6,0,L|330:333,1,46
324,292,423400,2,0,L|350:329,1,46
344,288,423550,2,0,L|370:325,1,46
364,284,423700,2,0,L|390:321,1,46
472,236,423850,6,0,L|498:198,1,46,4|0,0:0|0:0,0:0:0:0:
404,136,424000,2,0,L|377:98,1,46
308,196,424150,6,0,L|281:233,1,46
288,192,424300,2,0,L|261:229,1,46
188,140,424450,6,0,L|161:102,1,46
132,244,424600,2,0,L|158:281,1,46
60,148,424750,6,0,L|33:185,1,46
40,144,424900,2,0,L|13:181,1,46
132,244,425050,6,0,L|158:281,1,46
152,240,425200,2,0,L|178:277,1,46
280,160,425350,6,0,L|253:197,1,46
260,156,425500,2,0,L|233:193,1,46
360,244,425650,6,0,L|386:281,1,46
380,240,425800,2,0,L|406:277,1,46
400,236,425950,2,0,L|426:273,1,46
420,232,426100,2,0,L|446:269,1,46
484,136,426250,6,0,L|510:99,1,46,4|0,0:0|0:0,0:0:0:0:
400,108,426400,2,0,L|374:71,1,46
348,176,426550,2,0,L|322:213,1,46
304,104,426700,2,0,L|278:67,1,46
220,200,426850,6,0,L|194:237,1,46
156,92,427000,2,0,L|130:55,1,46
104,204,427150,2,0,L|78:241,1,46
232,304,427300,2,0,L|258:341,1,46
32,308,427450,6,0,L|6:345,7,46,4|0|0|0|0|0|0|0,0:0|0:0|0:0|0:0|0:0|0:0|0:0|0:0,0:0:0:0:
116,308,428050,2,0,L|142:345,7,46,4|0|0|0|0|0|0|0,0:0|0:0|0:0|0:0|0:0|0:0|0:0|0:0,0:0:0:0:
72,232,428650,6,0,L|72:176,3,46,4|0|0|0,0:0|0:0|0:0|0:0,0:0:0:0:
148,192,429550,6,0,L|148:136,3,46
228,156,431050,6,0,L|228:100,3,46
308,116,431650,2,0,L|308:60,3,46
384,160,432250,2,0,L|384:216,3,46
308,200,433150,6,0,L|308:256,3,46
228,236,434650,6,0,L|228:292,3,46
148,276,435250,2,0,L|148:332,3,46
148,192,435850,2,0,L|148:136,3,46
224,152,436750,6,0,L|224:96,3,46
224,236,438250,6,0,L|224:292,3,46
304,276,438850,2,0,L|304:332,3,46
388,312,439450,2,0,L|388:368,3,46
388,228,440350,6,0,L|388:182,3,46
256,192,440800,12,0,443050,0:0:0:0:
201,92,452650,6,4,B|192:128|160:160|160:160|96:144|32:176|32:176|144:224|176:336|176:336|192:240|256:192|256:192|320:240|336:336|336:336|368:224|480:176|480:176|416:144|352:160|352:160|320:128|309:93,1,1207.50004606247
256,16,455050,6,4,B|224:80|256:144|256:144|208:208|128:192|128:192|160:304|256:336|256:336|352:320|397:228|397:228|256:256|256:256|319:223|343:161|343:161|394:56|542:127|480:240,1,1207.50004606247
436,328,457450,6,4,B|352:240|256:224|256:224|160:240|80:336|80:336|32:272|32:272|120:167|256:144|256:144|256:64|256:64|110:86|0:186|0:186|0:112,1,1207.50004606247
80,32,459850,6,4,B|104:128|80:240|80:240|144:336|256:352|256:352|368:336|432:240|432:240|400:160|400:160|325:266|256:272|256:272|256:195|256:195|281:180|299:161,1,1035.00003948212
216,96,461950,1,4,0:0:0:0:
432,68,462250,1,4,0:0:0:0:
400,160,463250,6,0,P|400:192|416:236,2,57.500002193451,0|0|0,0:0|0:0|0:0,0:0:0:0:
332,252,463550,2,0,P|351:277|391:302,2,57.500002193451,0|0|0,0:0|0:0|0:0,0:0:0:0:
331,366,463850,2,0,P|361:374|408:369,2,57.500002193451,0|0|0,0:0|0:0|0:0,0:0:0:0:
256,328,464150,2,0,P|225:319|178:324,2,57.500002193451
256,240,464450,5,0,0:0:0:0:
256,188,464550,1,0,0:0:0:0:
256,136,464650,1,4,0:0:0:0:
112,224,465350,6,0,P|112:192|96:148,2,57.500002193451
180,132,465650,2,0,P|161:107|121:82,2,57.500002193451
181,18,465950,2,0,P|150:9|103:14,2,57.500002193451
256,56,466250,2,0,P|286:64|333:59,2,57.500002193451
256,144,466550,5,0,0:0:0:0:
256,196,466650,1,0,0:0:0:0:
256,248,466750,1,0,0:0:0:0:
300,222,466850,1,0,0:0:0:0:
343,193,466950,1,0,0:0:0:0:
384,162,467050,1,4,0:0:0:0:
252,328,467350,5,12,0:0:0:0:
228,304,467425,1,8,0:0:0:0:
204,280,467500,1,8,0:0:0:0:
180,256,467575,1,8,0:0:0:0:
156,228,467650,1,8,0:0:0:0:
144,248,467725,1,0,0:0:0:0:
132,268,467800,1,0,0:0:0:0:
120,288,467875,1,0,0:0:0:0:
108,308,467950,5,12,0:0:0:0:
80,284,468025,1,8,0:0:0:0:
64,252,468100,1,8,0:0:0:0:
60,216,468175,1,8,0:0:0:0:
68,184,468250,1,8,0:0:0:0:
88,156,468325,1,0,0:0:0:0:
108,128,468400,1,0,0:0:0:0:
128,100,468475,1,0,0:0:0:0:
148,72,468550,5,12,0:0:0:0:
172,100,468625,1,8,0:0:0:0:
204,120,468700,1,8,0:0:0:0:
244,128,468775,1,8,0:0:0:0:
284,124,468850,1,8,0:0:0:0:
316,104,468925,1,0,0:0:0:0:
352,88,469000,1,0,0:0:0:0:
392,84,469075,1,0,0:0:0:0:
432,88,469150,5,12,0:0:0:0:
468,100,469225,1,8,0:0:0:0:
500,120,469300,1,8,0:0:0:0:
472,144,469375,1,8,0:0:0:0:
444,168,469450,1,12,0:0:0:0:
256,288,469750,6,0,L|256:348,4,43.1250016450883,4|0|0|0|0,0:0|0:0|0:0|0:0|0:0,0:0:0:0:
212,188,470350,6,0,L|180:156,3,43.1250016450883,4|0|0|0,0:0|0:0|0:0|0:0,0:0:0:0:
300,208,470650,2,0,L|332:240,3,43.1250016450883,4|0|0|0,0:0|0:0|0:0|0:0,0:0:0:0:
304,120,470950,2,0,L|272:88,3,43.1250016450883,4|0|0|0,0:0|0:0|0:0|0:0,0:0:0:0:
392,136,471250,2,0,L|424:168,3,43.1250016450883,4|0|0|0,0:0|0:0|0:0|0:0,0:0:0:0:
392,48,471550,2,0,L|360:16,3,43.1250016450883,4|0|0|0,0:0|0:0|0:0|0:0,0:0:0:0:
484,52,471850,5,12,0:0:0:0:
480,104,471925,1,0,0:0:0:0:
444,140,472000,1,8,0:0:0:0:
396,148,472075,1,0,0:0:0:0:
348,128,472150,1,8,0:0:0:0:
312,92,472225,1,0,0:0:0:0:
268,64,472300,1,8,0:0:0:0:
216,68,472375,1,0,0:0:0:0:
172,96,472450,1,8,0:0:0:0:
152,144,472525,1,0,0:0:0:0:
164,196,472600,1,8,0:0:0:0:
204,232,472675,1,0,0:0:0:0:
256,240,472750,1,8,0:0:0:0:
308,232,472825,1,0,0:0:0:0:
356,256,472900,1,8,0:0:0:0:
380,300,472975,1,0,0:0:0:0:
384,352,473050,5,8,0:0:0:0:
333,338,473125,1,0,0:0:0:0:
291,306,473200,1,8,0:0:0:0:
269,258,473275,1,0,0:0:0:0:
263,206,473350,1,8,0:0:0:0:
283,158,473425,1,0,0:0:0:0:
320,122,473500,1,8,0:0:0:0:
370,110,473575,1,0,0:0:0:0:
420,121,473650,6,0,L|484:157,3,57.5,8|0|0|0,0:0|0:0|0:0|0:0,0:0:0:0:
421,249,473950,2,0,L|357:285,3,57.5,8|0|0|0,0:0|0:0|0:0|0:0,0:0:0:0:
324,188,474250,5,12,0:0:0:0:
280,216,474325,1,0,0:0:0:0:
236,244,474400,1,8,0:0:0:0:
192,272,474475,1,0,0:0:0:0:
148,300,474550,1,8,0:0:0:0:
104,328,474625,1,0,0:0:0:0:
60,356,474700,5,8,0:0:0:0:
48,304,474775,1,0,0:0:0:0:
64,256,474850,1,8,0:0:0:0:
96,216,474925,1,0,0:0:0:0:
144,200,475000,1,8,0:0:0:0:
196,204,475075,1,0,0:0:0:0:
240,232,475150,1,8,0:0:0:0:
288,248,475225,1,0,0:0:0:0:
340,248,475300,1,8,0:0:0:0:
388,228,475375,1,0,0:0:0:0:
424,188,475450,1,8,0:0:0:0:
440,140,475525,1,0,0:0:0:0:
436,88,475600,1,8,0:0:0:0:
412,40,475675,1,0,0:0:0:0:
372,4,475750,5,8,0:0:0:0:
324,24,475825,1,0,0:0:0:0:
276,44,475900,1,8,0:0:0:0:
228,64,475975,1,0,0:0:0:0:
180,84,476050,6,0,L|116:56,3,57.5,8|0|0|0,0:0|0:0|0:0|0:0,0:0:0:0:
72,136,476350,2,0,L|8:164,3,57.5,8|0|0|0,0:0|0:0|0:0|0:0,0:0:0:0:
180,180,476650,5,12,0:0:0:0:
228,160,476725,1,0,0:0:0:0:
276,140,476800,1,0,0:0:0:0:
324,120,476875,1,0,0:0:0:0:
372,100,476950,1,8,0:0:0:0:
420,80,477025,1,0,0:0:0:0:
468,60,477100,5,0,0:0:0:0:
432,20,477175,1,0,0:0:0:0:
380,12,477250,1,8,0:0:0:0:
332,28,477325,1,0,0:0:0:0:
304,72,477400,1,0,0:0:0:0:
304,124,477475,1,0,0:0:0:0:
304,176,477550,1,8,0:0:0:0:
304,228,477625,1,0,0:0:0:0:
304,280,477700,1,0,0:0:0:0:
304,332,477775,1,0,0:0:0:0:
304,384,477850,5,8,0:0:0:0:
336,344,477925,1,0,0:0:0:0:
344,292,478000,1,0,0:0:0:0:
324,244,478075,1,0,0:0:0:0:
280,216,478150,1,8,0:0:0:0:
228,212,478225,1,0,0:0:0:0:
184,240,478300,1,0,0:0:0:0:
156,284,478375,1,0,0:0:0:0:
156,336,478450,6,0,L|228:328,3,57.5,8|0|0|0,0:0|0:0|0:0|0:0,0:0:0:0:
280,216,478750,2,0,L|352:224,3,57.5,8|0|0|0,0:0|0:0|0:0|0:0,0:0:0:0:
196,116,479050,5,12,0:0:0:0:
228,76,479125,1,0,0:0:0:0:
276,60,479200,1,0,0:0:0:0:
328,68,479275,1,0,0:0:0:0:
368,100,479350,1,8,0:0:0:0:
388,148,479425,1,0,0:0:0:0:
412,196,479500,1,0,0:0:0:0:
456,220,479575,1,0,0:0:0:0:
508,216,479650,5,8,0:0:0:0:
497,260,479725,1,0,0:0:0:0:
464,292,479800,1,0,0:0:0:0:
418,296,479875,1,0,0:0:0:0:
374,281,479950,1,8,0:0:0:0:
343,246,480025,1,0,0:0:0:0:
302,223,480100,1,0,0:0:0:0:
256,216,480175,1,0,0:0:0:0:
212,229,480250,1,8,0:0:0:0:
182,264,480325,1,0,0:0:0:0:
179,309,480400,1,0,0:0:0:0:
210,342,480475,1,0,0:0:0:0:
255,345,480550,1,8,0:0:0:0:
291,316,480625,1,0,0:0:0:0:
295,270,480700,1,0,0:0:0:0:
267,232,480775,1,0,0:0:0:0:
241,193,480850,6,0,L|236:136,3,57.5,8|0|0|0,0:0|0:0|0:0|0:0,0:0:0:0:
120,68,481150,2,0,L|115:11,3,57.5,8|0|0|0,0:0|0:0|0:0|0:0,0:0:0:0:
25,78,481450,5,12,0:0:0:0:
50,128,481525,1,0,0:0:0:0:
96,153,481600,1,8,0:0:0:0:
151,153,481675,1,0,0:0:0:0:
201,136,481750,1,8,0:0:0:0:
239,94,481825,1,0,0:0:0:0:
285,65,481900,5,8,0:0:0:0:
340,61,481975,1,0,0:0:0:0:
390,78,482050,1,8,0:0:0:0:
424,120,482125,1,0,0:0:0:0:
432,174,482200,1,8,0:0:0:0:
419,229,482275,1,0,0:0:0:0:
382,271,482350,1,8,0:0:0:0:
331,287,482425,1,0,0:0:0:0:
277,275,482500,1,8,0:0:0:0:
239,237,482575,1,0,0:0:0:0:
189,212,482650,1,8,0:0:0:0:
134,212,482725,1,0,0:0:0:0:
84,229,482800,1,8,0:0:0:0:
42,262,482875,1,0,0:0:0:0:
25,313,482950,5,8,0:0:0:0:
80,308,483025,1,0,0:0:0:0:
134,304,483100,1,8,0:0:0:0:
189,300,483175,1,0,0:0:0:0:
243,296,483250,6,0,L|315:292,3,57.5,8|0|0|0,0:0|0:0|0:0|0:0,0:0:0:0:
323,191,483550,2,0,L|394:187,3,57.5,8|0|0|0,0:0|0:0|0:0|0:0,0:0:0:0:
461,287,483850,5,12,0:0:0:0:
492,246,483925,1,0,0:0:0:0:
505,195,484000,1,8,0:0:0:0:
507,142,484075,1,0,0:0:0:0:
484,95,484150,1,8,0:0:0:0:
448,58,484225,1,0,0:0:0:0:
390,44,484300,5,8,0:0:0:0:
357,86,484375,1,0,0:0:0:0:
327,132,484450,1,8,0:0:0:0:
298,178,484525,1,0,0:0:0:0:
268,224,484600,1,8,0:0:0:0:
239,271,484675,1,0,0:0:0:0:
210,317,484750,5,8,0:0:0:0:
155,321,484825,1,0,0:0:0:0:
101,308,484900,1,8,0:0:0:0:
59,275,484975,1,0,0:0:0:0:
33,229,485050,1,8,0:0:0:0:
80,199,485125,1,0,0:0:0:0:
130,182,485200,1,8,0:0:0:0:
184,178,485275,1,0,0:0:0:0:
239,191,485350,1,8,0:0:0:0:
289,212,485425,1,0,0:0:0:0:
331,245,485500,1,8,0:0:0:0:
361,292,485575,1,0,0:0:0:0:
369,346,485650,6,0,L|308:350,3,57.5,8|0|0|0,0:0|0:0|0:0|0:0,0:0:0:0:
491,266,485950,2,0,L|431:262,3,57.5,8|0|0|0,0:0|0:0|0:0|0:0,0:0:0:0:
415,153,486250,5,12,0:0:0:0:
382,126,486325,1,0,0:0:0:0:
344,105,486400,1,0,0:0:0:0:
303,90,486475,1,0,0:0:0:0:
261,83,486550,1,8,0:0:0:0:
218,84,486625,1,0,0:0:0:0:
175,91,486700,1,0,0:0:0:0:
135,107,486775,1,0,0:0:0:0:
101,132,486850,5,8,0:0:0:0:
130,166,486925,1,0,0:0:0:0:
159,195,487000,1,0,0:0:0:0:
189,224,487075,1,0,0:0:0:0:
218,254,487150,1,8,0:0:0:0:
247,283,487225,1,0,0:0:0:0:
277,313,487300,1,0,0:0:0:0:
306,342,487375,1,0,0:0:0:0:
336,371,487450,5,12,0:0:0:0:
336,325,487525,1,0,0:0:0:0:
325,280,487600,1,0,0:0:0:0:
294,245,487675,1,0,0:0:0:0:
253,223,487750,1,8,0:0:0:0:
207,218,487825,1,0,0:0:0:0:
161,227,487900,1,0,0:0:0:0:
126,257,487975,1,0,0:0:0:0:
105,297,488050,5,8,0:0:0:0:
156,300,488125,1,0,0:0:0:0:
202,276,488200,1,0,0:0:0:0:
227,230,488275,1,0,0:0:0:0:
236,179,488350,1,8,0:0:0:0:
220,129,488425,1,0,0:0:0:0:
180,95,488500,1,0,0:0:0:0:
128,86,488575,1,0,0:0:0:0:
56,92,488650,5,12,0:0:0:0:
92,156,488725,1,8,0:0:0:0:
132,220,488800,1,8,0:0:0:0:
172,284,488875,1,8,0:0:0:0:
212,348,488950,1,8,0:0:0:0:
286,347,489025,1,8,0:0:0:0:
350,308,489100,1,8,0:0:0:0:
378,238,489175,1,8,0:0:0:0:
367,163,489250,1,8,0:0:0:0:
317,107,489325,1,8,0:0:0:0:
243,92,489400,1,8,0:0:0:0:
172,116,489475,1,8,0:0:0:0:
124,180,489550,5,8,0:0:0:0:
152,228,489625,1,0,0:0:0:0:
184,276,489700,1,0,0:0:0:0:
216,324,489775,1,0,0:0:0:0:
260,256,489850,5,12,0:0:0:0:
264,176,489925,1,8,0:0:0:0:
212,116,490000,1,8,0:0:0:0:
132,120,490075,1,8,0:0:0:0:
78,169,490150,1,8,0:0:0:0:
108,176,490225,1,0,0:0:0:0:
136,184,490300,1,0,0:0:0:0:
164,192,490375,1,0,0:0:0:0:
192,200,490450,1,8,0:0:0:0:
220,208,490525,1,0,0:0:0:0:
248,216,490600,1,0,0:0:0:0:
276,224,490675,1,0,0:0:0:0:
304,232,490750,5,12,0:0:0:0:
332,224,490825,1,0,0:0:0:0:
360,216,490900,1,0,0:0:0:0:
388,208,490975,1,0,0:0:0:0:
416,200,491050,6,0,P|444:132|368:160,1,172.5,12|0,0:0|0:0,0:0:0:0:
304,156,491350,2,0,B|191:122|191:122|80:160,1,230
24,284,491800,2,0,B|160:232|160:232|196:244,1,172.5,4|0,0:0|0:0,0:0:0:0:
263,265,492100,2,0,B|356:296|356:296|408:296|436:236|424:200,1,230,4|0,0:0|0:0,0:0:0:0:
388,128,492475,5,0,0:0:0:0:
368,108,492550,1,0,0:0:0:0:
360,80,492625,1,0,0:0:0:0:
372,52,492700,1,0,0:0:0:0:
396,36,492775,1,0,0:0:0:0:
424,36,492850,2,0,P|464:84|432:136,1,115,4|0,0:0|0:0,0:0:0:0:
276,216,493150,2,0,L|264:100,1,115,4|0,0:0|0:0,0:0:0:0:
140,16,493450,6,0,B|116:56|124:96|124:96|92:120|92:120|116:164|120:220|120:220|24:280|128:408|208:320,1,460,4|0,0:0|0:0,0:0:0:0:
236,288,494150,1,0,0:0:0:0:
292,264,494250,1,0,0:0:0:0:
352,268,494350,1,0,0:0:0:0:
404,300,494450,1,0,0:0:0:0:
464,296,494550,1,0,0:0:0:0:
507,250,494650,6,0,B|480:180|388:160|332:212|332:212|300:180|300:180|264:204|264:204|132:236|132:32|272:72,1,575,4|0,0:0|0:0,0:0:0:0:
408,44,495550,1,4,0:0:0:0:
236,136,495700,1,0,0:0:0:0:
412,268,495850,6,4,B|384:336|320:344|320:344|292:308|248:292|248:292|204:304|172:344|172:344|88:328|73:286|73:286|120:216|184:196|184:196|120:180|84:124,1,690
176,12,496900,1,0,0:0:0:0:
260,184,497050,6,0,B|296:192|356:144|352:74|352:74|432:80|432:80|432:168|364:232,1,402.5,4|0,0:0|0:0,0:0:0:0:
344,244,497650,2,0,L|352:300,3,57.5
268,268,497950,2,0,L|276:324,3,57.5
192,288,498250,6,0,B|183:221|176:160|176:160|150:142|128:112|128:112|168:40|168:40|204:88|252:112|252:112|260:184|260:184|308:160|308:160|336:183|377:182,1,575,4|0,0:0|0:0,0:0:0:0:
376,68,499150,5,0,0:0:0:0:
256,256,499300,1,0,0:0:0:0:
136,68,499450,5,4,0:0:0:0:
356,152,499600,1,0,0:0:0:0:
156,152,499750,1,0,0:0:0:0:
308,40,499900,1,0,0:0:0:0:
308,256,500050,5,4,0:0:0:0:
204,40,500200,1,0,0:0:0:0:
204,256,500350,1,4,0:0:0:0:
256,104,500500,5,0,0:0:0:0:
256,320,500650,2,0,L|256:380,7,57.5,4|0|0|0|0|0|0|0,0:0|0:0|0:0|0:0|0:0|0:0|0:0|0:0,0:0:0:0:
256,236,501250,5,0,0:0:0:0:
128,284,501400,2,0,L|128:344,5,57.5,4|0|0|0|0|0,0:0|0:0|0:0|0:0|0:0|0:0,0:0:0:0:
128,200,501850,5,0,0:0:0:0:
256,64,502000,2,0,L|256:4,5,57.5,4|0|0|0|0|0,0:0|0:0|0:0|0:0|0:0|0:0,0:0:0:0:
256,148,502450,2,0,L|256:208,3,57.5,4|0|0|0,0:0|0:0|0:0|0:0,0:0:0:0:
340,176,502750,2,0,L|340:236,3,57.5,4|0|0|0,0:0|0:0|0:0|0:0,0:0:0:0:
424,204,503050,6,0,L|424:320,1,115
500,168,503350,2,0,P|440:120|388:128,1,115,4|0,0:0|0:0,0:0:0:0:
232,172,503650,2,0,P|175:166|137:125,1,115,0|0,0:0|0:0,0:0:0:0:
248,20,503950,1,4,0:0:0:0:
208,264,504250,6,0,P|144:312|96:304,1,115,4|0,0:0|0:0,0:0:0:0:
56,164,504550,2,0,P|120:116|168:124,1,115,0|0,0:0|0:0,0:0:0:0:
288,184,504850,1,4,0:0:0:0:
480,300,505150,2,0,B|490:271|490:271|473:245|473:245|504:196|478:139,1,172.5,4|0,0:0|0:0,0:0:0:0:
432,72,505450,6,0,P|436:32|460:0,2,76.6666666666667
372,128,505750,2,0,P|350:94|349:54,2,76.6666666666667
360,208,506050,2,0,P|322:194|296:163,2,76.6666666666667
400,280,506350,2,0,P|361:292|322:283,2,76.6666666666667
444,208,506650,5,4,0:0:0:0:
441,189,506725,1,0,0:0:0:0:
436,170,506800,1,0,0:0:0:0:
429,152,506875,1,0,0:0:0:0:
419,136,506950,1,4,0:0:0:0:
407,121,507025,1,0,0:0:0:0:
393,108,507100,1,0,0:0:0:0:
377,97,507175,1,0,0:0:0:0:
360,88,507250,1,4,0:0:0:0:
342,81,507325,1,0,0:0:0:0:
324,77,507400,1,0,0:0:0:0:
304,76,507475,1,0,0:0:0:0:
285,77,507550,5,4,0:0:0:0:
280,92,507625,1,0,0:0:0:0:
276,108,507700,1,0,0:0:0:0:
272,124,507775,1,0,0:0:0:0:
268,140,507850,2,0,B|260:200|292:244|292:244|256:264|240:292|240:292|216:272|180:272|180:272|176:216|144:180,1,345,4|0,0:0|0:0,0:0:0:0:
8,112,508450,2,0,P|4:176|28:228,1,115,0|0,0:0|0:0,0:0:0:0:
144,100,508750,1,4,0:0:0:0:
76,280,509050,6,4,B|140:320|204:296|204:296|224:352|224:352|284:352|284:352|304:296|304:296|388:328|440:296|440:296|420:232|332:216|332:216|376:188|392:136,1,690
256,64,510250,5,4,0:0:0:0:
256,320,510700,1,4,0:0:0:0:
160,92,511150,1,4,0:0:0:0:
352,292,511600,1,4,0:0:0:0:
323,122,512050,1,4,0:0:0:0:
188,261,512350,1,4,0:0:0:0:
352,92,512650,5,4,0:0:0:0:
160,292,513100,1,4,0:0:0:0:
408,192,513550,1,4,0:0:0:0:
104,192,514000,1,4,0:0:0:0:
256,104,514450,1,4,0:0:0:0:
348,264,514750,1,4,0:0:0:0:
164,264,515050,5,4,0:0:0:0:
255,25,515500,1,4,0:0:0:0:
415,303,515950,1,4,0:0:0:0:
96,303,516400,1,4,0:0:0:0:
348,228,516850,1,4,0:0:0:0:
164,228,517150,1,4,0:0:0:0:
256,68,517450,5,4,0:0:0:0:
256,336,517900,1,4,0:0:0:0:
180,52,518350,1,4,0:0:0:0:
256,256,518800,1,4,0:0:0:0:
332,52,519250,1,4,0:0:0:0:
208,140,519550,1,4,0:0:0:0:
336,224,519850,5,4,0:0:0:0:
136,84,520300,1,4,0:0:0:0:
136,300,520750,1,4,0:0:0:0:
376,84,521200,1,4,0:0:0:0:
376,300,521650,1,4,0:0:0:0:
256,192,521950,1,4,0:0:0:0:
136,300,522250,1,4,0:0:0:0:
136,300,522400,1,4,0:0:0:0:
