osu file format v14

[General]
AudioFilename: audio.mp3
AudioLeadIn: 0
PreviewTime: 61239
Countdown: 0
SampleSet: Soft
StackLeniency: 0.7
Mode: 0
LetterboxInBreaks: 0
WidescreenStoryboard: 0

[Editor]
Bookmarks: 16647,44864
DistanceSpacing: 1
BeatDivisor: 4
GridSize: 4
TimelineZoom: 2.4

[Metadata]
Title:Shuwarin*Dreamin
TitleUnicode:しゅわりん☆どり~みん
Artist:Pastel*palettes
ArtistUnicode:Pastel*palettes
Creator:scanter
Version:Sharp Sensation
Source:BanG Dream!
Tags:丸山彩 Maruyama Aya 大和麻弥 Yamato Maya 若宮イヴ Wakamiya Eve 白鷺千聖 Shirasagi Chisato 氷川日菜 Hikawa Hina パスパレ Paspale パステルパレット ぱすてるぱれっと Anime Game Girls Band Party ガルパ! Garupa Bandori バンドリ! ガールズバンドパーティ Shuwarin Dreamin
BeatmapID:1268920
BeatmapSetID:600512

[Difficulty]
HPDrainRate:6
CircleSize:4
OverallDifficulty:8.4
ApproachRate:9.3
SliderMultiplier:2
SliderTickRate:1

[Events]
//Background and Video events
0,0,"563Aya-Maruyama-Pure-wKdlTH.png",0,0
Video,0,"asdf.avi"
//Break Periods
//Storyboard Layer 0 (Background)
//Storyboard Layer 1 (Fail)
//Storyboard Layer 2 (Pass)
//Storyboard Layer 3 (Foreground)
//Storyboard Sound Samples

[TimingPoints]
186,341.199886266705,4,2,2,50,1,0
1550,-166.666666666667,4,2,2,50,0,0
7009,-166.666666666667,4,2,2,60,0,0
7095,-166.666666666667,4,2,1,60,0,0
8374,-166.666666666667,4,2,1,40,0,0
9568,-100,4,2,2,70,0,0
12127,-83.3333333333333,4,2,2,70,0,0
12469,-100,4,2,1,90,0,1
12554,-100,4,2,1,90,0,0
26117,-111.111111111111,4,2,1,60,0,0
32429,-83.3333333333333,4,2,1,80,0,0
32941,-111.111111111111,4,2,1,60,0,0
33794,-83.3333333333333,4,2,1,80,0,0
34305,-111.111111111111,4,2,1,60,0,0
35500,-90.9090909090909,4,2,1,80,0,0
36353,-83.3333333333333,4,2,1,80,0,0
36694,-76.9230769230769,4,2,1,80,0,0
37035,-111.111111111111,4,2,1,70,0,0
43347,-83.3333333333333,4,2,1,80,0,0
43859,-111.111111111111,4,2,1,70,0,0
44712,-83.3333333333333,4,2,1,80,0,0
45224,-111.111111111111,4,2,1,70,0,0
47953,-125,4,2,1,60,0,0
52048,-83.3333333333333,4,2,1,70,0,0
53413,-100,4,2,1,70,0,0
54436,-83.3333333333333,4,2,1,70,0,0
55119,-100,4,2,1,70,0,0
55972,-100,4,2,1,75,0,0
58701,-90.9090909090909,4,2,1,80,0,0
61601,-90.9090909090909,4,2,1,90,0,1
67914,-83.3333333333333,4,2,1,90,0,1
68425,-90.9090909090909,4,2,1,90,0,1
69278,-83.3333333333333,4,2,1,90,0,1
69790,-90.9090909090909,4,2,1,90,0,1
72435,-90.9090909090909,4,2,1,90,0,0
72520,-90.9090909090909,4,2,1,90,0,1
77979,-100,4,2,1,80,0,1
79344,-111.111111111111,4,2,1,60,0,0
80538,-100,4,2,2,70,0,0
83097,-83.3333333333333,4,2,2,80,0,0
83438,-100,4,2,1,90,0,1
83524,-100,4,2,1,90,0,0
95551,-100,4,2,1,70,0,0
98792,-100,4,2,1,30,0,0

[Colours]
Combo1 : 192,192,192
Combo2 : 128,255,255
Combo3 : 128,255,128
Combo4 : 255,128,192
Combo5 : 128,128,255

[HitObjects]
171,313,1380,5,2,0:0:0:0:
171,313,1550,6,0,B|258:291|260:350|358:313,1,179.999994506836,2|2,0:0|0:0,0:0:0:0:
410,251,2233,1,2,0:0:0:0:
296,112,2744,1,2,0:0:0:0:
296,112,2915,6,0,B|255:107|255:107|214:122|214:122|165:115,1,119.999996337891,2|2,0:0|0:0,0:0:0:0:
72,207,3427,2,0,B|106:211|106:211|147:196|147:196|188:201,1,119.999996337891,2|2,0:0|0:0,0:0:0:0:
206,37,3939,1,2,0:0:0:0:
272,194,4109,1,2,0:0:0:0:
96,126,4280,6,0,P|85:80|129:12,1,119.999996337891,2|2,0:0|0:0,0:0:0:0:
272,194,4962,2,0,P|283:240|239:308,1,119.999996337891,2|2,0:0|0:0,0:0:0:0:
228,95,5645,6,0,B|271:89|271:89|366:112,1,119.999996337891,2|2,0:0|0:0,0:0:0:0:
150,304,6327,2,0,B|107:310|107:310|12:287,1,119.999996337891,2|2,0:0|0:0,0:0:0:0:
174,21,7009,6,0,P|252:7|311:149,1,239.999992675781,6|0,0:0|0:0,0:0:0:0:
261,304,7862,1,2,0:0:0:0:
436,196,8033,1,8,0:0:0:0:
234,104,8204,1,8,0:0:0:0:
234,104,8289,1,8,0:0:0:0:
234,104,8374,5,12,0:0:0:0:
180,267,9568,6,0,P|131:279|78:260,1,100,6|0,0:0|0:0,0:0:0:0:
261,191,9910,1,2,0:0:0:0:
181,346,10080,2,0,P|122:354|76:344,1,100,6|0,0:0|0:0,0:0:0:0:
214,101,10421,2,0,P|263:89|316:108,1,100,6|0,0:0|0:0,0:0:0:0:
458,300,10763,1,6,0:0:0:0:
397,127,10933,6,0,L|392:227,1,100,6|0,0:0|0:0,0:0:0:0:
483,279,11274,1,2,0:0:0:0:
422,106,11445,2,0,L|417:206,1,100,6|0,0:0|0:0,0:0:0:0:
279,314,11786,2,0,P|326:329|374:315,1,100,4|0,0:0|0:0,0:0:0:0:
127,111,12127,6,0,L|125:147,6,29.9999990844727,2|0|0|0|0|0|0,0:0|0:0|0:0|0:0|0:0|0:0|0:0,0:0:0:0:
101,167,12469,6,0,L|43:160,1,50,6|0,0:0|0:0,0:0:0:0:
184,211,12639,2,0,L|242:204,1,50
90,195,12810,6,0,L|32:188,1,50,8|0,0:0|0:0,0:0:0:0:
173,239,12980,2,0,L|280:226,1,100,0|2,0:0|0:0,0:0:0:0:
391,155,13322,1,0,0:0:0:0:
427,330,13492,1,8,0:0:0:0:
320,90,13663,6,0,P|410:61|478:127,1,200,6|2,0:0|0:0,0:0:0:0:
285,199,14175,2,0,B|180:172|180:172|235:150,1,150,8|0,0:0|0:0,0:0:0:0:
312,226,14516,2,0,B|341:330|341:330|295:293,1,150,2|0,0:0|0:0,0:0:0:0:
320,187,14857,2,0,B|395:109|395:109|386:168,1,150,8|0,0:0|0:0,0:0:0:0:
282,267,15198,6,0,P|263:255|240:221,1,50,6|0,0:0|0:0,0:0:0:0:
175,273,15369,2,0,P|166:252|166:211,1,50
85,215,15539,6,0,P|89:193|113:159,1,50,8|0,0:0|0:0,0:0:0:0:
47,115,15710,2,0,P|67:99|145:100,1,100,0|2,0:0|0:0,0:0:0:0:
310,265,16051,2,0,P|323:321|305:374,1,100,0|8,0:0|0:0,0:0:0:0:
33,321,16392,6,0,B|133:358|133:280|237:319,1,200,6|2,0:0|0:0,0:0:0:0:
127,58,16904,1,8,0:0:0:0:
82,235,17075,1,2,0:0:0:0:
269,185,17245,1,8,0:0:0:0:
304,188,17331,1,8,0:0:0:0:
338,191,17416,1,2,0:0:0:0:
372,194,17501,1,8,0:0:0:0:
407,198,17587,2,0,L|462:203,1,50,4|4,3:0|3:0,0:0:0:0:
329,274,17757,2,0,L|297:319,1,50,2|2,0:0|0:0,0:0:0:0:
347,108,17928,6,0,L|305:17,1,100,6|0,0:0|0:0,0:0:0:0:
512,100,18269,1,8,0:0:0:0:
501,284,18440,2,0,P|456:298|405:278,1,100,0|2,0:0|0:0,0:0:0:0:
175,181,18781,2,0,P|223:167|269:185,1,100,2|8,0:0|0:0,0:0:0:0:
510,371,19122,6,0,P|442:381|351:340,1,150,6|0,0:0|0:0,0:0:0:0:
339,273,19463,2,0,L|338:163,1,100,2|8,0:0|0:0,0:0:0:0:
397,90,19804,1,2,0:0:0:0:
218,258,19975,2,0,P|161:272|104:237,1,100,2|0,0:0|0:0,0:0:0:0:
172,186,20231,1,0,0:0:0:0:
172,186,20316,2,0,L|176:107,1,50,8|0,0:0|0:0,0:0:0:0:
75,324,20487,2,0,L|82:374,1,50,2|0,0:0|0:0,0:0:0:0:
218,258,20657,6,0,P|275:244|332:279,1,100,12|2,0:0|0:0,0:0:0:0:
510,371,20999,1,8,0:0:0:0:
398,144,21169,1,2,0:0:0:0:
357,347,21340,1,8,0:0:0:0:
488,169,21510,1,2,0:0:0:0:
247,99,21681,1,8,0:0:0:0:
373,264,21852,1,2,0:0:0:0:
416,57,22022,5,8,0:0:0:0:
284,240,22193,1,2,0:0:0:0:
181,51,22363,1,8,0:0:0:0:
398,144,22534,1,2,0:0:0:0:
195,216,22705,1,8,0:0:0:0:
291,4,22875,1,2,0:0:0:0:
373,264,23046,1,8,0:0:0:0:
116,132,23216,6,0,P|74:73|81:0,1,150,6|0,0:0|0:0,0:0:0:0:
196,181,23558,2,0,P|201:206|194:241,1,50,2|0,0:0|0:0,0:0:0:0:
12,126,23728,2,0,P|-6:73|-1:9,1,100,8|0,0:0|0:0,0:0:0:0:
172,47,24069,1,8,0:0:0:0:
204,37,24155,1,8,0:0:0:0:
238,28,24240,1,2,0:0:0:0:
272,19,24325,1,8,0:0:0:0:
306,9,24411,1,8,0:0:0:0:
129,227,24581,6,0,L|15:221,1,100,12|0,0:0|0:0,0:0:0:0:
383,157,24922,2,0,L|497:163,1,100,12|0,0:0|0:0,0:0:0:0:
203,36,25264,2,0,B|192:74|192:74|198:136,1,100,12|0,0:0|0:0,0:0:0:0:
447,384,25605,2,0,B|459:347|459:347|453:285,1,100,12|0,0:0|0:0,0:0:0:0:
51,312,26117,6,0,P|125:350|213:296,1,179.999994506836,6|8,0:0|0:0,0:0:0:0:
249,220,26628,1,2,0:0:0:0:
128,253,26799,2,0,L|132:351,1,89.9999972534181,2|0,0:0|0:0,0:0:0:0:
249,220,27140,2,0,L|253:122,1,89.9999972534181,8|0,0:0|0:0,0:0:0:0:
38,204,27481,6,0,L|46:400,1,179.999994506836,2|8,0:0|0:0,0:0:0:0:
152,152,27993,1,0,0:0:0:0:
305,302,28164,2,0,P|347:307|395:279,1,89.9999972534181,2|2,0:0|0:0,0:0:0:0:
249,220,28505,2,0,P|207:215|159:243,1,89.9999972534181,8|0,0:0|0:0,0:0:0:0:
278,375,28846,6,0,P|373:381|452:334,1,179.999994506836,2|8,0:0|0:0,0:0:0:0:
332,227,29358,1,0,0:0:0:0:
350,110,29529,2,0,B|353:199,1,89.9999972534181,2|2,0:0|0:0,0:0:0:0:
382,82,29870,1,8,0:0:0:0:
409,271,30040,6,0,P|351:314|248:256,1,179.999994506836,2|2,0:0|0:0,0:0:0:0:
422,165,30552,2,0,L|520:165,1,89.9999972534181,8|0,0:0|0:0,0:0:0:0:
274,174,30893,2,0,L|176:174,1,89.9999972534181,2|0,0:0|0:0,0:0:0:0:
418,77,31235,2,0,L|516:77,1,89.9999972534181,8|0,0:0|0:0,0:0:0:0:
292,253,31576,6,0,B|253:290|194:289|158:251|158:251|166:280,1,179.999994506836,6|8,0:0|0:0,0:0:0:0:
226,182,32088,1,0,0:0:0:0:
309,349,32258,1,0,0:0:0:0:
418,77,32429,6,0,L|422:5,1,59.9999981689454,8|0,0:0|0:0,0:0:0:0:
397,218,32599,2,0,L|401:283,1,59.9999981689454,8|0,0:0|0:0,0:0:0:0:
461,156,32770,1,0,0:0:0:0:
250,150,32941,6,0,L|155:154,1,89.9999972534181,6|0,0:0|0:0,0:0:0:0:
182,55,33282,1,8,0:0:0:0:
272,239,33452,2,0,L|177:243,1,89.9999972534181,2|0,0:0|0:0,0:0:0:0:
61,72,33794,6,0,P|57:36|68:-1,1,59.9999981689454,8|0,0:0|0:0,0:0:0:0:
96,236,33964,2,0,P|102:281|79:342,1,59.9999981689454,8|0,0:0|0:0,0:0:0:0:
76,156,34135,1,0,0:0:0:0:
272,239,34305,6,0,B|318:250|318:250|377:227,1,89.9999972534181,6|0,0:0|0:0,0:0:0:0:
400,142,34647,1,8,0:0:0:0:
277,316,34817,2,0,B|323:324|323:324|364:311,1,89.9999972534181,0|2,0:0|0:0,0:0:0:0:
302,152,35158,1,8,0:0:0:0:
302,152,35244,1,8,0:0:0:0:
302,152,35329,1,8,0:0:0:0:
491,320,35500,6,0,P|433:350|379:336,1,110.000003356934,6|0,0:0|0:0,0:0:0:0:
423,111,35841,1,2,0:0:0:0:
483,298,36011,2,0,P|429:326|381:314,1,110.000003356934,12|0,0:0|0:0,0:0:0:0:
302,152,36353,2,0,L|294:22,1,119.999996337891,6|0,0:0|0:0,0:0:0:0:
93,239,36694,6,0,L|85:371,1,129.999994049073,12|0,0:0|0:0,0:0:0:0:
267,260,37035,6,0,P|219:276|172:258,1,89.9999972534181,6|0,0:0|0:0,0:0:0:0:
60,156,37376,1,8,0:0:0:0:
60,156,37547,1,0,0:0:0:0:
152,345,37717,1,0,0:0:0:0:
152,345,37888,1,2,0:0:0:0:
213,154,38059,1,8,0:0:0:0:
27,259,38229,1,0,0:0:0:0:
225,295,38400,5,2,0:0:0:0:
225,295,38570,1,0,0:0:0:0:
165,84,38741,1,8,0:0:0:0:
165,84,38912,1,2,0:0:0:0:
115,256,39082,1,0,0:0:0:0:
281,211,39253,1,2,0:0:0:0:
185,186,39423,1,8,0:0:0:0:
306,307,39594,1,2,0:0:0:0:
141,352,39765,5,2,0:0:0:0:
141,352,39935,1,0,0:0:0:0:
95,165,40106,1,8,0:0:0:0:
95,165,40276,1,0,0:0:0:0:
306,307,40447,1,2,0:0:0:0:
119,170,40618,1,2,0:0:0:0:
286,86,40788,1,8,0:0:0:0:
143,175,40959,1,2,0:0:0:0:
221,337,41129,5,0,0:0:0:0:
377,102,41300,2,0,L|379:48,1,44.999998626709,8|0,0:0|0:0,0:0:0:0:
447,228,41471,2,0,L|451:326,1,89.9999972534181,12|0,0:0|0:0,0:0:0:0:
149,99,41812,2,0,L|152:9,1,89.9999972534181,12|2,0:0|0:0,0:0:0:0:
278,295,42153,2,0,L|282:393,1,89.9999972534181,12|2,0:0|0:0,0:0:0:0:
76,168,42494,6,0,P|143:201|237:146,1,179.999994506836,6|8,0:0|0:0,0:0:0:0:
149,99,43006,1,0,0:0:0:0:
83,276,43177,1,0,0:0:0:0:
255,76,43347,2,0,L|259:17,1,59.9999981689454,8|0,0:0|0:0,0:0:0:0:
348,223,43518,2,0,L|352:282,1,59.9999981689454,8|0,0:0|0:0,0:0:0:0:
410,147,43688,1,0,0:0:0:0:
414,350,43859,6,0,P|367:373|308:363,1,89.9999972534181,6|0,0:0|0:0,0:0:0:0:
313,131,44200,1,8,0:0:0:0:
352,282,44371,2,0,P|307:282|268:303,1,89.9999972534181,2|0,0:0|0:0,0:0:0:0:
62,176,44712,6,0,P|54:143|65:105,1,59.9999981689454,8|0,0:0|0:0,0:0:0:0:
170,326,44883,2,0,P|178:359|167:397,1,59.9999981689454,8|0,0:0|0:0,0:0:0:0:
120,250,45053,1,2,0:0:0:0:
272,64,45224,6,0,P|237:51|175:57,1,89.9999972534181,6|0,0:0|0:0,0:0:0:0:
302,184,45565,2,0,P|337:197|399:191,1,89.9999972534181,8|0,0:0|0:0,0:0:0:0:
223,140,45906,2,0,P|186:146|135:182,1,89.9999972534181,2|0,0:0|0:0,0:0:0:0:
383,286,46247,2,0,P|419:279|470:243,1,89.9999972534181,8|0,0:0|0:0,0:0:0:0:
223,235,46589,5,6,0:0:0:0:
358,107,46759,1,8,0:0:0:0:
358,107,46845,1,8,0:0:0:0:
358,107,46930,1,8,0:0:0:0:
292,332,47100,1,2,0:0:0:0:
262,127,47271,1,8,0:0:0:0:
297,310,47442,1,2,0:0:0:0:
431,180,47612,1,8,0:0:0:0:
302,288,47783,1,2,0:0:0:0:
159,188,47953,6,0,P|73:229|11:203,1,160,6|8,0:0|0:0,0:0:0:0:
80,134,48465,1,2,0:0:0:0:
80,134,48636,1,2,0:0:0:0:
472,303,48977,1,8,0:0:0:0:
392,355,49148,6,0,B|310:384|311:335|231:361,1,160,2|0,0:0|0:0,0:0:0:0:
82,263,49659,1,8,0:0:0:0:
140,348,49830,1,2,0:0:0:0:
140,348,50001,1,2,0:0:0:0:
411,81,50342,2,0,L|490:68,1,80,8|0,0:0|0:0,0:0:0:0:
332,139,50683,6,0,L|154:111,1,160,2|8,0:0|0:0,0:0:0:0:
81,98,51195,1,2,0:0:0:0:
81,98,51365,1,2,0:0:0:0:
318,40,51707,1,8,0:0:0:0:
245,374,52048,6,0,P|227:319|247:261,1,119.999996337891,6|0,0:0|0:0,0:0:0:0:
345,124,52389,2,0,P|364:179|346:235,1,119.999996337891,6|0,0:0|0:0,0:0:0:0:
189,332,52730,2,0,P|201:275|247:235,1,119.999996337891,6|0,0:0|0:0,0:0:0:0:
400,165,53071,2,0,P|389:223|345:263,1,119.999996337891,6|0,0:0|0:0,0:0:0:0:
119,104,53413,6,0,B|188:116|188:116|236:158|236:158|305:169,1,200,6|8,0:0|0:0,0:0:0:0:
145,206,53924,1,2,0:0:0:0:
21,116,54095,2,0,P|32:58|71:18,1,100,2|0,0:0|0:0,0:0:0:0:
280,71,54436,5,8,0:0:0:0:
133,232,54607,1,2,0:0:0:0:
364,122,54777,2,0,P|378:79|353:5,1,119.999996337891,2|0,0:0|0:0,0:0:0:0:
236,186,55119,2,0,P|222:229|242:299,1,100,8|0,0:0|0:0,0:0:0:0:
323,237,55460,1,2,0:0:0:0:
192,88,55630,1,2,0:0:0:0:
323,237,55801,1,8,0:0:0:0:
152,334,55972,6,0,P|112:344|40:316,1,100,12|0,0:0|0:0,0:0:0:0:
236,186,56313,1,12,0:0:0:0:
148,369,56483,2,0,P|108:379|36:351,1,100,12|0,0:0|0:0,0:0:0:0:
236,186,56825,2,0,P|276:176|348:204,1,100,12|0,0:0|0:0,0:0:0:0:
252,332,57166,1,12,0:0:0:0:
115,157,57336,6,0,L|111:42,1,100,12|0,0:0|0:0,0:0:0:0:
282,307,57678,1,12,0:0:0:0:
145,132,57848,2,0,L|141:17,1,100,12|0,0:0|0:0,0:0:0:0:
216,221,58189,1,4,0:0:0:0:
76,274,58360,1,2,0:0:0:0:
233,130,58531,1,8,0:0:0:0:
382,270,58701,6,0,P|436:286|497:263,1,110.000003356934,6|0,0:0|0:0,0:0:0:0:
436,132,59042,2,0,L|433:187,1,55.0000016784668,2|0,0:0|0:0,0:0:0:0:
389,379,59213,2,0,L|381:269,1,110.000003356934,12|0,0:0|0:0,0:0:0:0:
216,134,59554,1,8,0:0:0:0:
433,186,59725,1,2,0:0:0:0:
238,302,59895,1,8,0:0:0:0:
137,80,60066,6,0,P|211:39|240:43,1,110.000003356934,12|0,0:0|0:0,0:0:0:0:
381,269,60407,2,0,P|347:275|310:263,1,55.0000016784668,12|0,0:0|0:0,0:0:0:0:
216,134,60578,2,0,P|280:136|322:170,1,110.000003356934,12|0,0:0|0:0,0:0:0:0:
218,384,60919,1,12,0:0:0:0:
379,85,61431,1,0,0:0:0:0:
230,236,61601,6,0,B|118:277|120:183|2:230,1,220.000006713867,6|8,0:0|0:0,0:0:0:0:
179,144,62113,1,2,0:0:0:0:
65,312,62284,2,0,P|76:350|171:281,1,220.000006713867,2|8,0:0|0:0,0:0:0:0:
179,144,62796,1,2,0:0:0:0:
409,325,62966,6,0,P|358:340|287:315,1,110.000003356934,2|0,0:0|0:0,0:0:0:0:
354,66,63307,1,8,0:0:0:0:
429,196,63478,2,0,P|360:264|280:186,1,220.000006713867,2|2,0:0|0:0,0:0:0:0:
354,66,63990,1,8,0:0:0:0:
493,286,64160,1,2,0:0:0:0:
264,104,64331,6,0,B|163:155|148:60|32:124,1,220.000006713867,2|8,0:0|0:0,0:0:0:0:
204,24,64843,1,2,0:0:0:0:
112,198,65013,2,0,P|97:249|117:310,1,110.000003356934,2|0,0:0|0:0,0:0:0:0:
407,264,65355,1,8,0:0:0:0:
407,264,65525,6,0,B|340:247|340:247|271:269|271:269|189:246,1,220.000006713867,2|2,0:0|0:0,0:0:0:0:
487,319,66037,2,0,P|502:268|482:207,1,110.000003356934,8|0,0:0|0:0,0:0:0:0:
267,172,66378,1,2,0:0:0:0:
348,344,66549,1,2,0:0:0:0:
438,118,66719,1,8,0:0:0:0:
438,118,66805,1,8,0:0:0:0:
438,118,66890,1,2,0:0:0:0:
189,187,67061,5,6,0:0:0:0:
394,222,67231,1,0,0:0:0:0:
204,98,67402,1,8,0:0:0:0:
255,247,67572,1,2,0:0:0:0:
368,62,67743,1,0,0:0:0:0:
136,41,67914,6,0,P|119:75|117:125,1,59.9999981689454,8|0,0:0|0:0,0:0:0:0:
255,247,68084,2,0,P|272:213|274:163,1,59.9999981689454,8|0,0:0|0:0,0:0:0:0:
204,98,68255,1,0,0:0:0:0:
407,138,68425,5,6,0:0:0:0:
258,24,68596,1,0,0:0:0:0:
329,279,68767,1,8,0:0:0:0:
358,43,68937,1,2,0:0:0:0:
189,187,69108,1,0,0:0:0:0:
429,258,69278,6,0,L|432:318,1,59.9999981689454,8|0,0:0|0:0,0:0:0:0:
295,164,69449,2,0,L|297:104,1,59.9999981689454,8|0,0:0|0:0,0:0:0:0:
389,19,69620,1,0,0:0:0:0:
191,134,69790,6,0,L|49:122,1,110.000003356934,6|0,0:0|0:0,0:0:0:0:
320,249,70131,2,0,L|462:261,1,110.000003356934,8|0,0:0|0:0,0:0:0:0:
198,256,70473,2,0,L|188:365,1,110.000003356934,2|0,0:0|0:0,0:0:0:0:
313,127,70814,2,0,L|323:18,1,110.000003356934,8|0,0:0|0:0,0:0:0:0:
191,134,71155,5,6,0:0:0:0:
427,182,71326,1,0,0:0:0:0:
198,256,71496,5,12,0:0:0:0:
246,20,71667,1,0,0:0:0:0:
320,249,71837,5,6,0:0:0:0:
84,201,72008,1,0,0:0:0:0:
313,127,72179,5,12,0:0:0:0:
265,363,72349,1,0,0:0:0:0:
124,98,72520,6,0,B|176:69|240:89|265:138|265:138|242:58,1,220.000006713867,6|8,0:0|0:0,0:0:0:0:
321,219,73032,1,2,0:0:0:0:
478,113,73202,2,0,B|426:142|362:122|337:73|337:73|360:153,1,220.000006713867,2|8,0:0|0:0,0:0:0:0:
426,28,73714,1,2,0:0:0:0:
430,234,73885,6,0,P|414:281|358:321,1,110.000003356934,2|0,0:0|0:0,0:0:0:0:
238,160,74226,1,8,0:0:0:0:
175,360,74396,2,0,L|284:368,1,110.000003356934,2|0,0:0|0:0,0:0:0:0:
99,279,74738,1,2,0:0:0:0:
238,160,74908,1,8,0:0:0:0:
30,72,75079,1,2,0:0:0:0:
269,34,75249,6,0,P|315:32|381:70,1,110.000003356934,2|0,0:0|0:0,0:0:0:0:
98,179,75591,2,0,P|96:133|134:67,1,110.000003356934,8|0,0:0|0:0,0:0:0:0:
243,350,75932,2,0,P|197:352|131:314,1,110.000003356934,2|0,0:0|0:0,0:0:0:0:
414,204,76273,2,0,P|416:251|378:317,1,110.000003356934,8|0,0:0|0:0,0:0:0:0:
339,96,76614,6,0,L|453:83,1,110.000003356934,2|0,0:0|0:0,0:0:0:0:
173,288,76955,2,0,L|59:301,1,110.000003356934,8|0,0:0|0:0,0:0:0:0:
325,235,77297,2,0,L|434:249,1,110.000003356934,2|0,0:0|0:0,0:0:0:0:
187,149,77638,2,0,L|77:134,1,110.000003356934,8|0,0:0|0:0,0:0:0:0:
282,318,77979,6,0,P|352:367|485:235,1,300,6|0,0:0|0:0,0:0:0:0:
376,259,78661,1,0,0:0:0:0:
204,382,78832,1,0,0:0:0:0:
229,134,79003,1,0,0:0:0:0:
473,160,79173,1,8,0:0:0:0:
473,160,79259,1,8,0:0:0:0:
473,160,79344,1,8,0:0:0:0:
181,125,80538,6,0,P|128:135|76:113,1,100,6|0,0:0|0:0,0:0:0:0:
263,86,80879,1,2,0:0:0:0:
163,214,81050,2,0,P|98:214|64:203,1,100,6|0,0:0|0:0,0:0:0:0:
263,86,81391,2,0,P|328:86|362:97,1,100,6|0,0:0|0:0,0:0:0:0:
181,297,81732,1,6,0:0:0:0:
122,122,81903,6,0,L|129:19,1,100,6|0,0:0|0:0,0:0:0:0:
209,278,82244,1,6,0:0:0:0:
150,103,82415,2,0,L|157:0,1,100,6|0,0:0|0:0,0:0:0:0:
237,259,82756,2,0,L|244:362,1,100,6|0,0:0|0:0,0:0:0:0:
429,84,83097,2,0,L|427:55,6,29.9999990844727,2|0|0|0|0|0|0,0:0|0:0|0:0|0:0|0:0|0:0|0:0,0:0:0:0:
512,85,83438,6,0,L|504:21,1,50,6|0,0:0|0:0,0:0:0:0:
343,51,83609,2,0,L|351:115,1,50
436,134,83779,2,0,L|428:70,1,50,8|0,0:0|0:0,0:0:0:0:
267,100,83950,2,0,L|279:199,1,100,0|2,0:0|0:0,0:0:0:0:
306,6,84291,2,0,P|267:-2|199:23,1,100,0|8,0:0|0:0,0:0:0:0:
206,267,84632,6,0,P|272:299|375:230,1,200,6|0,0:0|0:0,0:0:0:0:
126,177,85144,2,0,P|76:153|0:204,1,150,8|0,0:0|0:0,0:0:0:0:
161,191,85485,2,0,P|206:160|200:67,1,150,2|0,0:0|0:0,0:0:0:0:
131,217,85827,2,0,P|134:271|218:312,1,150,8|0,0:0|0:0,0:0:0:0:
141,132,86168,6,0,P|108:136|79:150,1,50,6|0,0:0|0:0,0:0:0:0:
212,235,86338,2,0,P|245:231|274:217,1,50
262,110,86509,2,0,P|235:129|217:156,1,50,8|0,0:0|0:0,0:0:0:0:
372,182,86680,2,0,P|414:151|420:89,1,100,0|2,0:0|0:0,0:0:0:0:
356,299,87021,2,0,P|361:350|412:387,1,100,0|8,0:0|0:0,0:0:0:0:
260,224,87362,6,0,P|164:182|50:233,1,200,6|2,0:0|0:0,0:0:0:0:
262,326,87874,1,8,0:0:0:0:
262,326,87959,1,8,0:0:0:0:
262,326,88044,1,2,0:0:0:0:
38,136,88215,1,8,0:0:0:0:
67,117,88300,1,8,0:0:0:0:
100,105,88386,1,2,0:0:0:0:
134,98,88471,1,8,0:0:0:0:
169,97,88556,2,0,P|213:108|229:117,1,50,2|2,0:0|0:0,0:0:0:0:
291,201,88727,2,0,P|266:198|243:189,1,50,2|2,0:0|0:0,0:0:0:0:
153,24,88897,6,0,P|211:27|266:53,1,100,6|0,0:0|0:0,0:0:0:0:
317,192,89239,1,8,0:0:0:0:
499,99,89409,2,0,L|512:0,1,100,2|0,0:0|0:0,0:0:0:0:
383,246,89750,2,0,B|374:287|374:287|385:344,1,100,2|8,0:0|0:0,0:0:0:0:
432,157,90092,6,0,P|364:145|297:193,1,150,6|0,0:0|0:0,0:0:0:0:
214,191,90433,2,0,L|92:169,1,100,2|8,0:0|0:0,0:0:0:0:
244,93,90774,1,2,0:0:0:0:
258,262,90945,2,0,L|259:367,1,100,2|0,0:0|0:0,0:0:0:0:
203,206,91201,1,2,0:0:0:0:
214,191,91286,2,0,P|246:179|274:182,1,50,8|0,0:0|0:0,0:0:0:0:
173,275,91456,2,0,P|139:269|116:252,1,50,2|0,0:0|0:0,0:0:0:0:
134,118,91627,5,12,0:0:0:0:
332,222,91798,1,2,0:0:0:0:
150,104,91968,1,8,0:0:0:0:
43,293,92139,1,2,0:0:0:0:
13,47,92309,1,8,0:0:0:0:
214,191,92480,1,2,0:0:0:0:
44,177,92651,1,8,0:0:0:0:
292,121,92821,1,2,0:0:0:0:
334,336,92992,5,8,0:0:0:0:
129,120,93162,1,2,0:0:0:0:
303,342,93333,5,8,0:0:0:0:
210,120,93504,1,2,0:0:0:0:
272,348,93674,5,8,0:0:0:0:
292,121,93845,1,2,0:0:0:0:
241,354,94015,5,8,0:0:0:0:
373,121,94186,2,0,B|396:86|396:86|402:202,1,150,6|0,0:0|0:0,0:0:0:0:
359,18,94527,2,0,P|387:8|420:13,1,50,2|0,0:0|0:0,0:0:0:0:
455,256,94698,2,0,P|406:277|342:253,1,100,8|0,0:0|0:0,0:0:0:0:
484,40,95039,1,8,0:0:0:0:
485,74,95124,1,8,0:0:0:0:
487,109,95210,1,2,0:0:0:0:
489,144,95295,1,2,0:0:0:0:
491,179,95380,1,8,0:0:0:0:
275,314,95551,6,0,B|266:263|266:263|282:196,1,100,6|0,0:0|0:0,0:0:0:0:
315,123,95892,1,0,0:0:0:0:
215,133,96063,1,0,0:0:0:0:
115,144,96233,1,0,0:0:0:0:
158,54,96404,1,0,0:0:0:0:
158,54,96574,1,0,0:0:0:0:
176,233,96745,1,0,0:0:0:0:
176,233,96916,1,0,0:0:0:0:
259,37,97086,5,0,0:0:0:0:
259,37,97257,1,0,0:0:0:0:
277,216,97427,1,0,0:0:0:0:
277,216,97598,1,0,0:0:0:0:
115,144,97769,1,0,0:0:0:0:
115,144,97939,1,0,0:0:0:0:
419,117,98110,1,8,0:0:0:0:
419,117,98195,1,8,0:0:0:0:
419,117,98280,6,0,B|429:81|463:59|463:59|505:134|476:207|476:207|435:190|411:156,1,300,8|0,0:0|0:0,0:0:0:0:
