osu file format v14

[General]
AudioFilename: audio.mp3
AudioLeadIn: 0
PreviewTime: 46905
Countdown: 1
SampleSet: Normal
StackLeniency: 0.7
Mode: 0
LetterboxInBreaks: 0
WidescreenStoryboard: 0

[Editor]
DistanceSpacing: 0.7
BeatDivisor: 4
GridSize: 4
TimelineZoom: 2.5

[Metadata]
Title:Tenka Toitsu A to Z
TitleUnicode:天下トーイツ A to Z☆
Artist:Pastel_Palettes
ArtistUnicode:Pastel*Palettes
Creator:udtuy123
Version:Extra
Source:BanG_Dream!
Tags:Pastel Palettes bang dream
BeatmapID:1772328
BeatmapSetID:847452

[Difficulty]
HPDrainRate:7
CircleSize:4
OverallDifficulty:8.6
ApproachRate:9.6
SliderMultiplier:2.39999990463257
SliderTickRate:1

[Events]
//Background and Video events
0,0,"70567908_p0_master1200.jpg",0,0
//Break Periods
//Storyboard Layer 0 (Background)
//Storyboard Layer 1 (Fail)
//Storyboard Layer 2 (Pass)
//Storyboard Layer 3 (Foreground)
//Storyboard Layer 4 (Overlay)
//Storyboard Sound Samples

[TimingPoints]
2492,392.156862745098,4,1,0,100,1,0
3094,392.156862745098,4,1,0,100,1,0
9356,-83.3333333333333,4,1,0,100,0,0
10925,-125,4,1,0,100,0,0
11121,-55.5555555555556,4,1,0,100,0,0
11317,-125,4,1,0,100,0,0
11513,-55.5555555555556,4,1,0,100,0,0
11709,-125,4,1,0,100,0,0
11905,-55.5555555555556,4,1,0,100,0,0
12101,-125,4,1,0,100,0,0
12297,-55.5555555555556,4,1,0,100,0,0
12493,-83.3333333333333,4,1,0,100,0,0
20532,-166.666666666667,4,1,0,100,0,0
20827,-117.647058823529,4,1,0,100,0,0
21121,-66.6666666666667,4,1,0,100,0,0
22885,-100,4,1,0,100,0,0
33670,-76.9230769230769,4,1,0,100,0,0
34454,-250,4,1,0,100,0,0
39160,-125,4,1,0,100,0,0
39552,-111.111111111111,4,1,0,100,0,0
39944,-100,4,1,0,100,0,0
40925,-133.333333333333,4,1,0,100,0,0
43866,-222.222222222222,4,1,0,100,0,0
47003,-100,4,1,0,100,0,0
48082,-81.9672131147541,4,1,0,100,0,0
50140,-66.6666666666667,4,1,0,100,0,1
56415,-100,4,1,0,100,0,1
57199,-66.6666666666667,4,1,0,100,0,1
58180,-83.3333333333333,4,1,0,100,0,1
60140,-55.5555555555556,4,1,0,100,0,1
60729,-83.3333333333333,4,1,0,100,0,1
60925,-55.5555555555556,4,1,0,100,0,1
61121,-100,4,1,0,100,0,1
62689,-66.6666666666667,4,1,0,100,0,1
69160,-100,4,1,0,100,0,1
70532,-75.187969924812,4,1,0,100,0,1
72101,-277.777777777778,4,1,0,100,0,0
72885,-138.888888888889,4,1,0,100,0,0
73670,-69.4444444444444,4,1,0,100,0,0
75222,-125,4,1,0,100,0,0
75433,-55.5555555555556,4,1,0,100,0,0
75630,-125,4,1,0,100,0,0
75778,-55.5555555555556,4,1,0,100,0,0
76021,-125,4,1,0,100,0,0
76217,-55.5555555555556,4,1,0,100,0,0
76413,-125,4,1,0,100,0,0
76609,-55.5555555555556,4,1,0,100,0,0
76807,-69.4444444444444,4,1,0,100,0,0
78376,-83.3333333333333,4,1,0,100,0,0
84846,-66.6666666666667,4,1,0,100,0,0
85140,-100,4,1,0,100,0,0
85434,-66.6666666666667,4,1,0,100,0,0

[HitObjects]
427,168,2493,6,0,B|437:126|415:94|357:85|323:130|339:173|379:212|379:212|388:228|385:283|341:301,1,299.999988079071
223,328,3094,6,0,P|141:330|111:238,1,179.999992847443
107,249,3486,1,0,0:0:0:0:
212,188,3682,2,0,P|231:159|243:114,1,59.9999976158142
145,54,3976,1,0,0:0:0:0:
293,48,4172,2,0,P|325:55|361:71,1,59.9999976158143
410,130,4368,1,0,0:0:0:0:
416,132,4466,2,0,P|452:136|490:136,1,59.9999976158143
303,166,4662,6,0,P|307:240|201:281,1,179.999992847443
223,287,5054,1,0,0:0:0:0:
121,220,5250,2,0,P|103:249|91:289,2,59.9999976158143
223,287,5544,2,0,P|218:245|208:210,1,59.9999976158143
111,167,5741,1,0,0:0:0:0:
111,167,5839,2,0,P|97:209|98:251,1,59.9999976158143
274,156,6035,1,0,0:0:0:0:
274,156,6133,1,0,0:0:0:0:
274,156,6231,6,0,P|267:80|388:73,1,179.999992847443
351,45,6623,1,0,0:0:0:0:
408,173,6819,1,0,0:0:0:0:
408,173,6917,2,0,L|444:248,1,59.9999976158142
339,328,7113,2,0,L|312:269,1,59.9999976158142
275,183,7309,2,0,P|265:136|267:98,2,59.9999976158143
312,60,7603,1,0,0:0:0:0:
234,118,7701,1,0,0:0:0:0:
109,100,7799,5,0,0:0:0:0:
254,242,8192,1,0,0:0:0:0:
304,66,8584,1,0,0:0:0:0:
419,321,8976,6,0,B|400:304|460:311|439:350|395:349|373:316|418:307|421:168|323:187,1,179.999992847443
336,108,9368,6,0,L|174:60,1,143.999989883423
292,228,9760,2,0,L|444:140,1,143.999989883423
324,328,10152,6,0,L|162:280,1,143.999989883423
108,159,10544,2,0,P|87:230|93:310,1,143.999989883423
464,278,10937,2,0,P|425:248|416:210,1,71.9999971389771
418,228,11133,2,0,P|385:173|315:87,1,161.999988618851
338,108,11329,2,0,P|325:140|326:195,1,71.9999971389771
323,178,11525,2,0,P|227:151|179:101,1,161.999988618851
185,109,11721,2,0,P|131:118|102:135,1,71.9999971389771
116,126,11917,2,0,P|144:191|234:283,1,161.999988618851
207,257,12113,2,0,L|213:179,1,71.9999971389771
213,185,12309,2,0,P|299:220|342:311,1,161.999988618851
336,276,12505,6,0,L|174:324,1,143.999989883423
292,156,12897,2,0,L|444:244,1,143.999989883423
324,56,13289,6,0,L|162:104,1,143.999989883423
353,251,13682,1,0,0:0:0:0:
162,168,13878,1,0,0:0:0:0:
88,246,14074,5,0,0:0:0:0:
88,246,14270,2,0,L|92:154,1,71.9999949417115
255,308,14466,1,0,0:0:0:0:
255,308,14662,2,0,L|259:216,1,71.9999949417115
292,127,14858,5,0,0:0:0:0:
292,127,14956,1,0,0:0:0:0:
292,127,15054,2,0,P|320:80|358:54,1,71.9999949417115
417,109,15250,1,0,0:0:0:0:
419,202,15348,1,0,0:0:0:0:
362,276,15446,1,0,0:0:0:0:
276,313,15544,1,0,0:0:0:0:
172,307,15643,6,0,P|98:247|87:187,1,143.999989883423
99,110,15937,1,0,0:0:0:0:
167,45,16035,1,0,0:0:0:0:
247,191,16231,2,0,P|302:160|365:86,1,143.999989883423
356,100,16525,5,0,0:0:0:0:
356,100,16623,1,0,0:0:0:0:
356,100,16721,1,0,0:0:0:0:
356,100,16819,2,0,P|397:146|418:174,1,71.9999949417115
378,248,17015,1,0,0:0:0:0:
453,108,17211,5,0,0:0:0:0:
334,267,17407,2,0,P|333:209|352:176,1,71.9999949417115
496,183,17603,2,0,P|504:266|458:341,1,143.999989883423
479,319,17897,1,0,0:0:0:0:
373,345,17995,5,0,0:0:0:0:
373,345,18094,1,0,0:0:0:0:
373,345,18192,2,0,P|322:348|277:332,1,71.9999949417115
252,281,18388,1,0,0:0:0:0:
294,214,18486,1,0,0:0:0:0:
337,147,18584,1,0,0:0:0:0:
382,82,18682,1,0,0:0:0:0:
424,15,18780,6,0,P|447:126|396:157,1,143.999989883423
363,141,19074,1,0,0:0:0:0:
291,150,19172,1,0,0:0:0:0:
221,169,19270,1,0,0:0:0:0:
162,211,19368,1,0,0:0:0:0:
122,271,19466,1,0,0:0:0:0:
133,363,19564,6,0,P|54:348|37:258,1,143.999989883423
226,63,19956,1,0,0:0:0:0:
226,63,20054,1,0,0:0:0:0:
226,63,20152,1,0,0:0:0:0:
226,63,20250,1,0,0:0:0:0:
148,171,20348,1,0,0:0:0:0:
401,203,20544,6,0,P|393:176|327:154,1,71.9999949417115
306,213,20839,2,0,P|295:145|312:85,1,101.99999789238
400,81,21133,2,0,B|311:147|311:147|181:128|181:128|260:61|260:61|333:128,1,359.999999427795
104,274,21917,5,0,0:0:0:0:
104,274,22897,2,0,B|197:264|197:264|290:262|329:201|287:148|223:148|222:187|239:223,1,299.999988079071
419,285,23486,5,0,0:0:0:0:
347,79,24466,2,0,L|358:155,1,59.9999976158142
491,222,24662,2,0,L|474:88,1,119.999995231628
475,102,24956,1,0,0:0:0:0:
308,178,25054,5,0,0:0:0:0:
309,178,26427,1,0,0:0:0:0:
254,73,26623,6,0,L|134:188,1,119.999995231629
258,311,27015,6,0,L|378:196,1,119.999995231629
258,73,27407,6,0,L|378:188,1,119.999995231629
254,311,27799,6,0,L|134:196,1,119.999995231629
332,382,28192,5,0,0:0:0:0:
193,261,28388,6,0,L|193:177,1,59.9999976158143
315,71,28584,2,0,L|384:117,1,59.9999976158143
478,248,28780,1,0,0:0:0:0:
478,248,28878,1,0,0:0:0:0:
478,248,28976,6,0,P|489:174|480:84,1,119.999995231629
487,129,29270,1,0,0:0:0:0:
487,129,29368,1,0,0:0:0:0:
270,169,29564,2,0,L|230:115,1,59.9999976158143
131,184,29760,6,0,P|49:236|1:244,1,119.999995231629
270,169,30054,1,0,0:0:0:0:
270,169,30152,2,0,P|293:200|303:247,1,59.9999976158143
207,335,30348,1,0,0:0:0:0:
207,335,30446,1,0,0:0:0:0:
207,335,30544,6,0,L|344:297,1,119.999995231629
370,109,30839,1,0,0:0:0:0:
370,109,30937,2,0,P|349:174|354:209,1,59.9999976158143
147,139,31133,1,0,0:0:0:0:
132,144,31231,1,0,0:0:0:0:
120,156,31329,6,0,P|122:215|166:292,1,119.999995231629
382,349,31623,1,0,0:0:0:0:
382,349,31721,2,0,L|311:280,1,59.9999976158143
263,363,31917,2,0,L|192:294,1,59.9999976158143
122,334,32113,6,0,L|112:254,1,59.9999976158143
73,189,32309,2,0,L|63:109,1,59.9999976158143
226,98,32505,1,0,0:0:0:0:
257,175,32603,1,0,0:0:0:0:
304,244,32701,1,0,0:0:0:0:
368,297,32799,1,0,0:0:0:0:
442,335,32897,6,0,B|485:350|485:350|462:255,1,119.999995231629
438,201,33192,2,0,B|425:154|425:154|357:219,1,119.999995231629
291,269,33486,1,0,0:0:0:0:
293,264,33682,6,0,P|218:183|336:226,1,311.999973320009
344,289,34172,1,0,0:0:0:0:
252,348,34270,1,0,0:0:0:0:
152,327,34368,1,0,0:0:0:0:
133,302,34466,6,0,P|110:210|126:149,1,143.999994277954
232,183,35250,1,0,0:0:0:0:
237,87,35446,1,0,0:0:0:0:
276,174,35643,1,0,0:0:0:0:
357,124,35839,1,0,0:0:0:0:
416,199,36035,6,0,P|454:147|433:69,1,143.999994277954
346,104,36819,1,0,0:0:0:0:
257,142,37211,1,0,0:0:0:0:
170,184,37603,6,0,P|141:217|208:260,1,143.999994277954
303,154,38388,1,0,0:0:0:0:
281,328,38584,1,0,0:0:0:0:
291,232,38780,1,0,0:0:0:0:
332,256,38878,1,0,0:0:0:0:
374,278,38976,1,0,0:0:0:0:
281,328,39172,6,0,L|267:207,1,95.9999961853028
153,287,39564,2,0,L|137:144,1,107.999992412567
373,204,39956,2,0,L|357:48,1,119.999995231629
188,34,40348,2,0,L|192:107,1,59.9999976158143
293,227,40544,2,0,L|288:156,1,59.9999976158143
281,43,40741,5,0,0:0:0:0:
392,113,40937,2,0,P|431:148|451:196,2,89.9999998569489
281,43,41525,1,0,0:0:0:0:
188,122,41721,2,0,P|156:177|145:222,1,89.9999998569489
359,262,42113,6,0,P|374:173|431:84,1,179.999999713898
210,90,42701,1,0,0:0:0:0:
95,190,42897,1,0,0:0:0:0:
97,167,42995,1,0,0:0:0:0:
99,149,43094,1,0,0:0:0:0:
311,316,43290,1,0,0:0:0:0:
458,135,43486,1,0,0:0:0:0:
460,158,43584,1,0,0:0:0:0:
462,176,43683,1,0,0:0:0:0:
255,120,43878,6,0,B|221:167|175:193|175:193|228:224|257:264|257:264|290:223|338:193|338:193|291:167|256:122,2,431.99996965027
458,192,47309,2,0,B|425:216|409:265|409:265|381:165|327:185,1,179.999992847443
256,192,47799,1,0,0:0:0:0:
56,190,48094,2,0,B|103:210|132:275|132:275|132:149,1,219.59998222664
176,85,48584,6,0,P|242:51|305:76,1,146.399988151093
338,103,48878,1,0,0:0:0:0:
367,144,48976,1,0,0:0:0:0:
397,185,49074,1,0,0:0:0:0:
365,225,49172,1,0,0:0:0:0:
328,258,49270,1,0,0:0:0:0:
208,352,49368,5,0,0:0:0:0:
109,67,50152,6,0,P|171:120|182:215,1,179.999999713898
182,213,50446,1,0,0:0:0:0:
171,316,50544,2,0,P|211:272|256:253,1,89.9999998569489
352,318,50741,2,0,P|348:252|321:200,1,89.9999998569489
291,141,50937,1,0,0:0:0:0:
291,141,51035,1,0,0:0:0:0:
401,145,51133,2,0,P|451:164|486:213,1,89.9999998569489
401,145,51329,2,0,P|404:202|385:251,1,89.9999998569489
401,145,51525,2,0,P|342:184|290:191,1,89.9999998569489
256,78,51721,6,0,P|170:109|125:191,1,179.999999713898
258,192,52015,1,0,0:0:0:0:
370,192,52113,6,0,P|339:278|257:323,1,179.999999713898
258,192,52407,1,0,0:0:0:0:
256,287,52505,5,0,0:0:0:0:
160,191,52603,1,0,0:0:0:0:
256,96,52701,1,0,0:0:0:0:
351,192,52799,1,0,0:0:0:0:
202,246,52897,1,0,0:0:0:0:
202,138,52995,1,0,0:0:0:0:
310,138,53093,1,0,0:0:0:0:
310,246,53192,1,0,0:0:0:0:
183,186,53290,6,0,P|187:285|137:347,1,179.999999713898
139,345,53584,1,0,0:0:0:0:
234,308,53682,2,0,P|281:275|337:266,1,89.9999998569489
413,252,53878,2,0,P|410:183|329:139,1,89.9999998569489
293,70,54074,1,0,0:0:0:0:
293,70,54172,1,0,0:0:0:0:
231,165,54270,6,0,P|205:202|203:254,1,89.9999998569489
134,187,54466,2,0,P|179:234|237:255,1,89.9999998569489
121,285,54662,2,0,P|186:260|216:216,1,89.9999998569489
142,192,54858,6,0,P|173:105|255:61,1,179.999999713898
256,194,55152,1,0,0:0:0:0:
256,306,55250,6,0,P|342:275|387:193,1,179.999999713898
256,194,55544,1,0,0:0:0:0:
256,281,55643,5,0,0:0:0:0:
166,191,55741,1,0,0:0:0:0:
256,102,55839,1,0,0:0:0:0:
345,192,55937,1,0,0:0:0:0:
202,246,56035,5,0,0:0:0:0:
202,138,56133,1,0,0:0:0:0:
310,138,56231,1,0,0:0:0:0:
310,246,56329,1,0,0:0:0:0:
256,168,56427,6,0,P|287:141|333:127,1,59.9999976158143
421,163,56623,2,0,L|422:232,1,59.9999976158143
421,222,56819,1,0,0:0:0:0:
421,222,56917,1,0,0:0:0:0:
353,335,57015,2,0,P|309:338|263:349,1,59.9999976158143
111,217,57211,6,0,P|117:156|118:122,1,89.9999998569489
307,127,57407,1,0,0:0:0:0:
307,127,57505,1,0,0:0:0:0:
307,127,57603,2,0,P|258:128|205:146,1,89.9999998569489
160,221,57799,1,0,0:0:0:0:
160,221,57897,1,0,0:0:0:0:
70,195,57995,6,0,P|152:193|176:202,1,89.9999998569489
140,327,58192,2,0,P|178:279|188:235,1,71.9999949417116
254,193,58388,2,0,P|286:241|299:311,1,71.9999949417116
355,336,58584,2,0,P|393:288|403:244,1,71.9999949417116
403,236,58780,5,0,0:0:0:0:
404,208,58878,1,0,0:0:0:0:
408,180,58976,1,0,0:0:0:0:
412,152,59074,1,0,0:0:0:0:
416,124,59172,1,0,0:0:0:0:
352,108,59270,1,0,0:0:0:0:
292,144,59368,1,0,0:0:0:0:
232,184,59466,1,0,0:0:0:0:
172,220,59564,5,0,0:0:0:0:
291,335,59760,1,0,0:0:0:0:
291,335,59956,2,0,P|286:253|294:207,1,107.999992412567
289,227,60152,2,0,P|299:168|218:45,1,215.999984825135
218,51,60544,1,0,0:0:0:0:
218,51,60741,2,0,P|223:133|219:177,1,107.999992412567
222,156,60937,2,0,P|213:216|284:328,1,161.999988618851
254,305,61133,6,0,P|329:268|370:222,1,119.999995231629
212,208,61427,2,0,P|273:176|314:134,1,119.999995231629
177,105,61721,1,0,0:0:0:0:
367,222,61917,5,0,0:0:0:0:
260,49,62113,1,0,0:0:0:0:
284,77,62211,1,0,0:0:0:0:
226,126,62309,1,0,0:0:0:0:
310,189,62407,1,0,0:0:0:0:
227,266,62505,1,0,0:0:0:0:
326,330,62603,1,0,0:0:0:0:
192,364,62701,6,0,P|136:312|104:216,1,179.999999713898
140,108,62995,1,0,0:0:0:0:
140,108,63093,2,0,P|96:68|40:48,1,89.9999998569489
140,108,63290,2,0,P|184:60|228:36,1,89.9999998569489
320,20,63486,6,0,P|376:72|408:168,1,179.999999713898
372,276,63780,1,0,0:0:0:0:
372,276,63878,2,0,P|416:316|472:336,1,89.9999998569489
372,276,64075,2,0,P|328:324|284:348,1,89.9999998569489
176,308,64270,6,0,B|136:280|60:256|60:256|120:208,1,179.999999713898
216,156,64564,1,0,0:0:0:0:
176,308,64662,2,0,B|154:264|99:206|99:206|175:193,1,179.999999713898
284,194,64956,1,0,0:0:0:0:
288,284,65054,5,0,0:0:0:0:
220,224,65152,1,0,0:0:0:0:
136,188,65250,1,0,0:0:0:0:
48,192,65348,1,0,0:0:0:0:
124,164,65446,5,0,0:0:0:0:
204,164,65544,1,0,0:0:0:0:
280,188,65643,1,0,0:0:0:0:
344,236,65741,1,0,0:0:0:0:
384,304,65839,6,0,P|384:200|432:128,1,179.999999713898
336,76,66133,1,0,0:0:0:0:
336,76,66231,2,0,P|379:46|413:-4,1,89.9999998569489
336,76,66427,2,0,P|292:105|258:156,1,89.9999998569489
300,232,66623,6,0,P|244:160|156:100,1,179.999999713898
76,184,66917,1,0,0:0:0:0:
76,184,67015,2,0,P|88:235|124:284,1,89.9999998569489
76,184,67211,2,0,P|63:132|27:83,1,89.9999998569489
156,32,67407,6,0,B|196:60|272:84|272:84|212:132,1,179.999999713898
116,184,67701,1,0,0:0:0:0:
156,32,67799,2,0,B|177:75|232:133|232:133|156:146,1,179.999999713898
48,146,68093,1,0,0:0:0:0:
256,268,68192,5,0,0:0:0:0:
179,192,68290,1,0,0:0:0:0:
256,115,68388,1,0,0:0:0:0:
332,192,68486,1,0,0:0:0:0:
204,248,68584,1,0,0:0:0:0:
248,188,68682,1,0,0:0:0:0:
280,204,68780,1,0,0:0:0:0:
288,216,68878,1,0,0:0:0:0:
292,228,68976,5,0,0:0:0:0:
348,72,69172,2,0,P|348:120|340:156,1,59.9999976158143
196,176,69368,2,0,P|196:136|204:96,1,59.9999976158143
344,232,69564,2,0,P|340:280|328:312,1,59.9999976158143
148,343,69760,1,0,0:0:0:0:
82,342,69858,1,0,0:0:0:0:
49,285,69956,1,0,0:0:0:0:
82,228,70054,1,0,0:0:0:0:
152,231,70152,6,0,P|196:235|244:219,1,59.9999976158143
412,224,70348,2,0,P|340:232|316:228,1,59.9999976158143
389,112,70544,6,0,P|297:63|220:45,1,159.599987082749
175,188,70839,2,0,P|195:112|287:22,1,159.599987082749
363,36,71133,2,0,P|350:87|365:125,1,79.7999935413745
428,176,71329,5,0,0:0:0:0:
372,244,71427,1,0,0:0:0:0:
294,262,71525,1,0,0:0:0:0:
222,255,71623,1,0,0:0:0:0:
182,224,71721,1,0,0:0:0:0:
170,192,71819,1,0,0:0:0:0:
171,171,71917,1,0,0:0:0:0:
179,159,72015,1,0,0:0:0:0:
186,152,72113,6,0,P|199:197|150:298,1,151.199997683258
66,250,72897,2,0,P|138:228|363:260,1,302.399995366516
446,306,73682,6,0,P|415:225|406:114,1,172.799997352295
255,270,74074,6,0,P|264:183|306:80,1,172.799997352295
87,181,74466,6,0,P|129:105|208:26,1,172.799997352295
372,188,74858,1,0,0:0:0:0:
136,188,75054,1,0,0:0:0:0:
464,278,75250,6,0,P|425:248|416:210,1,71.9999971389771
418,228,75446,2,0,P|385:173|315:87,1,161.999988618851
338,108,75642,2,0,P|325:140|326:195,1,71.9999971389771
323,178,75838,2,0,P|227:151|179:101,1,161.999988618851
185,109,76034,6,0,P|131:118|102:135,1,71.9999971389771
116,126,76230,2,0,P|144:191|234:283,1,161.999988618851
207,257,76426,2,0,L|263:187,1,71.9999971389771
251,200,76622,2,0,P|235:99|242:5,1,161.999988618851
236,23,76819,6,0,P|162:69|88:153,1,172.799997352295
333,186,77211,6,0,P|248:200|147:248,1,172.799997352295
379,375,77603,6,0,P|297:349|185:345,1,172.799997352295
256,80,77995,1,0,0:0:0:0:
256,312,78191,1,0,0:0:0:0:
88,138,78388,5,0,0:0:0:0:
88,138,78584,2,0,L|92:230,1,71.9999949417115
255,76,78780,1,0,0:0:0:0:
255,76,78976,2,0,L|259:168,1,71.9999949417115
292,257,79172,5,0,0:0:0:0:
292,257,79270,1,0,0:0:0:0:
292,257,79368,2,0,P|320:304|358:330,1,71.9999949417115
417,275,79564,1,0,0:0:0:0:
419,182,79662,1,0,0:0:0:0:
362,108,79760,1,0,0:0:0:0:
276,71,79858,1,0,0:0:0:0:
176,76,79957,6,0,P|97:136|94:200,1,143.999989883423
87,176,80250,1,0,0:0:0:0:
103,274,80348,1,0,0:0:0:0:
209,267,80544,2,0,P|197:219|107:142,1,143.999989883423
128,159,80839,5,0,0:0:0:0:
128,159,80937,1,0,0:0:0:0:
128,159,81035,1,0,0:0:0:0:
128,159,81133,2,0,P|175:117|196:83,1,71.9999949417116
233,39,81329,1,0,0:0:0:0:
396,140,81525,6,0,P|316:162|259:189,1,143.999989883423
260,187,81819,1,0,0:0:0:0:
288,292,81917,2,0,P|208:327|117:325,1,143.999989883423
137,309,82211,1,0,0:0:0:0:
95,271,82309,5,0,0:0:0:0:
177,247,82407,1,0,0:0:0:0:
82,218,82505,1,0,0:0:0:0:
172,197,82603,1,0,0:0:0:0:
76,169,82701,1,0,0:0:0:0:
170,143,82799,1,0,0:0:0:0:
75,116,82897,1,0,0:0:0:0:
180,88,82995,1,0,0:0:0:0:
96,68,83094,5,0,0:0:0:0:
190,174,83290,2,0,P|246:149|278:120,1,71.9999949417116
300,36,83486,2,0,P|342:40|381:56,1,71.9999949417116
429,146,83682,1,0,0:0:0:0:
429,146,83780,1,0,0:0:0:0:
429,146,83878,5,0,0:0:0:0:
314,244,84074,2,0,P|276:278|251:322,1,71.9999949417116
413,343,84270,1,0,0:0:0:0:
330,329,84368,1,0,0:0:0:0:
433,309,84466,1,0,0:0:0:0:
305,258,84564,1,0,0:0:0:0:
456,211,84662,1,0,0:0:0:0:
138,121,84858,6,0,B|404:210|404:210|132:297|132:297|282:395|248:73,1,899.999998569489
256,192,86231,12,0,89368,0:0:0:0:
