osu file format v14

[General]
AudioFilename: audio.mp3
AudioLeadIn: 0
PreviewTime: 50616
Countdown: 0
SampleSet: Normal
StackLeniency: 0.7
Mode: 1
LetterboxInBreaks: 0
WidescreenStoryboard: 1

[Editor]
DistanceSpacing: 0.8
BeatDivisor: 4
GridSize: 32
TimelineZoom: 1.9

[Metadata]
Title:Fansa
TitleUnicode:ファンサ
Artist:Pastel*Palettes x Minato Aqua
ArtistUnicode:Pastel*Palettes × 湊あくあ
Creator:Minami-Kotori
Version:Inner Oni
Source:バンドリ! ガールズバンドパーティ!
Tags:パステルパレット パスパレ PasuPare BanG Dream! Bandori! Gāruzu Bando Pāti! Girls Band Party! gbp idol group Aya Maruyama 丸山彩 Hina Hikawa 氷川日菜 ヒナ・ヒカワ Chisato Shirasagi 白鷺千聖 Maya Yamato 大和麻弥 マヤ・ヤマト Eve Wakamiya 若宮イヴ maeshima ami 前島亜美 ozawa ari 小澤亜李 uesaka sumire 上坂すみれ nakagami ikumi 中上育実 hata sawako 秦佐和子 japanese j-pop jpop pop vtuber virtual youtuber バーチャルユーチューバー hololive production ホロライブプロダクション ホロライブ video game HoneyWorks ハニーワークス Hanīwākusu Elements Garden
BeatmapID:3787932
BeatmapSetID:1836456

[Difficulty]
HPDrainRate:5.5
CircleSize:5
OverallDifficulty:6.5
ApproachRate:5
SliderMultiplier:1.4
SliderTickRate:1

[Events]
//Background and Video events
0,0,"uooooooooooooooh-min.png",0,0
Video,0,"video.mp4"
//Break Periods
//Storyboard Layer 0 (Background)
//Storyboard Layer 1 (Fail)
//Storyboard Layer 2 (Pass)
//Storyboard Layer 3 (Foreground)
//Storyboard Layer 4 (Overlay)
//Storyboard Sound Samples

[TimingPoints]
3123,789.473684210526,4,1,0,35,1,0
9438,-100,4,1,0,42,0,0
18912,340.909090909091,4,1,0,56,1,0
50957,-99.009900990099,4,1,0,58,0,0
51035,-98.0392156862745,4,1,0,60,0,0
51120,-97.0873786407767,4,1,0,61,0,0
51213,-96.1538461538461,4,1,0,62,0,0
51298,-95.2380952380952,4,1,0,63,0,0
51376,-94.3396226415094,4,1,0,64,0,0
51461,-93.4579439252336,4,1,0,65,0,0
51554,-92.5925925925926,4,1,0,66,0,0
51639,-90.9090909090909,4,1,0,68,0,1
53684,-71.4285714285714,4,1,0,68,0,1
54366,-90.9090909090909,4,1,0,68,0,1
56412,-71.4285714285714,4,1,0,68,0,1
57093,-90.9090909090909,4,1,0,68,0,1
64593,-71.4285714285714,4,1,0,68,0,1
65275,-90.9090909090909,4,1,0,68,0,1
67321,-71.4285714285714,4,1,0,68,0,1
68002,-90.9090909090909,4,1,0,68,0,1
76184,-100,4,1,0,68,0,0
87179,-100,4,1,0,56,0,0
96639,-90.9090909090909,4,1,0,68,0,0
98002,-90.9090909090909,4,1,0,68,0,1
100048,-71.4285714285714,4,1,0,68,0,1
100730,-90.9090909090909,4,1,0,68,0,1
102775,-71.4285714285714,4,1,0,68,0,1
103457,-90.9090909090909,4,1,0,68,0,1
110957,-71.4285714285714,4,1,0,68,0,1
111639,-90.9090909090909,4,1,0,68,0,1
113684,-71.4285714285714,4,1,0,68,0,1
114366,-90.9090909090909,4,1,0,68,0,1
122548,-100,4,1,0,68,0,0

[HitObjects]
256,192,3123,5,0,0:0:0:0:
256,192,3320,1,0,0:0:0:0:
256,192,3517,1,8,0:0:0:0:
256,192,3715,1,0,0:0:0:0:
256,192,3912,1,8,0:0:0:0:
256,192,4307,1,8,0:0:0:0:
256,192,4701,1,8,0:0:0:0:
256,192,5491,1,8,0:0:0:0:
256,192,5886,1,8,0:0:0:0:
256,192,6280,1,8,0:0:0:0:
256,192,6478,1,0,0:0:0:0:
256,192,6675,1,0,0:0:0:0:
256,192,6872,1,0,0:0:0:0:
256,192,7070,1,8,0:0:0:0:
256,192,7465,1,8,0:0:0:0:
256,192,7859,1,8,0:0:0:0:
256,192,8649,1,8,0:0:0:0:
256,192,9044,1,8,0:0:0:0:
256,192,9438,1,0,0:0:0:0:
256,192,9833,1,0,0:0:0:0:
256,192,10228,1,0,0:0:0:0:
256,192,10622,1,8,0:0:0:0:
256,192,11017,1,8,0:0:0:0:
256,192,11412,1,0,0:0:0:0:
256,192,11807,1,0,0:0:0:0:
256,192,12596,1,0,0:0:0:0:
256,192,12991,1,0,0:0:0:0:
256,192,13188,1,0,0:0:0:0:
256,192,13386,1,0,0:0:0:0:
256,192,13780,1,0,0:0:0:0:
256,192,14175,1,8,0:0:0:0:
256,192,14372,1,8,0:0:0:0:
256,192,14570,1,8,0:0:0:0:
256,192,14965,1,8,0:0:0:0:
256,192,15359,1,8,0:0:0:0:
256,192,15754,8,8,18517,0:0:0:0:
256,192,18912,5,12,0:0:0:0:
256,192,19252,1,0,0:0:0:0:
256,192,19423,1,0,0:0:0:0:
256,192,19593,1,8,0:0:0:0:
256,192,19934,1,8,0:0:0:0:
256,192,20105,1,8,0:0:0:0:
256,192,20275,1,0,0:0:0:0:
256,192,20446,1,0,0:0:0:0:
256,192,20616,1,8,0:0:0:0:
256,192,20957,1,8,0:0:0:0:
251,194,21042,1,0,0:0:0:0:
256,192,21127,1,8,0:0:0:0:
256,192,21298,1,0,0:0:0:0:
256,192,21468,1,0,0:0:0:0:
256,192,21554,1,0,0:0:0:0:
256,192,21639,1,8,0:0:0:0:
256,192,21980,1,0,0:0:0:0:
256,192,22150,1,8,0:0:0:0:
256,192,22321,1,0,0:0:0:0:
256,192,22491,1,8,0:0:0:0:
256,192,22662,1,8,0:0:0:0:
256,192,22832,1,0,0:0:0:0:
256,192,22917,1,8,0:0:0:0:
256,192,23002,1,0,0:0:0:0:
256,192,23343,1,8,0:0:0:0:
256,192,23514,1,0,0:0:0:0:
256,192,23684,1,8,0:0:0:0:
256,192,23769,1,8,0:0:0:0:
256,192,23855,1,8,0:0:0:0:
256,192,23940,1,8,0:0:0:0:
256,192,24025,1,0,0:0:0:0:
256,192,24196,1,0,0:0:0:0:
256,192,24281,1,0,0:0:0:0:
256,192,24366,1,12,0:0:0:0:
256,192,24537,1,0,0:0:0:0:
256,192,24707,1,0,0:0:0:0:
256,192,24877,1,8,0:0:0:0:
256,192,25218,1,8,0:0:0:0:
256,192,25389,1,8,0:0:0:0:
256,192,25559,1,0,0:0:0:0:
256,192,25644,1,8,0:0:0:0:
256,192,25730,1,0,0:0:0:0:
256,192,25900,1,0,0:0:0:0:
256,192,26071,1,0,0:0:0:0:
256,192,26241,1,8,0:0:0:0:
256,192,26412,1,8,0:0:0:0:
256,192,26497,1,0,0:0:0:0:
256,192,26582,1,8,0:0:0:0:
256,192,26752,1,0,0:0:0:0:
256,192,26923,1,8,0:0:0:0:
256,192,27008,1,8,0:0:0:0:
256,192,27093,1,0,0:0:0:0:
256,192,27264,1,8,0:0:0:0:
256,192,27434,1,0,0:0:0:0:
256,192,27605,1,0,0:0:0:0:
256,192,27946,1,0,0:0:0:0:
256,192,28116,1,8,0:0:0:0:
256,192,28287,1,8,0:0:0:0:
256,192,28372,1,8,0:0:0:0:
256,192,28457,1,8,0:0:0:0:
256,192,28798,1,8,0:0:0:0:
256,192,28968,1,0,0:0:0:0:
256,192,29054,1,0,0:0:0:0:
256,192,29139,1,8,0:0:0:0:
256,192,29224,1,0,0:0:0:0:
256,192,29309,1,8,0:0:0:0:
256,192,29394,1,8,0:0:0:0:
256,192,29480,1,8,0:0:0:0:
256,192,29565,1,0,0:0:0:0:
256,192,29650,1,8,0:0:0:0:
256,192,29735,1,8,0:0:0:0:
256,192,29821,1,4,0:0:0:0:
256,192,30162,1,8,0:0:0:0:
256,192,30332,1,8,0:0:0:0:
256,192,30502,1,0,0:0:0:0:
256,192,30673,1,0,0:0:0:0:
256,192,30843,1,8,0:0:0:0:
256,192,31184,1,8,0:0:0:0:
256,192,31355,1,0,0:0:0:0:
256,192,31525,1,8,0:0:0:0:
256,192,31696,1,0,0:0:0:0:
256,192,31781,1,0,0:0:0:0:
256,192,31866,1,8,0:0:0:0:
256,192,31951,1,0,0:0:0:0:
256,192,32037,1,8,0:0:0:0:
256,192,32207,1,0,0:0:0:0:
256,192,32377,1,8,0:0:0:0:
256,192,32463,1,8,0:0:0:0:
256,192,32548,1,0,0:0:0:0:
256,192,32718,1,0,0:0:0:0:
256,192,32889,1,8,0:0:0:0:
256,192,33059,1,0,0:0:0:0:
256,192,33144,1,0,0:0:0:0:
256,192,33230,1,8,0:0:0:0:
256,192,33400,1,8,0:0:0:0:
256,192,33571,1,8,0:0:0:0:
256,192,33741,1,0,0:0:0:0:
256,192,33826,1,8,0:0:0:0:
256,192,33912,1,0,0:0:0:0:
256,192,34082,1,8,0:0:0:0:
256,192,34252,1,8,0:0:0:0:
256,192,34423,1,0,0:0:0:0:
255,197,34508,1,0,0:0:0:0:
256,192,34593,1,8,0:0:0:0:
256,192,34679,1,0,0:0:0:0:
256,192,34764,1,8,0:0:0:0:
256,192,34934,1,0,0:0:0:0:
256,192,35105,1,0,0:0:0:0:
256,192,35190,1,0,0:0:0:0:
256,192,35275,1,12,0:0:0:0:
256,192,35616,1,8,0:0:0:0:
256,192,35787,1,0,0:0:0:0:
256,192,35872,1,8,0:0:0:0:
256,192,35957,1,0,0:0:0:0:
256,192,36127,1,8,0:0:0:0:
256,192,36298,1,8,0:0:0:0:
256,192,36468,1,0,0:0:0:0:
256,192,36554,1,0,0:0:0:0:
256,192,36639,1,8,0:0:0:0:
256,192,36809,1,0,0:0:0:0:
256,192,36980,1,8,0:0:0:0:
256,192,37150,1,0,0:0:0:0:
256,192,37235,1,0,0:0:0:0:
256,192,37321,1,8,0:0:0:0:
256,192,37406,1,0,0:0:0:0:
256,192,37491,1,8,0:0:0:0:
256,192,37662,1,0,0:0:0:0:
256,192,37832,1,8,0:0:0:0:
256,192,37917,1,8,0:0:0:0:
256,192,38002,1,0,0:0:0:0:
256,192,38173,1,0,0:0:0:0:
256,192,38343,1,8,0:0:0:0:
256,192,38514,1,8,0:0:0:0:
256,192,38599,1,0,0:0:0:0:
256,192,38684,1,8,0:0:0:0:
256,192,38855,1,0,0:0:0:0:
256,192,39025,1,8,0:0:0:0:
256,192,39196,1,0,0:0:0:0:
256,192,39366,1,12,0:0:0:0:
256,192,39537,1,0,0:0:0:0:
256,192,39622,1,8,0:0:0:0:
256,192,39707,1,0,0:0:0:0:
256,192,39877,1,8,0:0:0:0:
256,192,39963,1,0,0:0:0:0:
256,192,40048,1,8,0:0:0:0:
256,192,40218,1,8,0:0:0:0:
256,192,40304,1,8,0:0:0:0:
256,192,40389,1,0,0:0:0:0:
256,192,40474,1,0,0:0:0:0:
256,192,40559,1,8,0:0:0:0:
256,192,40644,1,8,0:0:0:0:
256,192,40730,1,4,0:0:0:0:
256,192,41071,1,8,0:0:0:0:
256,192,41241,1,0,0:0:0:0:
256,192,41412,1,8,0:0:0:0:
256,192,41752,1,8,0:0:0:0:
256,192,41923,1,0,0:0:0:0:
256,192,42008,1,0,0:0:0:0:
256,192,42093,1,0,0:0:0:0:
256,192,42264,1,8,0:0:0:0:
256,192,42605,1,0,0:0:0:0:
256,192,42775,1,8,0:0:0:0:
256,192,42946,1,0,0:0:0:0:
256,192,43116,1,0,0:0:0:0:
256,192,43457,1,12,0:0:0:0:
256,192,43798,1,8,0:0:0:0:
256,192,43968,1,0,0:0:0:0:
256,192,44054,1,8,0:0:0:0:
256,192,44139,1,0,0:0:0:0:
256,192,44480,1,8,0:0:0:0:
256,192,44650,1,0,0:0:0:0:
256,192,44735,1,0,0:0:0:0:
256,192,44821,1,0,0:0:0:0:
256,192,44991,1,8,0:0:0:0:
256,192,45162,1,8,0:0:0:0:
256,192,45332,1,0,0:0:0:0:
256,192,45502,1,0,0:0:0:0:
256,192,45588,1,0,0:0:0:0:
256,192,45673,1,8,0:0:0:0:
256,192,45758,1,0,0:0:0:0:
256,192,45843,1,8,0:0:0:0:
256,192,45929,1,8,0:0:0:0:
256,192,46014,1,0,0:0:0:0:
256,192,46099,1,0,0:0:0:0:
256,192,46184,1,12,0:0:0:0:
256,192,46525,1,8,0:0:0:0:
256,192,46696,1,0,0:0:0:0:
256,192,46866,1,8,0:0:0:0:
256,192,47207,1,8,0:0:0:0:
256,192,47377,1,0,0:0:0:0:
256,192,47463,1,0,0:0:0:0:
256,192,47548,1,0,0:0:0:0:
256,192,47718,1,8,0:0:0:0:
256,192,47889,1,8,0:0:0:0:
256,192,48059,1,0,0:0:0:0:
256,192,48144,1,0,0:0:0:0:
256,192,48230,1,8,0:0:0:0:
256,192,48571,1,0,0:0:0:0:
256,192,48656,1,0,0:0:0:0:
256,192,48741,1,8,0:0:0:0:
256,192,48826,1,8,0:0:0:0:
256,192,48912,1,4,0:0:0:0:
256,192,49082,1,8,0:0:0:0:
256,192,49252,1,8,0:0:0:0:
256,192,49423,1,0,0:0:0:0:
256,192,49593,1,8,0:0:0:0:
256,192,49764,1,0,0:0:0:0:
256,192,49934,1,0,0:0:0:0:
256,192,50105,1,0,0:0:0:0:
256,192,50190,1,0,0:0:0:0:
256,192,50275,1,8,0:0:0:0:
256,192,50957,1,8,0:0:0:0:
256,192,51042,1,8,0:0:0:0:
256,192,51127,1,8,0:0:0:0:
256,192,51213,1,8,0:0:0:0:
256,192,51298,1,8,0:0:0:0:
256,192,51383,1,8,0:0:0:0:
256,192,51468,1,8,0:0:0:0:
256,192,51554,1,8,0:0:0:0:
256,192,51639,1,4,0:0:0:0:
256,192,51809,1,8,0:0:0:0:
256,192,51980,1,0,0:0:0:0:
256,192,52150,1,0,0:0:0:0:
256,192,52321,1,8,0:0:0:0:
256,192,52406,1,8,0:0:0:0:
256,192,52491,1,8,0:0:0:0:
256,192,52662,1,8,0:0:0:0:
256,192,52832,1,0,0:0:0:0:
256,192,52917,1,0,0:0:0:0:
256,192,53002,1,8,0:0:0:0:
256,192,53088,1,8,0:0:0:0:
256,192,53173,1,0,0:0:0:0:
256,192,53343,1,0,0:0:0:0:
256,192,53514,1,8,0:0:0:0:
256,192,53684,1,12,0:0:0:0:
256,192,54025,1,12,0:0:0:0:
256,192,54366,1,0,0:0:0:0:
256,192,54537,1,0,0:0:0:0:
256,192,54707,1,8,0:0:0:0:
256,192,54877,1,0,0:0:0:0:
256,192,55048,1,0,0:0:0:0:
256,192,55133,1,0,0:0:0:0:
256,192,55218,1,0,0:0:0:0:
256,192,55389,1,8,0:0:0:0:
256,192,55559,1,0,0:0:0:0:
256,192,55644,1,0,0:0:0:0:
256,192,55730,1,8,0:0:0:0:
256,192,55815,1,8,0:0:0:0:
256,192,55900,1,0,0:0:0:0:
256,192,56071,1,0,0:0:0:0:
256,192,56241,1,8,0:0:0:0:
256,192,56412,1,12,0:0:0:0:
256,192,56752,1,12,0:0:0:0:
256,192,57093,1,0,0:0:0:0:
256,192,57264,1,0,0:0:0:0:
256,192,57349,1,0,0:0:0:0:
256,192,57434,1,8,0:0:0:0:
256,192,57605,1,8,0:0:0:0:
256,192,57775,1,0,0:0:0:0:
256,192,57946,1,0,0:0:0:0:
256,192,58116,1,8,0:0:0:0:
256,192,58287,1,8,0:0:0:0:
256,192,58372,1,8,0:0:0:0:
256,192,58457,1,8,0:0:0:0:
256,192,58627,1,0,0:0:0:0:
256,192,58798,1,8,0:0:0:0:
256,192,58968,1,0,0:0:0:0:
256,192,59054,1,0,0:0:0:0:
256,192,59139,1,8,0:0:0:0:
256,192,59309,1,0,0:0:0:0:
256,192,59480,1,8,0:0:0:0:
256,192,59821,1,8,0:0:0:0:
256,192,59906,1,8,0:0:0:0:
256,192,59991,1,0,0:0:0:0:
256,192,60076,1,8,0:0:0:0:
256,192,60162,1,0,0:0:0:0:
256,192,60332,1,8,0:0:0:0:
256,192,60502,1,8,0:0:0:0:
256,192,60588,1,8,0:0:0:0:
256,192,60673,1,0,0:0:0:0:
256,192,60843,1,8,0:0:0:0:
256,192,61014,1,0,0:0:0:0:
256,192,61184,1,8,0:0:0:0:
256,192,61355,1,0,0:0:0:0:
256,192,61440,1,0,0:0:0:0:
256,192,61525,1,8,0:0:0:0:
256,192,61696,1,8,0:0:0:0:
256,192,61781,1,8,0:0:0:0:
256,192,61866,1,0,0:0:0:0:
256,192,62037,1,0,0:0:0:0:
256,192,62122,1,0,0:0:0:0:
256,192,62207,1,8,0:0:0:0:
256,192,62292,1,8,0:0:0:0:
256,192,62377,1,0,0:0:0:0:
256,192,62463,1,0,0:0:0:0:
256,192,62548,1,12,0:0:0:0:
256,192,62718,1,0,0:0:0:0:
256,192,62889,1,0,0:0:0:0:
256,192,63059,1,8,0:0:0:0:
256,192,63230,1,8,0:0:0:0:
256,192,63315,1,8,0:0:0:0:
256,192,63400,1,0,0:0:0:0:
256,192,63571,1,8,0:0:0:0:
256,192,63741,1,0,0:0:0:0:
256,192,63826,1,0,0:0:0:0:
256,192,63912,1,8,0:0:0:0:
256,192,63997,1,8,0:0:0:0:
256,192,64082,1,0,0:0:0:0:
256,192,64252,1,0,0:0:0:0:
256,192,64423,1,8,0:0:0:0:
256,192,64593,1,12,0:0:0:0:
256,192,64934,1,12,0:0:0:0:
256,192,65275,1,8,0:0:0:0:
256,192,65446,1,0,0:0:0:0:
256,192,65616,1,0,0:0:0:0:
256,192,65787,1,8,0:0:0:0:
256,192,65957,1,0,0:0:0:0:
256,192,66042,1,0,0:0:0:0:
256,192,66127,1,0,0:0:0:0:
256,192,66298,1,8,0:0:0:0:
256,192,66468,1,0,0:0:0:0:
256,192,66554,1,0,0:0:0:0:
256,192,66639,1,8,0:0:0:0:
256,192,66724,1,8,0:0:0:0:
256,192,66809,1,0,0:0:0:0:
256,192,66980,1,0,0:0:0:0:
256,192,67150,1,8,0:0:0:0:
256,192,67321,1,12,0:0:0:0:
256,192,67662,1,12,0:0:0:0:
256,192,68002,1,0,0:0:0:0:
256,192,68173,1,0,0:0:0:0:
256,192,68258,1,0,0:0:0:0:
256,192,68343,1,8,0:0:0:0:
256,192,68514,1,8,0:0:0:0:
256,192,68684,1,0,0:0:0:0:
256,192,68855,1,0,0:0:0:0:
256,192,69025,1,8,0:0:0:0:
256,192,69196,1,8,0:0:0:0:
256,192,69281,1,8,0:0:0:0:
256,192,69366,1,8,0:0:0:0:
256,192,69537,1,0,0:0:0:0:
256,192,69707,1,8,0:0:0:0:
256,192,69877,1,0,0:0:0:0:
256,192,69963,1,0,0:0:0:0:
256,192,70048,1,8,0:0:0:0:
256,192,70218,1,0,0:0:0:0:
256,192,70389,1,0,0:0:0:0:
256,192,70730,1,8,0:0:0:0:
256,192,70815,1,8,0:0:0:0:
256,192,70900,1,0,0:0:0:0:
256,192,70985,1,8,0:0:0:0:
256,192,71071,1,0,0:0:0:0:
256,192,71241,1,8,0:0:0:0:
256,192,71412,1,8,0:0:0:0:
256,192,71497,1,8,0:0:0:0:
256,192,71582,1,0,0:0:0:0:
256,192,71752,1,8,0:0:0:0:
256,192,71923,1,0,0:0:0:0:
256,192,72093,1,8,0:0:0:0:
256,192,72264,1,0,0:0:0:0:
256,192,72349,1,0,0:0:0:0:
256,192,72434,1,8,0:0:0:0:
256,192,72519,1,8,0:0:0:0:
256,192,72605,1,0,0:0:0:0:
256,192,72690,1,0,0:0:0:0:
256,192,72775,1,8,0:0:0:0:
256,192,72860,1,8,0:0:0:0:
256,192,72946,1,8,0:0:0:0:
256,192,73031,1,8,0:0:0:0:
256,192,73116,1,0,0:0:0:0:
256,192,73201,1,0,0:0:0:0:
256,192,73287,1,0,0:0:0:0:
256,192,73372,1,0,0:0:0:0:
256,192,73457,1,12,0:0:0:0:
256,192,74821,1,8,0:0:0:0:
256,192,74991,1,8,0:0:0:0:
256,192,75076,1,8,0:0:0:0:
256,192,75162,1,0,0:0:0:0:
256,192,75332,1,0,0:0:0:0:
256,192,75502,1,8,0:0:0:0:
256,192,75673,1,0,0:0:0:0:
256,192,75758,1,0,0:0:0:0:
256,192,75843,1,8,0:0:0:0:
256,192,76184,1,12,0:0:0:0:
256,192,76525,1,8,0:0:0:0:
256,192,76696,1,0,0:0:0:0:
256,192,76866,1,8,0:0:0:0:
256,192,76951,1,8,0:0:0:0:
256,192,77037,1,0,0:0:0:0:
256,192,77207,1,8,0:0:0:0:
256,192,77377,1,0,0:0:0:0:
256,192,77463,1,0,0:0:0:0:
256,192,77548,1,8,0:0:0:0:
256,192,77889,1,8,0:0:0:0:
256,192,78230,1,8,0:0:0:0:
256,192,78400,1,0,0:0:0:0:
256,192,78485,1,0,0:0:0:0:
256,192,78571,1,8,0:0:0:0:
256,192,78741,1,0,0:0:0:0:
256,192,78912,1,0,0:0:0:0:
256,192,79252,1,8,0:0:0:0:
256,192,79423,1,0,0:0:0:0:
256,192,79593,1,8,0:0:0:0:
256,192,79678,1,8,0:0:0:0:
256,192,79764,1,0,0:0:0:0:
256,192,79934,1,8,0:0:0:0:
256,192,80104,1,0,0:0:0:0:
256,192,80190,1,0,0:0:0:0:
256,192,80275,1,8,0:0:0:0:
256,192,80360,1,8,0:0:0:0:
256,192,80531,1,0,0:0:0:0:
256,192,80616,1,8,0:0:0:0:
256,192,80787,1,8,0:0:0:0:
256,192,80872,1,8,0:0:0:0:
256,192,80957,1,0,0:0:0:0:
256,192,81042,1,8,0:0:0:0:
256,192,81213,1,8,0:0:0:0:
256,192,81298,1,0,0:0:0:0:
256,192,81468,1,8,0:0:0:0:
256,192,81554,1,8,0:0:0:0:
256,192,81639,1,4,0:0:0:0:
256,192,81980,1,8,0:0:0:0:
256,192,82321,1,0,0:0:0:0:
256,192,82491,1,0,0:0:0:0:
256,192,82662,1,8,0:0:0:0:
256,192,83002,1,8,0:0:0:0:
256,192,83088,1,8,0:0:0:0:
256,192,83173,1,0,0:0:0:0:
256,192,83343,1,0,0:0:0:0:
256,192,83514,1,8,0:0:0:0:
256,192,83599,1,8,0:0:0:0:
256,192,83684,1,0,0:0:0:0:
256,192,83769,1,0,0:0:0:0:
256,192,83855,1,8,0:0:0:0:
256,192,84025,1,8,0:0:0:0:
256,192,84366,1,12,0:0:0:0:
256,192,84537,1,0,0:0:0:0:
256,192,84622,1,0,0:0:0:0:
256,192,84707,1,8,0:0:0:0:
256,192,84877,1,8,0:0:0:0:
256,192,85048,1,0,0:0:0:0:
256,192,85133,1,8,0:0:0:0:
256,192,85218,1,0,0:0:0:0:
256,192,85389,1,8,0:0:0:0:
256,192,85559,1,8,0:0:0:0:
256,192,85730,1,4,0:0:0:0:
256,192,85900,1,8,0:0:0:0:
256,192,85985,1,0,0:0:0:0:
256,192,86071,1,8,0:0:0:0:
256,192,86156,1,8,0:0:0:0:
256,192,86241,1,0,0:0:0:0:
256,192,86326,1,8,0:0:0:0:
256,192,86412,1,0,0:0:0:0:
256,192,86497,1,0,0:0:0:0:
256,192,86582,1,0,0:0:0:0:
256,192,86667,1,0,0:0:0:0:
256,192,86752,1,8,0:0:0:0:
256,192,86838,1,0,0:0:0:0:
256,192,86923,1,8,0:0:0:0:
256,192,87008,1,8,0:0:0:0:
256,192,87093,1,4,0:0:0:0:
256,192,87264,1,0,0:0:0:0:
256,192,87434,1,8,0:0:0:0:
256,192,87605,1,0,0:0:0:0:
256,192,87775,1,8,0:0:0:0:
256,192,88116,1,8,0:0:0:0:
256,192,88287,1,0,0:0:0:0:
256,192,88372,1,0,0:0:0:0:
256,192,88457,1,8,0:0:0:0:
256,192,88798,1,0,0:0:0:0:
256,192,89139,1,8,0:0:0:0:
256,192,89480,1,8,0:0:0:0:
256,192,89650,1,0,0:0:0:0:
256,192,89821,1,8,0:0:0:0:
256,192,89991,1,0,0:0:0:0:
256,192,90162,1,0,0:0:0:0:
256,192,90332,1,0,0:0:0:0:
256,192,90502,1,8,0:0:0:0:
256,192,90843,1,8,0:0:0:0:
256,192,91014,1,0,0:0:0:0:
256,192,91099,1,0,0:0:0:0:
256,192,91184,1,8,0:0:0:0:
256,192,91525,1,0,0:0:0:0:
256,192,91866,1,8,0:0:0:0:
256,192,92207,1,8,0:0:0:0:
256,192,92377,1,0,0:0:0:0:
256,192,92548,1,4,0:0:0:0:
256,192,92889,1,0,0:0:0:0:
256,192,93230,1,0,0:0:0:0:
256,192,93571,1,0,0:0:0:0:
256,192,93912,1,8,0:0:0:0:
256,192,94252,1,8,0:0:0:0:
256,192,94593,1,0,0:0:0:0:
256,192,94764,1,8,0:0:0:0:
256,192,95105,1,8,0:0:0:0:
256,192,95275,1,4,0:0:0:0:
256,192,95446,1,0,0:0:0:0:
256,192,95616,1,0,0:0:0:0:
256,192,95787,1,8,0:0:0:0:
256,192,95957,1,0,0:0:0:0:
256,192,96127,1,8,0:0:0:0:
256,192,96298,1,8,0:0:0:0:
256,192,96639,1,8,0:0:0:0:
256,192,96724,1,0,0:0:0:0:
256,192,96809,1,8,0:0:0:0:
256,192,96894,1,8,0:0:0:0:
256,192,96980,1,0,0:0:0:0:
256,192,97065,1,8,0:0:0:0:
256,192,97150,1,0,0:0:0:0:
256,192,97235,1,0,0:0:0:0:
256,192,97321,1,8,0:0:0:0:
256,192,97406,1,0,0:0:0:0:
256,192,97491,1,8,0:0:0:0:
256,192,97576,1,8,0:0:0:0:
256,192,97662,1,0,0:0:0:0:
256,192,97747,1,0,0:0:0:0:
256,192,97832,1,0,0:0:0:0:
256,192,97917,1,0,0:0:0:0:
256,192,98002,1,12,0:0:0:0:
256,192,98173,1,8,0:0:0:0:
256,192,98343,1,0,0:0:0:0:
256,192,98514,1,0,0:0:0:0:
256,192,98684,1,8,0:0:0:0:
256,192,98769,1,8,0:0:0:0:
256,192,98855,1,8,0:0:0:0:
256,192,99025,1,8,0:0:0:0:
256,192,99196,1,0,0:0:0:0:
256,192,99281,1,0,0:0:0:0:
256,192,99366,1,8,0:0:0:0:
256,192,99451,1,8,0:0:0:0:
256,192,99537,1,0,0:0:0:0:
256,192,99707,1,0,0:0:0:0:
256,192,99877,1,8,0:0:0:0:
256,192,100048,1,12,0:0:0:0:
256,192,100389,1,12,0:0:0:0:
256,192,100730,1,0,0:0:0:0:
256,192,100900,1,0,0:0:0:0:
256,192,101071,1,8,0:0:0:0:
256,192,101241,1,0,0:0:0:0:
256,192,101412,1,0,0:0:0:0:
256,192,101497,1,0,0:0:0:0:
256,192,101582,1,0,0:0:0:0:
256,192,101752,1,8,0:0:0:0:
256,192,101923,1,0,0:0:0:0:
256,192,102008,1,0,0:0:0:0:
256,192,102093,1,8,0:0:0:0:
256,192,102179,1,8,0:0:0:0:
256,192,102264,1,0,0:0:0:0:
256,192,102434,1,0,0:0:0:0:
256,192,102605,1,8,0:0:0:0:
256,192,102775,1,12,0:0:0:0:
256,192,103116,1,12,0:0:0:0:
256,192,103457,1,0,0:0:0:0:
256,192,103627,1,0,0:0:0:0:
256,192,103713,1,0,0:0:0:0:
256,192,103798,1,8,0:0:0:0:
256,192,103968,1,8,0:0:0:0:
256,192,104139,1,0,0:0:0:0:
256,192,104309,1,0,0:0:0:0:
256,192,104480,1,8,0:0:0:0:
256,192,104650,1,8,0:0:0:0:
256,192,104735,1,8,0:0:0:0:
256,192,104821,1,8,0:0:0:0:
256,192,104991,1,0,0:0:0:0:
256,192,105162,1,8,0:0:0:0:
256,192,105332,1,0,0:0:0:0:
256,192,105417,1,0,0:0:0:0:
256,192,105502,1,8,0:0:0:0:
256,192,105673,1,0,0:0:0:0:
256,192,105843,1,8,0:0:0:0:
256,192,106184,1,8,0:0:0:0:
256,192,106269,1,8,0:0:0:0:
256,192,106355,1,0,0:0:0:0:
256,192,106440,1,8,0:0:0:0:
256,192,106525,1,0,0:0:0:0:
256,192,106696,1,8,0:0:0:0:
256,192,106866,1,8,0:0:0:0:
256,192,106951,1,8,0:0:0:0:
256,192,107037,1,0,0:0:0:0:
256,192,107207,1,8,0:0:0:0:
256,192,107377,1,0,0:0:0:0:
256,192,107548,1,8,0:0:0:0:
256,192,107718,1,0,0:0:0:0:
256,192,107804,1,0,0:0:0:0:
256,192,107889,1,8,0:0:0:0:
256,192,108059,1,8,0:0:0:0:
256,192,108144,1,8,0:0:0:0:
256,192,108230,1,0,0:0:0:0:
256,192,108400,1,0,0:0:0:0:
256,192,108485,1,0,0:0:0:0:
256,192,108571,1,8,0:0:0:0:
256,192,108656,1,8,0:0:0:0:
256,192,108741,1,0,0:0:0:0:
256,192,108826,1,0,0:0:0:0:
256,192,108912,1,12,0:0:0:0:
256,192,109082,1,0,0:0:0:0:
256,192,109252,1,0,0:0:0:0:
256,192,109423,1,8,0:0:0:0:
256,192,109593,1,8,0:0:0:0:
256,192,109679,1,8,0:0:0:0:
256,192,109764,1,0,0:0:0:0:
256,192,109934,1,8,0:0:0:0:
256,192,110105,1,0,0:0:0:0:
256,192,110190,1,0,0:0:0:0:
256,192,110275,1,8,0:0:0:0:
256,192,110360,1,8,0:0:0:0:
256,192,110446,1,0,0:0:0:0:
256,192,110616,1,0,0:0:0:0:
256,192,110787,1,8,0:0:0:0:
256,192,110957,1,12,0:0:0:0:
256,192,111298,1,12,0:0:0:0:
256,192,111639,1,8,0:0:0:0:
256,192,111809,1,0,0:0:0:0:
256,192,111980,1,0,0:0:0:0:
256,192,112150,1,8,0:0:0:0:
256,192,112321,1,0,0:0:0:0:
256,192,112406,1,0,0:0:0:0:
256,192,112491,1,0,0:0:0:0:
256,192,112662,1,8,0:0:0:0:
256,192,112832,1,0,0:0:0:0:
256,192,112917,1,0,0:0:0:0:
256,192,113002,1,8,0:0:0:0:
256,192,113088,1,8,0:0:0:0:
256,192,113173,1,0,0:0:0:0:
256,192,113343,1,0,0:0:0:0:
256,192,113514,1,8,0:0:0:0:
256,192,113684,1,12,0:0:0:0:
256,192,114025,1,12,0:0:0:0:
256,192,114366,1,0,0:0:0:0:
256,192,114537,1,0,0:0:0:0:
256,192,114622,1,0,0:0:0:0:
256,192,114707,1,8,0:0:0:0:
256,192,114877,1,8,0:0:0:0:
256,192,115048,1,0,0:0:0:0:
256,192,115218,1,0,0:0:0:0:
256,192,115389,1,8,0:0:0:0:
256,192,115559,1,8,0:0:0:0:
256,192,115644,1,8,0:0:0:0:
256,192,115730,1,8,0:0:0:0:
256,192,115900,1,0,0:0:0:0:
256,192,116071,1,8,0:0:0:0:
256,192,116241,1,0,0:0:0:0:
256,192,116326,1,0,0:0:0:0:
256,192,116412,1,8,0:0:0:0:
256,192,116582,1,0,0:0:0:0:
256,192,116752,1,8,0:0:0:0:
256,192,117093,1,8,0:0:0:0:
256,192,117179,1,8,0:0:0:0:
256,192,117264,1,0,0:0:0:0:
256,192,117349,1,8,0:0:0:0:
256,192,117434,1,0,0:0:0:0:
256,192,117605,1,8,0:0:0:0:
256,192,117775,1,8,0:0:0:0:
256,192,117860,1,8,0:0:0:0:
256,192,117946,1,0,0:0:0:0:
256,192,118116,1,8,0:0:0:0:
256,192,118287,1,0,0:0:0:0:
256,192,118457,1,8,0:0:0:0:
256,192,118627,1,0,0:0:0:0:
256,192,118713,1,8,0:0:0:0:
256,192,118798,1,0,0:0:0:0:
256,192,118883,1,0,0:0:0:0:
256,192,118968,1,8,0:0:0:0:
256,192,119054,1,0,0:0:0:0:
256,192,119139,1,8,0:0:0:0:
256,192,119224,1,8,0:0:0:0:
256,192,119309,1,8,0:0:0:0:
256,192,119394,1,8,0:0:0:0:
256,192,119480,1,0,0:0:0:0:
256,192,119565,1,0,0:0:0:0:
256,192,119650,1,0,0:0:0:0:
256,192,119735,1,0,0:0:0:0:
256,192,119821,1,12,0:0:0:0:
256,192,121184,1,8,0:0:0:0:
256,192,121355,1,8,0:0:0:0:
256,192,121440,1,8,0:0:0:0:
256,192,121525,1,0,0:0:0:0:
256,192,121696,1,0,0:0:0:0:
256,192,121866,1,8,0:0:0:0:
256,192,122037,1,0,0:0:0:0:
256,192,122122,1,0,0:0:0:0:
256,192,122207,1,8,0:0:0:0:
256,192,122548,1,12,0:0:0:0:
256,192,122889,1,8,0:0:0:0:
256,192,123059,1,0,0:0:0:0:
256,192,123230,1,8,0:0:0:0:
256,192,123315,1,8,0:0:0:0:
256,192,123400,1,0,0:0:0:0:
256,192,123571,1,8,0:0:0:0:
256,192,123741,1,0,0:0:0:0:
256,192,123826,1,0,0:0:0:0:
256,192,123912,1,8,0:0:0:0:
256,192,124252,1,8,0:0:0:0:
256,192,124593,1,8,0:0:0:0:
256,192,124764,1,0,0:0:0:0:
256,192,124849,1,0,0:0:0:0:
256,192,124934,1,8,0:0:0:0:
256,192,125105,1,0,0:0:0:0:
256,192,125275,1,0,0:0:0:0:
256,192,125616,1,8,0:0:0:0:
256,192,125787,1,0,0:0:0:0:
256,192,125957,1,8,0:0:0:0:
256,192,126042,1,8,0:0:0:0:
256,192,126128,1,0,0:0:0:0:
256,192,126298,1,8,0:0:0:0:
256,192,126468,1,0,0:0:0:0:
256,192,126554,1,0,0:0:0:0:
256,192,126639,1,8,0:0:0:0:
256,192,126724,1,8,0:0:0:0:
256,192,126894,1,0,0:0:0:0:
256,192,126980,1,8,0:0:0:0:
256,192,127150,1,8,0:0:0:0:
256,192,127235,1,8,0:0:0:0:
256,192,127321,1,0,0:0:0:0:
256,192,127406,1,8,0:0:0:0:
256,192,127576,1,8,0:0:0:0:
256,192,127662,1,0,0:0:0:0:
256,192,127832,1,8,0:0:0:0:
256,192,127917,1,8,0:0:0:0:
256,192,128002,1,4,0:0:0:0:
256,192,128343,1,8,0:0:0:0:
256,192,128684,1,0,0:0:0:0:
256,192,128855,1,0,0:0:0:0:
256,192,129025,1,8,0:0:0:0:
256,192,129366,1,8,0:0:0:0:
256,192,129451,1,8,0:0:0:0:
256,192,129537,1,0,0:0:0:0:
256,192,129707,1,0,0:0:0:0:
256,192,129877,1,8,0:0:0:0:
256,192,129963,1,8,0:0:0:0:
256,192,130048,1,0,0:0:0:0:
256,192,130133,1,0,0:0:0:0:
256,192,130218,1,8,0:0:0:0:
256,192,130389,1,8,0:0:0:0:
256,192,130730,1,12,0:0:0:0:
256,192,130900,1,0,0:0:0:0:
256,192,130985,1,0,0:0:0:0:
256,192,131071,1,8,0:0:0:0:
256,192,131241,1,8,0:0:0:0:
256,192,131412,1,0,0:0:0:0:
256,192,131497,1,8,0:0:0:0:
256,192,131582,1,0,0:0:0:0:
256,192,131752,1,8,0:0:0:0:
256,192,131923,1,8,0:0:0:0:
256,192,132093,1,4,0:0:0:0:
256,192,132264,1,0,0:0:0:0:
248,183,132349,1,0,0:0:0:0:
256,192,132434,1,8,0:0:0:0:
256,192,132519,1,0,0:0:0:0:
256,192,132605,1,8,0:0:0:0:
256,192,132690,1,8,0:0:0:0:
256,192,132775,1,0,0:0:0:0:
256,192,132860,1,0,0:0:0:0:
256,192,132946,1,0,0:0:0:0:
256,192,133031,1,0,0:0:0:0:
256,192,133116,1,8,0:0:0:0:
256,192,133201,1,0,0:0:0:0:
256,192,133287,1,8,0:0:0:0:
256,192,133372,1,8,0:0:0:0:
256,192,133457,1,4,0:0:0:0:
