osu file format v14

[General]
AudioFilename: audio.mp3
AudioLeadIn: 0
PreviewTime: 50616
Countdown: 0
SampleSet: Normal
StackLeniency: 0.7
Mode: 1
LetterboxInBreaks: 0
WidescreenStoryboard: 1

[Editor]
DistanceSpacing: 0.8
BeatDivisor: 2
GridSize: 32
TimelineZoom: 1.2

[Metadata]
Title:Fansa
TitleUnicode:ファンサ
Artist:Pastel*Palettes x Minato Aqua
ArtistUnicode:Pastel*Palettes × 湊あくあ
Creator:Minami-Kotori
Version:Futsuu
Source:バンドリ! ガールズバンドパーティ!
Tags:パステルパレット パスパレ PasuPare BanG Dream! Bandori! Gāruzu Bando Pāti! Girls Band Party! gbp idol group Aya Maruyama 丸山彩 Hina Hikawa 氷川日菜 ヒナ・ヒカワ Chisato Shirasagi 白鷺千聖 Maya Yamato 大和麻弥 マヤ・ヤマト Eve Wakamiya 若宮イヴ maeshima ami 前島亜美 ozawa ari 小澤亜李 uesaka sumire 上坂すみれ nakagami ikumi 中上育実 hata sawako 秦佐和子 japanese j-pop jpop pop vtuber virtual youtuber バーチャルユーチューバー hololive production ホロライブプロダクション ホロライブ video game HoneyWorks ハニーワークス Hanīwākusu Elements Garden
BeatmapID:3770606
BeatmapSetID:1836456

[Difficulty]
HPDrainRate:7
CircleSize:5
OverallDifficulty:4
ApproachRate:5
SliderMultiplier:1.4
SliderTickRate:1

[Events]
//Background and Video events
0,0,"uooooooooooooooh-min.png",0,0
Video,0,"video.mp4"
//Break Periods
//Storyboard Layer 0 (Background)
//Storyboard Layer 1 (Fail)
//Storyboard Layer 2 (Pass)
//Storyboard Layer 3 (Foreground)
//Storyboard Layer 4 (Overlay)
//Storyboard Sound Samples

[TimingPoints]
3123,789.473684210526,4,1,0,35,1,0
9438,-100,4,1,0,42,0,0
18912,340.909090909091,4,1,0,56,1,0
51639,-100,4,1,0,68,0,1
76184,-100,4,1,0,68,0,0
87179,-100,4,1,0,56,0,0
98002,-100,4,1,0,68,0,1
122548,-100,4,1,0,68,0,0

[HitObjects]
256,192,3123,5,0,0:0:0:0:
256,192,4701,1,8,0:0:0:0:
256,192,5491,1,8,0:0:0:0:
256,192,6280,1,0,0:0:0:0:
256,192,7859,1,8,0:0:0:0:
256,192,8649,1,8,0:0:0:0:
256,192,9438,1,0,0:0:0:0:
256,192,11017,1,8,0:0:0:0:
256,192,11807,1,8,0:0:0:0:
256,192,12596,1,0,0:0:0:0:
256,192,14175,1,8,0:0:0:0:
256,192,14965,1,8,0:0:0:0:
256,192,15754,12,8,18517,0:0:0:0:
256,192,18912,5,12,0:0:0:0:
256,192,19252,1,8,0:0:0:0:
256,192,19423,1,0,0:0:0:0:
256,192,19593,1,8,0:0:0:0:
256,192,19934,1,8,0:0:0:0:
256,192,20105,1,0,0:0:0:0:
256,192,21298,1,0,0:0:0:0:
256,192,21468,1,0,0:0:0:0:
256,192,21639,1,8,0:0:0:0:
256,192,21809,1,0,0:0:0:0:
256,192,22150,1,0,0:0:0:0:
256,192,22491,1,0,0:0:0:0:
256,192,22832,1,8,0:0:0:0:
256,192,24025,1,8,0:0:0:0:
256,192,24366,1,12,0:0:0:0:
256,192,24537,1,0,0:0:0:0:
256,192,24877,1,0,0:0:0:0:
256,192,25218,1,8,0:0:0:0:
256,192,25559,1,8,0:0:0:0:
256,192,26752,1,0,0:0:0:0:
256,192,27093,1,8,0:0:0:0:
256,192,27264,1,8,0:0:0:0:
256,192,27605,1,8,0:0:0:0:
256,192,27946,1,0,0:0:0:0:
256,192,28116,1,0,0:0:0:0:
256,192,28287,1,8,0:0:0:0:
256,192,28457,1,8,0:0:0:0:
256,192,28798,1,8,0:0:0:0:
256,192,28968,1,8,0:0:0:0:
256,192,29139,1,0,0:0:0:0:
256,192,29309,1,0,0:0:0:0:
258,187,29480,1,8,0:0:0:0:
256,192,29821,1,12,0:0:0:0:
256,192,30162,1,8,0:0:0:0:
256,192,30332,1,8,0:0:0:0:
256,192,30502,1,0,0:0:0:0:
256,192,30843,1,8,0:0:0:0:
256,192,31014,1,0,0:0:0:0:
256,192,31184,1,8,0:0:0:0:
256,192,32207,1,8,0:0:0:0:
256,192,32377,1,8,0:0:0:0:
256,192,32548,1,0,0:0:0:0:
256,192,32718,1,0,0:0:0:0:
256,192,33059,1,0,0:0:0:0:
256,192,33400,1,0,0:0:0:0:
256,192,33571,1,8,0:0:0:0:
256,192,33741,1,0,0:0:0:0:
256,192,33912,1,0,0:0:0:0:
256,192,34934,1,8,0:0:0:0:
256,192,35105,1,0,0:0:0:0:
256,192,35275,1,12,0:0:0:0:
256,192,35616,1,8,0:0:0:0:
256,192,35787,1,0,0:0:0:0:
256,192,36127,1,0,0:0:0:0:
256,192,36468,1,8,0:0:0:0:
256,192,36639,1,0,0:0:0:0:
256,192,37662,1,8,0:0:0:0:
256,192,37832,1,8,0:0:0:0:
256,192,38002,1,0,0:0:0:0:
256,192,38173,1,0,0:0:0:0:
256,192,38514,1,8,0:0:0:0:
256,192,38855,1,0,0:0:0:0:
256,192,39196,1,0,0:0:0:0:
256,192,39366,1,12,0:0:0:0:
256,192,39707,1,8,0:0:0:0:
256,192,40048,1,8,0:0:0:0:
256,192,40218,1,8,0:0:0:0:
256,192,40389,1,0,0:0:0:0:
256,192,40730,1,12,0:0:0:0:
256,192,41241,1,0,0:0:0:0:
256,192,41412,1,8,0:0:0:0:
256,192,42093,1,0,0:0:0:0:
256,192,42264,1,8,0:0:0:0:
256,192,42605,1,0,0:0:0:0:
256,192,42775,1,8,0:0:0:0:
256,192,43116,1,0,0:0:0:0:
256,192,43457,1,12,0:0:0:0:
256,192,43968,1,0,0:0:0:0:
256,192,44139,1,8,0:0:0:0:
256,192,44821,1,0,0:0:0:0:
256,192,44991,1,8,0:0:0:0:
256,192,45332,1,0,0:0:0:0:
256,192,45502,1,8,0:0:0:0:
256,192,45843,1,0,0:0:0:0:
256,192,46184,1,12,0:0:0:0:
256,192,46696,1,0,0:0:0:0:
256,192,46866,1,8,0:0:0:0:
256,192,47548,1,0,0:0:0:0:
256,192,47718,1,8,0:0:0:0:
256,192,48059,1,0,0:0:0:0:
256,192,48230,1,8,0:0:0:0:
256,192,48571,1,0,0:0:0:0:
256,192,48912,1,12,0:0:0:0:
256,192,49593,1,8,0:0:0:0:
256,192,49934,1,0,0:0:0:0:
256,192,50275,1,8,0:0:0:0:
256,192,50957,1,8,0:0:0:0:
256,192,51298,1,8,0:0:0:0:
256,192,51639,1,4,0:0:0:0:
256,192,51809,1,8,0:0:0:0:
256,192,51980,1,0,0:0:0:0:
256,192,52321,1,8,0:0:0:0:
256,192,52662,1,8,0:0:0:0:
256,192,52832,1,8,0:0:0:0:
256,192,53002,1,0,0:0:0:0:
256,192,53684,1,12,0:0:0:0:
256,192,54025,1,12,0:0:0:0:
256,192,54537,1,0,0:0:0:0:
256,192,54707,1,8,0:0:0:0:
256,192,55048,1,0,0:0:0:0:
256,192,55389,1,8,0:0:0:0:
256,192,55559,1,0,0:0:0:0:
256,192,55730,1,0,0:0:0:0:
256,192,56412,1,12,0:0:0:0:
256,192,56752,1,12,0:0:0:0:
256,192,57093,1,0,0:0:0:0:
256,192,57434,1,8,0:0:0:0:
256,192,57775,1,0,0:0:0:0:
256,192,57946,1,0,0:0:0:0:
256,192,58116,1,8,0:0:0:0:
256,192,58457,1,8,0:0:0:0:
256,192,58798,1,8,0:0:0:0:
249,191,58968,1,0,0:0:0:0:
256,192,59139,1,8,0:0:0:0:
256,192,59821,1,0,0:0:0:0:
256,192,60162,1,8,0:0:0:0:
256,192,60502,1,0,0:0:0:0:
256,192,60673,1,0,0:0:0:0:
256,192,60843,1,8,0:0:0:0:
256,192,61184,1,8,0:0:0:0:
256,192,61355,1,8,0:0:0:0:
256,192,61525,1,0,0:0:0:0:
256,192,61696,1,0,0:0:0:0:
256,192,61866,1,8,0:0:0:0:
256,192,62207,1,0,0:0:0:0:
256,192,62548,1,4,0:0:0:0:
256,192,62718,1,8,0:0:0:0:
256,192,62889,1,0,0:0:0:0:
256,192,63230,1,8,0:0:0:0:
256,192,63571,1,0,0:0:0:0:
256,192,63741,1,0,0:0:0:0:
256,192,63912,1,8,0:0:0:0:
256,192,64593,1,12,0:0:0:0:
256,192,64934,1,12,0:0:0:0:
256,192,65446,1,0,0:0:0:0:
256,192,65616,1,0,0:0:0:0:
256,192,65957,1,0,0:0:0:0:
256,192,66298,1,8,0:0:0:0:
256,192,66468,1,0,0:0:0:0:
256,192,66639,1,0,0:0:0:0:
256,192,67321,1,12,0:0:0:0:
256,196,67662,1,12,0:0:0:0:
256,192,68002,1,0,0:0:0:0:
256,192,68343,1,8,0:0:0:0:
256,192,68684,1,0,0:0:0:0:
256,192,68855,1,0,0:0:0:0:
256,192,69025,1,8,0:0:0:0:
256,192,69366,1,0,0:0:0:0:
256,192,69707,1,8,0:0:0:0:
256,192,69877,1,0,0:0:0:0:
256,192,70048,1,8,0:0:0:0:
256,192,70730,1,0,0:0:0:0:
256,192,70900,1,0,0:0:0:0:
256,192,71071,1,8,0:0:0:0:
256,192,71412,1,0,0:0:0:0:
256,192,71752,1,8,0:0:0:0:
256,192,72093,1,8,0:0:0:0:
256,192,72264,1,8,0:0:0:0:
256,192,72434,1,0,0:0:0:0:
256,192,72775,1,8,0:0:0:0:
256,192,73116,1,0,0:0:0:0:
256,192,73287,1,0,0:0:0:0:
256,192,73457,1,12,0:0:0:0:
256,192,74821,1,8,0:0:0:0:
256,192,75162,1,0,0:0:0:0:
256,192,75502,1,8,0:0:0:0:
256,192,75673,1,0,0:0:0:0:
256,192,75843,1,8,0:0:0:0:
256,192,76184,1,12,0:0:0:0:
256,192,76525,1,8,0:0:0:0:
256,192,76866,1,0,0:0:0:0:
256,192,77037,1,8,0:0:0:0:
256,192,77207,1,0,0:0:0:0:
256,192,77548,1,0,0:0:0:0:
256,192,78230,1,8,0:0:0:0:
256,192,78571,1,0,0:0:0:0:
256,192,78912,1,0,0:0:0:0:
256,192,79252,1,8,0:0:0:0:
256,192,79593,1,8,0:0:0:0:
256,192,79764,1,0,0:0:0:0:
256,192,79934,1,8,0:0:0:0:
256,192,80275,1,0,0:0:0:0:
256,192,80957,1,0,0:0:0:0:
256,192,81298,1,8,0:0:0:0:
256,192,81639,1,12,0:0:0:0:
256,192,83002,1,8,0:0:0:0:
256,192,83514,1,8,0:0:0:0:
256,192,83684,1,0,0:0:0:0:
256,192,84366,1,4,0:0:0:0:
256,192,84707,1,0,0:0:0:0:
256,192,85048,1,8,0:0:0:0:
256,192,85389,1,8,0:0:0:0:
256,192,85730,1,4,0:0:0:0:
256,192,85900,1,8,0:0:0:0:
256,192,86071,1,8,0:0:0:0:
256,192,86412,1,0,0:0:0:0:
256,192,86582,1,0,0:0:0:0:
256,192,86752,1,8,0:0:0:0:
256,192,87093,1,12,0:0:0:0:
256,192,87434,1,8,0:0:0:0:
256,192,87775,1,0,0:0:0:0:
256,192,88116,1,0,0:0:0:0:
256,192,88457,1,0,0:0:0:0:
256,192,89139,1,8,0:0:0:0:
256,192,89480,1,8,0:0:0:0:
256,192,89991,1,0,0:0:0:0:
256,192,90162,1,0,0:0:0:0:
256,192,90502,1,8,0:0:0:0:
256,192,90843,1,8,0:0:0:0:
256,192,91184,1,8,0:0:0:0:
256,192,91866,1,8,0:0:0:0:
252,197,92207,1,8,0:0:0:0:
256,192,92548,1,4,0:0:0:0:
256,192,92889,1,8,0:0:0:0:
256,192,93230,1,0,0:0:0:0:
256,192,93571,1,8,0:0:0:0:
256,192,93912,1,8,0:0:0:0:
256,192,94252,1,0,0:0:0:0:
251,187,94593,1,0,0:0:0:0:
256,192,95275,1,4,0:0:0:0:
256,192,95446,1,0,0:0:0:0:
256,192,95787,1,8,0:0:0:0:
256,192,95957,1,0,0:0:0:0:
256,192,96127,1,8,0:0:0:0:
256,192,96298,1,0,0:0:0:0:
256,192,96639,1,0,0:0:0:0:
256,192,96980,1,8,0:0:0:0:
256,192,97321,1,0,0:0:0:0:
256,192,97491,1,0,0:0:0:0:
256,192,97662,1,8,0:0:0:0:
256,192,98002,1,4,0:0:0:0:
256,192,98173,1,8,0:0:0:0:
256,192,98343,1,0,0:0:0:0:
256,192,98684,1,8,0:0:0:0:
256,192,99025,1,8,0:0:0:0:
256,192,99196,1,8,0:0:0:0:
256,192,99366,1,0,0:0:0:0:
256,192,100048,1,12,0:0:0:0:
256,192,100389,1,12,0:0:0:0:
256,192,100900,1,0,0:0:0:0:
256,192,101071,1,8,0:0:0:0:
256,192,101412,1,0,0:0:0:0:
256,192,101752,1,8,0:0:0:0:
256,192,101923,1,0,0:0:0:0:
256,192,102093,1,0,0:0:0:0:
256,192,102775,1,12,0:0:0:0:
256,192,103116,1,12,0:0:0:0:
256,192,103457,1,0,0:0:0:0:
256,192,103798,1,8,0:0:0:0:
256,192,104139,1,0,0:0:0:0:
256,192,104309,1,0,0:0:0:0:
256,192,104480,1,8,0:0:0:0:
256,192,104821,1,8,0:0:0:0:
256,192,105162,1,8,0:0:0:0:
249,191,105332,1,0,0:0:0:0:
256,192,105502,1,8,0:0:0:0:
256,192,106184,1,0,0:0:0:0:
256,192,106525,1,8,0:0:0:0:
256,192,106866,1,0,0:0:0:0:
256,192,107037,1,0,0:0:0:0:
256,192,107207,1,8,0:0:0:0:
256,192,107548,1,8,0:0:0:0:
256,192,107718,1,8,0:0:0:0:
256,192,107889,1,0,0:0:0:0:
256,192,108059,1,0,0:0:0:0:
256,192,108230,1,8,0:0:0:0:
256,192,108571,1,0,0:0:0:0:
256,192,108912,1,4,0:0:0:0:
256,192,109082,1,8,0:0:0:0:
256,192,109252,1,0,0:0:0:0:
256,192,109593,1,8,0:0:0:0:
256,192,109934,1,0,0:0:0:0:
256,192,110105,1,0,0:0:0:0:
256,192,110275,1,8,0:0:0:0:
256,192,110957,1,12,0:0:0:0:
256,192,111298,1,12,0:0:0:0:
256,192,111809,1,0,0:0:0:0:
256,192,111980,1,0,0:0:0:0:
256,192,112321,1,0,0:0:0:0:
256,192,112662,1,8,0:0:0:0:
256,192,112832,1,0,0:0:0:0:
256,192,113002,1,0,0:0:0:0:
256,192,113684,1,12,0:0:0:0:
256,196,114025,1,12,0:0:0:0:
256,192,114366,1,0,0:0:0:0:
256,192,114707,1,8,0:0:0:0:
256,192,115048,1,0,0:0:0:0:
256,192,115218,1,0,0:0:0:0:
256,192,115389,1,8,0:0:0:0:
256,192,115730,1,0,0:0:0:0:
256,192,116071,1,8,0:0:0:0:
256,192,116241,1,0,0:0:0:0:
256,192,116412,1,8,0:0:0:0:
256,192,117093,1,0,0:0:0:0:
256,192,117264,1,0,0:0:0:0:
256,192,117434,1,8,0:0:0:0:
256,192,117775,1,0,0:0:0:0:
256,192,118116,1,8,0:0:0:0:
256,192,118457,1,8,0:0:0:0:
256,192,118627,1,8,0:0:0:0:
256,192,118798,1,0,0:0:0:0:
256,192,119139,1,8,0:0:0:0:
256,192,119480,1,0,0:0:0:0:
256,192,119650,1,0,0:0:0:0:
256,192,119821,1,12,0:0:0:0:
256,192,121184,1,8,0:0:0:0:
256,192,121525,1,0,0:0:0:0:
256,192,121866,1,8,0:0:0:0:
256,192,122037,1,0,0:0:0:0:
256,192,122207,1,8,0:0:0:0:
256,192,122548,1,12,0:0:0:0:
256,192,122889,1,8,0:0:0:0:
256,192,123230,1,8,0:0:0:0:
256,192,123400,1,8,0:0:0:0:
256,192,123571,1,0,0:0:0:0:
256,192,123912,1,0,0:0:0:0:
256,192,124593,1,8,0:0:0:0:
256,192,124934,1,0,0:0:0:0:
256,192,125275,1,0,0:0:0:0:
256,192,125616,1,8,0:0:0:0:
256,192,125957,1,8,0:0:0:0:
256,192,126127,1,0,0:0:0:0:
256,192,126298,1,8,0:0:0:0:
256,192,126639,1,0,0:0:0:0:
256,192,127321,1,0,0:0:0:0:
256,192,127662,1,8,0:0:0:0:
256,192,128002,1,12,0:0:0:0:
256,192,129366,1,8,0:0:0:0:
256,192,129877,1,8,0:0:0:0:
256,192,130048,1,0,0:0:0:0:
256,192,130730,1,4,0:0:0:0:
256,192,131071,1,0,0:0:0:0:
256,192,131412,1,8,0:0:0:0:
256,192,131752,1,8,0:0:0:0:
256,192,132093,1,4,0:0:0:0:
256,192,132264,1,8,0:0:0:0:
256,192,132434,1,8,0:0:0:0:
256,192,132775,1,0,0:0:0:0:
256,192,132946,1,0,0:0:0:0:
256,192,133116,1,8,0:0:0:0:
256,192,133457,1,12,0:0:0:0:
