osu file format v14

[General]
AudioFilename: audio.mp3
AudioLeadIn: 0
PreviewTime: 60994
Countdown: 0
SampleSet: None
StackLeniency: 0.7
Mode: 1
LetterboxInBreaks: 0
WidescreenStoryboard: 1

[Editor]
Bookmarks: 64,2775,10910,21758,32605,43452,51588,61080,71926,82773,93621
DistanceSpacing: 1.3
BeatDivisor: 4
GridSize: 32
TimelineZoom: 1.6

[Metadata]
Title:Zettai Sengen ~Recital~
TitleUnicode:ゼッタイ宣言~Recital~
Artist:Pastel*Palettes
ArtistUnicode:Pastel*Palettes
Creator:Tyistiana
Version:Oni
Source:バンドリ! ガールズバンドパーティ!
Tags:bang dream! girls band party bandori garupa gbp ガルパ pasupare パスパレ パステルパレット maruyama aya 丸山彩 maeshima ami 前島亜美 hikawa hina 氷川日菜 ozawa ari 小澤亜李 shirasagi chisato 白鷺千聖 uesaka sumire 上坂すみれ yamato maya 大和麻弥 nakagami ikumi 中上育実 wakamiya eve 若宮イヴ hata sawako 秦佐和子 anime video game japanese pop j-pop jpop 5th fifth 5 single きゅ~まい*flower Kyu~mai*flower Trick or Escape! halloween
BeatmapID:2430131
BeatmapSetID:1165153

[Difficulty]
HPDrainRate:5.5
CircleSize:5
OverallDifficulty:5.5
ApproachRate:8
SliderMultiplier:1.4
SliderTickRate:1

[Events]
//Background and Video events
0,0,"aya-o-lantern.jpg",0,0
//Break Periods
//Storyboard Layer 0 (Background)
//Storyboard Layer 1 (Fail)
//Storyboard Layer 2 (Pass)
//Storyboard Layer 3 (Foreground)
//Storyboard Layer 4 (Overlay)
//Storyboard Sound Samples

[TimingPoints]
64,338.983050847458,4,1,0,40,1,0
64,-125,4,1,0,40,0,0
1589,-121.212121212121,4,1,0,40,0,0
1758,-117.647058823529,4,1,0,40,0,0
1928,-114.285714285714,4,1,0,40,0,0
2097,-111.111111111111,4,1,0,40,0,0
2267,-108.108108108108,4,1,0,40,0,0
2436,-105.263157894737,4,1,0,40,0,0
2606,-102.564102564103,4,1,0,40,0,0
2691,-102.564102564103,4,1,0,80,0,0
2775,-100,4,1,0,80,0,0
5318,-100,4,1,0,60,0,0
10657,-100,4,1,0,80,0,0
21928,-125,4,1,0,40,0,0
32267,-111.111111111111,4,1,0,40,0,0
32521,-100,4,1,0,80,0,0
32606,-100,4,1,0,80,0,0
61080,338.983050847458,4,1,0,100,1,1
88113,-100,4,1,0,60,0,1
88198,-100,4,1,0,60,0,0
93368,-100,4,1,0,80,0,0

[HitObjects]
256,192,64,5,0,0:0:0:0:
256,192,233,1,8,0:0:0:0:
256,192,402,1,0,0:0:0:0:
256,192,572,1,8,0:0:0:0:
256,192,741,1,0,0:0:0:0:
256,192,911,1,8,0:0:0:0:
256,192,1080,1,0,0:0:0:0:
256,192,1250,1,8,0:0:0:0:
256,192,1419,1,0,0:0:0:0:
256,192,1589,1,0,0:0:0:0:
256,192,1758,1,0,0:0:0:0:
256,192,1928,1,0,0:0:0:0:
256,192,2097,1,8,0:0:0:0:
256,192,2267,1,8,0:0:0:0:
256,192,2436,1,8,0:0:0:0:
256,192,2606,1,8,0:0:0:0:
256,192,2775,1,4,0:0:0:0:
256,192,3623,1,4,0:0:0:0:
256,192,3962,1,4,0:0:0:0:
256,192,4470,1,12,0:0:0:0:
256,192,4979,1,0,0:0:0:0:
256,192,5064,1,0,0:0:0:0:
256,192,5148,1,8,0:0:0:0:
256,192,5487,5,0,0:0:0:0:
256,192,5657,1,0,0:0:0:0:
256,192,5826,1,8,0:0:0:0:
256,192,5996,1,0,0:0:0:0:
256,192,6165,1,0,0:0:0:0:
256,192,6335,1,0,0:0:0:0:
256,192,6504,1,8,0:0:0:0:
256,192,6674,1,0,0:0:0:0:
256,192,6843,1,0,0:0:0:0:
256,192,7013,1,0,0:0:0:0:
256,192,7182,1,8,0:0:0:0:
256,192,7352,1,0,0:0:0:0:
256,192,7521,1,8,0:0:0:0:
256,192,7691,1,0,0:0:0:0:
256,192,7860,1,8,0:0:0:0:
256,192,8030,1,8,0:0:0:0:
256,192,8199,1,0,0:0:0:0:
256,192,8369,1,0,0:0:0:0:
256,192,8538,1,8,0:0:0:0:
256,192,8708,1,0,0:0:0:0:
256,192,8877,1,0,0:0:0:0:
256,192,9047,1,0,0:0:0:0:
256,192,9216,1,8,0:0:0:0:
256,192,9386,1,0,0:0:0:0:
256,192,9555,1,0,0:0:0:0:
256,192,9725,1,0,0:0:0:0:
256,192,9894,1,8,0:0:0:0:
256,192,10064,1,0,0:0:0:0:
256,192,10233,1,8,0:0:0:0:
256,192,10402,1,0,0:0:0:0:
256,192,10572,1,8,0:0:0:0:
256,192,10741,1,4,0:0:0:0:
256,192,11080,5,0,0:0:0:0:
256,192,11165,1,0,0:0:0:0:
256,192,11250,1,8,0:0:0:0:
256,192,11419,1,8,0:0:0:0:
256,192,11589,1,0,0:0:0:0:
256,192,11674,1,0,0:0:0:0:
256,192,11758,1,0,0:0:0:0:
256,192,11928,1,8,0:0:0:0:
256,192,12097,1,4,0:0:0:0:
256,192,12436,1,0,0:0:0:0:
256,192,12521,1,0,0:0:0:0:
256,192,12606,1,8,0:0:0:0:
256,192,12775,1,8,0:0:0:0:
256,192,12945,1,0,0:0:0:0:
256,192,13030,1,0,0:0:0:0:
256,192,13114,1,8,0:0:0:0:
256,192,13284,1,8,0:0:0:0:
256,192,13453,1,4,0:0:0:0:
256,192,13792,1,0,0:0:0:0:
256,192,13877,1,0,0:0:0:0:
256,192,13962,1,8,0:0:0:0:
256,192,14131,1,8,0:0:0:0:
256,192,14301,1,0,0:0:0:0:
256,192,14386,1,0,0:0:0:0:
256,192,14470,1,0,0:0:0:0:
256,192,14640,1,8,0:0:0:0:
256,192,14809,1,4,0:0:0:0:
256,192,15148,1,0,0:0:0:0:
256,192,15233,1,0,0:0:0:0:
256,192,15318,1,8,0:0:0:0:
256,192,15487,1,8,0:0:0:0:
256,192,15657,1,0,0:0:0:0:
256,192,15741,1,0,0:0:0:0:
256,192,15826,1,0,0:0:0:0:
256,192,15996,1,8,0:0:0:0:
256,192,16080,1,0,0:0:0:0:
256,192,16165,1,0,0:0:0:0:
256,192,16250,1,0,0:0:0:0:
256,192,16335,1,8,0:0:0:0:
256,192,16504,1,0,0:0:0:0:
256,192,16674,1,12,0:0:0:0:
256,192,17013,1,0,0:0:0:0:
256,192,17182,1,0,0:0:0:0:
256,192,17352,1,12,0:0:0:0:
256,192,17691,1,0,0:0:0:0:
256,192,17860,1,0,0:0:0:0:
256,192,18030,1,12,0:0:0:0:
256,192,18369,1,0,0:0:0:0:
256,192,18538,1,0,0:0:0:0:
256,192,18708,1,12,0:0:0:0:
256,192,19047,1,0,0:0:0:0:
256,192,19216,1,8,0:0:0:0:
256,192,19301,1,8,0:0:0:0:
256,192,19386,1,0,0:0:0:0:
256,192,19555,1,8,0:0:0:0:
256,192,19725,1,0,0:0:0:0:
256,192,19894,1,8,0:0:0:0:
256,192,19979,1,8,0:0:0:0:
256,192,20064,1,0,0:0:0:0:
256,192,20233,1,8,0:0:0:0:
256,192,20402,1,0,0:0:0:0:
256,192,20572,1,8,0:0:0:0:
256,192,20657,1,8,0:0:0:0:
256,192,20741,1,0,0:0:0:0:
256,192,20826,1,0,0:0:0:0:
256,192,20911,1,8,0:0:0:0:
256,192,21080,1,0,0:0:0:0:
256,192,21250,1,8,0:0:0:0:
256,192,21335,1,0,0:0:0:0:
256,192,21419,1,0,0:0:0:0:
256,192,21504,1,0,0:0:0:0:
256,192,21589,1,8,0:0:0:0:
256,192,21758,1,0,0:0:0:0:
256,192,23114,1,0,0:0:0:0:
256,192,23453,1,8,0:0:0:0:
256,192,23792,1,0,0:0:0:0:
256,192,24131,1,8,0:0:0:0:
256,192,25826,1,8,0:0:0:0:
256,192,26165,1,8,0:0:0:0:
256,192,26504,1,0,0:0:0:0:
256,192,26843,1,8,0:0:0:0:
256,192,27352,1,8,0:0:0:0:
256,192,27521,1,0,0:0:0:0:
256,192,27691,1,8,0:0:0:0:
256,192,27860,1,0,0:0:0:0:
256,192,28369,1,8,0:0:0:0:
256,192,28538,1,0,0:0:0:0:
256,192,28708,1,0,0:0:0:0:
256,192,28877,1,8,0:0:0:0:
256,192,29386,1,8,0:0:0:0:
256,192,29555,1,8,0:0:0:0:
256,192,29725,1,0,0:0:0:0:
256,192,29894,1,8,0:0:0:0:
224,192,30402,1,8,0:0:0:0:
288,192,30572,1,0,0:0:0:0:
224,256,31080,1,0,0:0:0:0:
224,192,31250,1,8,0:0:0:0:
224,128,31419,1,0,0:0:0:0:
288,128,31589,1,0,0:0:0:0:
288,192,31758,1,8,0:0:0:0:
288,256,31928,1,0,0:0:0:0:
256,192,32267,1,8,0:0:0:0:
256,192,32606,5,4,0:0:0:0:
256,192,32775,1,8,0:0:0:0:
256,192,32945,1,0,0:0:0:0:
256,192,33114,1,8,0:0:0:0:
256,192,33284,1,0,0:0:0:0:
256,192,33453,1,8,0:0:0:0:
256,192,33538,1,0,0:0:0:0:
256,192,33623,1,8,0:0:0:0:
256,192,33792,1,8,0:0:0:0:
256,192,33962,1,0,0:0:0:0:
256,192,34047,1,0,0:0:0:0:
256,192,34131,1,0,0:0:0:0:
256,192,34301,1,8,0:0:0:0:
256,192,34470,1,0,0:0:0:0:
256,192,34640,1,8,0:0:0:0:
256,192,34725,1,8,0:0:0:0:
256,192,34809,1,0,0:0:0:0:
256,192,34979,1,8,0:0:0:0:
256,192,35318,1,0,0:0:0:0:
256,192,35487,1,8,0:0:0:0:
256,192,35657,1,8,0:0:0:0:
256,192,35826,1,8,0:0:0:0:
256,192,35996,1,0,0:0:0:0:
256,192,36165,1,8,0:0:0:0:
256,192,36250,1,8,0:0:0:0:
256,192,36335,1,0,0:0:0:0:
256,192,36504,1,8,0:0:0:0:
256,192,36674,1,0,0:0:0:0:
256,192,36758,1,0,0:0:0:0:
256,192,36843,1,0,0:0:0:0:
256,192,37013,1,8,0:0:0:0:
256,192,37182,1,0,0:0:0:0:
256,192,37352,1,8,0:0:0:0:
256,192,37436,1,8,0:0:0:0:
256,192,37521,1,0,0:0:0:0:
256,192,37691,1,8,0:0:0:0:
256,192,38030,1,4,0:0:0:0:
256,192,38199,1,8,0:0:0:0:
256,192,38369,1,0,0:0:0:0:
256,192,38538,1,8,0:0:0:0:
256,192,38708,1,0,0:0:0:0:
256,192,38877,1,0,0:0:0:0:
256,192,38962,1,8,0:0:0:0:
256,192,39047,1,0,0:0:0:0:
256,192,39216,1,8,0:0:0:0:
256,192,39386,1,0,0:0:0:0:
256,192,39555,1,8,0:0:0:0:
256,192,39640,1,8,0:0:0:0:
256,192,39725,1,0,0:0:0:0:
256,192,39809,1,0,0:0:0:0:
256,192,39894,1,8,0:0:0:0:
256,192,40064,1,0,0:0:0:0:
256,192,40233,1,8,0:0:0:0:
256,192,40318,1,0,0:0:0:0:
256,192,40402,1,0,0:0:0:0:
256,192,40487,1,0,0:0:0:0:
256,192,40572,1,8,0:0:0:0:
256,192,40741,1,0,0:0:0:0:
256,192,40911,1,8,0:0:0:0:
256,192,41080,1,0,0:0:0:0:
256,192,41250,1,8,0:0:0:0:
256,192,41419,1,0,0:0:0:0:
256,192,41589,1,8,0:0:0:0:
256,192,41674,1,0,0:0:0:0:
256,192,41758,1,8,0:0:0:0:
256,192,41928,1,8,0:0:0:0:
256,192,42097,1,0,0:0:0:0:
256,192,42182,1,0,0:0:0:0:
256,192,42267,1,8,0:0:0:0:
256,192,42352,1,0,0:0:0:0:
256,192,42436,1,8,0:0:0:0:
256,192,42606,1,0,0:0:0:0:
256,192,42775,1,8,0:0:0:0:
256,192,42860,1,0,0:0:0:0:
256,192,42945,1,0,0:0:0:0:
256,192,43030,1,0,0:0:0:0:
256,192,43114,1,8,0:0:0:0:
256,192,43284,1,8,0:0:0:0:
256,192,43453,5,0,0:0:0:0:
256,192,43623,1,0,0:0:0:0:
256,192,43792,1,12,0:0:0:0:
256,192,43962,1,8,0:0:0:0:
256,192,44047,1,8,0:0:0:0:
256,192,44131,1,0,0:0:0:0:
256,192,44301,1,0,0:0:0:0:
256,192,44470,1,12,0:0:0:0:
256,192,44640,1,8,0:0:0:0:
256,192,44809,1,0,0:0:0:0:
256,192,44979,1,0,0:0:0:0:
256,192,45148,1,12,0:0:0:0:
256,192,45318,1,8,0:0:0:0:
256,192,45487,1,0,0:0:0:0:
256,192,45572,1,0,0:0:0:0:
256,192,45657,1,0,0:0:0:0:
256,192,45826,1,12,0:0:0:0:
256,192,46165,1,8,0:0:0:0:
256,192,46335,1,8,0:0:0:0:
256,192,46504,1,4,0:0:0:0:
256,192,46674,1,8,0:0:0:0:
256,192,46758,1,8,0:0:0:0:
256,192,46843,1,0,0:0:0:0:
256,192,47013,1,8,0:0:0:0:
256,192,47182,1,4,0:0:0:0:
256,192,47352,1,8,0:0:0:0:
256,192,47521,1,0,0:0:0:0:
256,192,47691,1,8,0:0:0:0:
256,192,47775,1,0,0:0:0:0:
256,192,47860,1,8,0:0:0:0:
256,192,48030,1,8,0:0:0:0:
256,192,48199,1,0,0:0:0:0:
256,192,48369,1,8,0:0:0:0:
256,192,48538,1,8,0:0:0:0:
256,192,48623,1,8,0:0:0:0:
256,192,48708,1,8,0:0:0:0:
256,192,48877,5,0,0:0:0:0:
256,192,49047,1,0,0:0:0:0:
256,192,49216,1,12,0:0:0:0:
256,192,49386,1,8,0:0:0:0:
256,192,49555,1,0,0:0:0:0:
256,192,49725,1,0,0:0:0:0:
256,192,49809,1,0,0:0:0:0:
256,192,49894,1,12,0:0:0:0:
256,192,50064,1,8,0:0:0:0:
256,192,50233,1,0,0:0:0:0:
256,192,50402,1,0,0:0:0:0:
256,192,50572,1,12,0:0:0:0:
256,192,50741,1,8,0:0:0:0:
256,192,50911,1,0,0:0:0:0:
256,192,51080,1,0,0:0:0:0:
256,192,51250,1,12,0:0:0:0:
256,192,51589,5,4,0:0:0:0:
256,192,51928,1,0,0:0:0:0:
256,192,52267,1,0,0:0:0:0:
256,192,52436,1,8,0:0:0:0:
256,192,52606,1,0,0:0:0:0:
256,192,52775,1,8,0:0:0:0:
256,192,52860,1,8,0:0:0:0:
256,192,52945,1,0,0:0:0:0:
256,192,53114,1,8,0:0:0:0:
256,192,53284,1,0,0:0:0:0:
256,192,53453,1,8,0:0:0:0:
256,192,53623,1,0,0:0:0:0:
256,192,53792,1,0,0:0:0:0:
256,192,53962,1,8,0:0:0:0:
256,192,54047,1,0,0:0:0:0:
256,192,54131,1,8,0:0:0:0:
256,192,54301,1,4,0:0:0:0:
256,192,54470,1,0,0:0:0:0:
256,192,54640,1,0,0:0:0:0:
256,192,54809,1,12,0:0:0:0:
256,192,55148,1,0,0:0:0:0:
256,192,55233,1,0,0:0:0:0:
256,192,55318,1,8,0:0:0:0:
256,192,55487,1,8,0:0:0:0:
256,192,55657,1,4,0:0:0:0:
256,192,55826,1,0,0:0:0:0:
256,192,55996,1,8,0:0:0:0:
256,192,56165,1,4,0:0:0:0:
256,192,56504,1,0,0:0:0:0:
256,192,56589,1,0,0:0:0:0:
256,192,56674,1,8,0:0:0:0:
256,192,56758,1,8,0:0:0:0:
256,192,56843,1,8,0:0:0:0:
256,192,57013,1,4,0:0:0:0:
256,192,57182,1,0,0:0:0:0:
256,192,57352,1,8,0:0:0:0:
256,192,57521,1,8,0:0:0:0:
256,192,57606,1,8,0:0:0:0:
256,192,57691,1,0,0:0:0:0:
256,192,57860,1,0,0:0:0:0:
256,192,58030,1,8,0:0:0:0:
256,192,58199,1,4,0:0:0:0:
256,192,58538,1,0,0:0:0:0:
256,192,58708,1,8,0:0:0:0:
256,192,58877,1,0,0:0:0:0:
256,192,58962,1,0,0:0:0:0:
256,192,59047,1,0,0:0:0:0:
256,192,59216,1,0,0:0:0:0:
256,192,59386,1,8,0:0:0:0:
256,192,59555,1,4,0:0:0:0:
256,192,59894,1,8,0:0:0:0:
256,192,60064,1,0,0:0:0:0:
256,192,60148,1,0,0:0:0:0:
256,192,60233,1,8,0:0:0:0:
256,192,60402,1,0,0:0:0:0:
256,192,60572,1,0,0:0:0:0:
256,192,60657,1,0,0:0:0:0:
256,192,60741,1,8,0:0:0:0:
256,192,60826,1,8,0:0:0:0:
256,192,60911,1,8,0:0:0:0:
256,192,61080,5,4,0:0:0:0:
256,192,61249,1,0,0:0:0:0:
256,192,61334,1,0,0:0:0:0:
256,192,61418,1,8,0:0:0:0:
256,192,61588,1,8,0:0:0:0:
256,192,61757,1,0,0:0:0:0:
256,192,61927,1,0,0:0:0:0:
256,192,62012,1,0,0:0:0:0:
256,192,62096,1,8,0:0:0:0:
256,192,62266,1,8,0:0:0:0:
256,192,62435,1,0,0:0:0:0:
256,192,62520,1,0,0:0:0:0:
256,192,62605,1,0,0:0:0:0:
256,192,62774,1,8,0:0:0:0:
256,192,62944,1,0,0:0:0:0:
256,192,63283,1,0,0:0:0:0:
256,192,63452,1,12,0:0:0:0:
256,192,63622,1,8,0:0:0:0:
256,192,63791,1,0,0:0:0:0:
256,192,63961,1,0,0:0:0:0:
256,192,64046,1,0,0:0:0:0:
256,192,64130,1,8,0:0:0:0:
256,192,64300,1,8,0:0:0:0:
256,192,64469,1,0,0:0:0:0:
256,192,64639,1,0,0:0:0:0:
256,192,64724,1,0,0:0:0:0:
256,192,64808,1,8,0:0:0:0:
256,192,64978,1,0,0:0:0:0:
256,192,65147,1,8,0:0:0:0:
256,192,65232,1,0,0:0:0:0:
256,192,65317,1,0,0:0:0:0:
256,192,65486,1,8,0:0:0:0:
256,192,65656,1,0,0:0:0:0:
256,192,65995,1,0,0:0:0:0:
256,192,66164,1,12,0:0:0:0:
256,192,66334,1,0,0:0:0:0:
256,192,66418,1,0,0:0:0:0:
256,192,66503,1,0,0:0:0:0:
256,192,66673,1,0,0:0:0:0:
256,192,66757,1,0,0:0:0:0:
256,192,66842,1,8,0:0:0:0:
256,192,67012,1,8,0:0:0:0:
256,192,67181,1,0,0:0:0:0:
256,192,67351,1,8,0:0:0:0:
256,192,67435,1,8,0:0:0:0:
256,192,67520,1,0,0:0:0:0:
256,192,67690,1,12,0:0:0:0:
256,192,68029,1,0,0:0:0:0:
256,192,68198,1,8,0:0:0:0:
256,192,68368,1,8,0:0:0:0:
256,192,68452,1,8,0:0:0:0:
256,192,68537,1,0,0:0:0:0:
256,192,68707,1,0,0:0:0:0:
256,192,68876,1,8,0:0:0:0:
256,192,69046,1,8,0:0:0:0:
256,192,69215,1,0,0:0:0:0:
256,192,69300,1,0,0:0:0:0:
256,192,69385,1,0,0:0:0:0:
256,192,69554,1,8,0:0:0:0:
256,192,69724,1,4,0:0:0:0:
256,192,70063,1,4,0:0:0:0:
256,192,70402,1,12,0:0:0:0:
256,192,70741,1,0,0:0:0:0:
256,192,70910,1,8,0:0:0:0:
256,192,71080,1,4,0:0:0:0:
256,192,71249,1,8,0:0:0:0:
256,192,71334,1,0,0:0:0:0:
256,192,71418,1,0,0:0:0:0:
256,192,71503,1,0,0:0:0:0:
256,192,71588,1,8,0:0:0:0:
256,192,71757,1,8,0:0:0:0:
256,192,71927,1,4,0:0:0:0:
256,192,72096,1,0,0:0:0:0:
256,192,72181,1,0,0:0:0:0:
256,192,72266,1,8,0:0:0:0:
256,192,72435,1,8,0:0:0:0:
256,192,72605,1,0,0:0:0:0:
256,192,72774,1,0,0:0:0:0:
256,192,72859,1,0,0:0:0:0:
256,192,72944,1,8,0:0:0:0:
256,192,73113,1,8,0:0:0:0:
256,192,73283,1,0,0:0:0:0:
256,192,73368,1,0,0:0:0:0:
256,192,73452,1,0,0:0:0:0:
256,192,73622,1,8,0:0:0:0:
256,192,73791,1,0,0:0:0:0:
256,192,74130,1,0,0:0:0:0:
256,192,74300,1,12,0:0:0:0:
256,192,74469,1,8,0:0:0:0:
256,192,74639,1,0,0:0:0:0:
256,192,74808,1,0,0:0:0:0:
256,192,74893,1,0,0:0:0:0:
256,192,74978,1,8,0:0:0:0:
256,192,75147,1,8,0:0:0:0:
256,192,75317,1,0,0:0:0:0:
256,192,75486,1,0,0:0:0:0:
256,192,75571,1,0,0:0:0:0:
256,192,75656,1,8,0:0:0:0:
256,192,75825,1,0,0:0:0:0:
256,192,75995,1,8,0:0:0:0:
256,192,76080,1,0,0:0:0:0:
256,192,76164,1,0,0:0:0:0:
256,192,76334,1,8,0:0:0:0:
256,192,76503,1,0,0:0:0:0:
256,192,76842,1,12,0:0:0:0:
256,192,77012,1,12,0:0:0:0:
256,192,77351,1,0,0:0:0:0:
256,192,77520,1,0,0:0:0:0:
256,192,77690,1,8,0:0:0:0:
256,192,77859,1,0,0:0:0:0:
256,192,77944,1,0,0:0:0:0:
256,192,78029,1,0,0:0:0:0:
256,192,78198,1,0,0:0:0:0:
256,192,78368,1,8,0:0:0:0:
256,192,78707,1,0,0:0:0:0:
256,192,78876,1,0,0:0:0:0:
256,192,79046,1,8,0:0:0:0:
256,192,79215,1,8,0:0:0:0:
256,192,79300,1,8,0:0:0:0:
256,192,79385,1,0,0:0:0:0:
256,192,79554,1,0,0:0:0:0:
256,192,79724,1,8,0:0:0:0:
256,192,80063,1,0,0:0:0:0:
256,192,80232,1,0,0:0:0:0:
256,192,80402,1,8,0:0:0:0:
256,192,80571,1,0,0:0:0:0:
256,192,80656,1,0,0:0:0:0:
256,192,80741,1,0,0:0:0:0:
256,192,80910,1,0,0:0:0:0:
256,192,81080,1,8,0:0:0:0:
256,192,81418,1,0,0:0:0:0:
256,192,81588,1,0,0:0:0:0:
256,192,81757,1,8,0:0:0:0:
256,192,81927,1,8,0:0:0:0:
256,192,82012,1,8,0:0:0:0:
256,192,82096,1,0,0:0:0:0:
256,192,82266,1,0,0:0:0:0:
256,192,82435,1,8,0:0:0:0:
256,192,82774,5,4,0:0:0:0:
256,192,82944,1,0,0:0:0:0:
256,192,83113,1,8,0:0:0:0:
256,192,83283,1,0,0:0:0:0:
256,192,83452,1,4,0:0:0:0:
256,192,83622,1,8,0:0:0:0:
256,192,83791,1,0,0:0:0:0:
256,192,83961,1,8,0:0:0:0:
256,192,84130,1,4,0:0:0:0:
256,192,84300,1,0,0:0:0:0:
256,192,84469,1,8,0:0:0:0:
256,192,84639,1,4,0:0:0:0:
256,192,84978,1,12,0:0:0:0:
256,192,85147,1,0,0:0:0:0:
256,192,85317,1,8,0:0:0:0:
256,192,85486,1,4,0:0:0:0:
256,192,85656,1,0,0:0:0:0:
256,192,85741,1,0,0:0:0:0:
256,192,85825,1,8,0:0:0:0:
256,192,85995,1,8,0:0:0:0:
256,192,86164,1,0,0:0:0:0:
256,192,86503,1,12,0:0:0:0:
256,192,86673,12,0,87520,0:0:0:0:
256,192,87859,5,4,0:0:0:0:
256,192,88029,1,12,0:0:0:0:
256,192,88198,5,0,0:0:0:0:
256,192,88368,1,0,0:0:0:0:
256,192,88537,1,8,0:0:0:0:
256,192,88707,1,0,0:0:0:0:
256,192,88876,1,0,0:0:0:0:
256,192,89046,1,0,0:0:0:0:
256,192,89215,1,8,0:0:0:0:
256,192,89385,1,0,0:0:0:0:
256,192,89554,1,0,0:0:0:0:
256,192,89724,1,0,0:0:0:0:
256,192,89893,1,8,0:0:0:0:
256,192,90063,1,0,0:0:0:0:
256,192,90232,1,8,0:0:0:0:
256,192,90402,1,0,0:0:0:0:
256,192,90571,1,8,0:0:0:0:
256,192,90741,1,8,0:0:0:0:
256,192,90910,1,0,0:0:0:0:
256,192,91080,1,0,0:0:0:0:
256,192,91249,1,8,0:0:0:0:
256,192,91418,1,0,0:0:0:0:
256,192,91588,1,0,0:0:0:0:
256,192,91757,1,0,0:0:0:0:
256,192,91927,1,8,0:0:0:0:
256,192,92096,1,0,0:0:0:0:
256,192,92266,1,0,0:0:0:0:
256,192,92435,1,0,0:0:0:0:
256,192,92605,1,8,0:0:0:0:
256,192,92774,1,0,0:0:0:0:
256,192,92944,1,8,0:0:0:0:
256,192,93113,1,0,0:0:0:0:
256,192,93283,1,8,0:0:0:0:
256,192,93452,1,4,0:0:0:0:
256,192,93791,5,0,0:0:0:0:
256,192,93876,1,0,0:0:0:0:
256,192,93961,1,8,0:0:0:0:
256,192,94130,1,8,0:0:0:0:
256,192,94300,1,0,0:0:0:0:
256,192,94385,1,0,0:0:0:0:
256,192,94469,1,0,0:0:0:0:
256,192,94639,1,8,0:0:0:0:
256,192,94808,1,4,0:0:0:0:
256,192,95147,1,0,0:0:0:0:
256,192,95232,1,0,0:0:0:0:
256,192,95317,1,8,0:0:0:0:
256,192,95486,1,8,0:0:0:0:
256,192,95656,1,0,0:0:0:0:
256,192,95741,1,0,0:0:0:0:
256,192,95825,1,8,0:0:0:0:
256,192,95995,1,8,0:0:0:0:
256,192,96164,1,4,0:0:0:0:
256,192,96503,1,0,0:0:0:0:
256,192,96588,1,0,0:0:0:0:
256,192,96673,1,8,0:0:0:0:
256,192,96842,1,8,0:0:0:0:
256,192,97012,1,0,0:0:0:0:
256,192,97096,1,0,0:0:0:0:
256,192,97181,1,0,0:0:0:0:
256,192,97351,1,8,0:0:0:0:
256,192,97520,1,4,0:0:0:0:
256,192,97859,1,0,0:0:0:0:
256,192,97944,1,0,0:0:0:0:
256,192,98029,1,8,0:0:0:0:
256,192,98198,1,8,0:0:0:0:
256,192,98368,1,0,0:0:0:0:
256,192,98452,1,0,0:0:0:0:
256,192,98537,1,0,0:0:0:0:
256,192,98707,1,8,0:0:0:0:
256,192,98791,1,0,0:0:0:0:
256,192,98876,1,0,0:0:0:0:
256,192,98961,1,0,0:0:0:0:
256,192,99046,1,8,0:0:0:0:
256,192,99215,1,0,0:0:0:0:
256,192,99385,1,12,0:0:0:0:
256,192,99724,1,0,0:0:0:0:
256,192,99893,1,0,0:0:0:0:
256,192,100063,1,12,0:0:0:0:
256,192,100402,1,0,0:0:0:0:
256,192,100571,1,0,0:0:0:0:
256,192,100741,1,12,0:0:0:0:
256,192,101080,1,0,0:0:0:0:
256,192,101249,1,0,0:0:0:0:
256,192,101418,1,12,0:0:0:0:
256,192,101757,1,0,0:0:0:0:
256,192,101927,1,8,0:0:0:0:
256,192,102012,1,8,0:0:0:0:
256,192,102096,1,0,0:0:0:0:
256,192,102266,1,8,0:0:0:0:
256,192,102435,1,0,0:0:0:0:
256,192,102520,1,0,0:0:0:0:
256,192,102605,1,0,0:0:0:0:
256,192,102690,1,0,0:0:0:0:
256,192,102774,1,8,0:0:0:0:
256,192,102944,1,8,0:0:0:0:
256,192,103029,1,8,0:0:0:0:
256,192,103113,1,0,0:0:0:0:
256,192,103622,1,0,0:0:0:0:
256,192,103707,1,0,0:0:0:0:
256,192,103791,1,8,0:0:0:0:
