osu file format v14

[General]
AudioFilename: audio.mp3
AudioLeadIn: 0
PreviewTime: 60996
Countdown: 0
SampleSet: Soft
StackLeniency: 0.4
Mode: 0
LetterboxInBreaks: 0
WidescreenStoryboard: 1

[Editor]
DistanceSpacing: 1
BeatDivisor: 4
GridSize: 4
TimelineZoom: 2.3

[Metadata]
Title:Zettai Sengen ~Recital~
TitleUnicode:ゼッタイ宣言〜Recital〜
Artist:Pastel*Palettes
ArtistUnicode:Pastel*Palettes
Creator:Doormat
Version:Insane
Source:バンドリ! ガールズバンドパーティ!
Tags:BanG Dream! Girls Band Party bandori garupa ガルパ pasupare パスパレ パステルパレット game size maruyama aya 丸山彩 maeshima ami 前島亜美 hikawa hina 氷川日菜 ozawa ari 小澤亜李 shirasagi chisato 白鷺千聖 uesaka sumire 上坂すみれ yamato maya 大和麻弥 nakagami ikumi 中上育実 wakamiya eve 若宮イヴ hata sawako 秦佐和子 anime video game japanese
BeatmapID:1941767
BeatmapSetID:872038

[Difficulty]
HPDrainRate:6
CircleSize:4
OverallDifficulty:8
ApproachRate:9
SliderMultiplier:1.67
SliderTickRate:1

[Events]
//Background and Video events
0,0,"halloween pasupare.jpg",0,0
//Break Periods
//Storyboard Layer 0 (Background)
//Storyboard Layer 1 (Fail)
//Storyboard Layer 2 (Pass)
//Storyboard Layer 3 (Foreground)
//Storyboard Layer 4 (Overlay)
//Storyboard Sound Samples

[TimingPoints]
64,338.983050847458,4,2,1,40,1,0
64,-166.666666666667,4,2,1,40,0,0
402,-166.666666666667,4,2,1,45,0,0
741,-166.666666666667,4,2,1,50,0,0
1080,-166.666666666667,4,2,1,55,0,0
1419,-166.666666666667,4,2,1,60,0,0
2775,-166.666666666667,4,2,1,70,0,0
5487,-133.333333333333,4,2,1,40,0,0
10741,-100,4,2,1,70,0,0
15318,-100,4,2,1,80,0,0
15657,-100,4,2,1,70,0,0
16335,-100,4,2,1,70,0,0
19047,-100,4,2,1,70,0,0
21758,-133.333333333333,4,2,1,40,0,0
31250,-133.333333333333,4,2,1,50,0,0
32606,-100,4,2,1,70,0,0
38030,-100,4,2,1,70,0,0
43453,-100,4,2,1,70,0,0
46165,-100,4,2,1,80,0,0
48877,-100,4,2,1,70,0,0
51589,-133.333333333333,4,2,1,60,0,0
54301,-100,4,2,1,80,0,0
55657,-100,4,2,1,80,0,0
61080,-90.9090909090909,4,2,1,90,0,1
71843,-90.9090909090909,4,2,1,90,0,0
71928,-90.9090909090909,4,2,1,90,0,1
82775,-100,4,2,1,90,0,0
86504,-100,4,2,1,90,0,0
87521,-100,4,2,1,5,0,0
87860,-100,4,2,1,70,0,0
88199,-133.333333333333,4,2,1,40,0,0
93453,-100,4,2,1,70,0,0
98030,-100,4,2,1,80,0,0
98369,-100,4,2,1,70,0,0
99047,-100,4,2,1,70,0,0
101758,-100,4,2,1,70,0,0
103114,-133.333333333333,4,2,1,50,0,0
103623,-133.333333333333,4,2,1,90,0,0

[Colours]
Combo1 : 135,25,245
Combo2 : 215,10,10
Combo3 : 95,5,155
Combo4 : 235,10,95

[HitObjects]
180,168,64,6,0,L|172:118,1,50.0999984710694,2|0,0:0|0:0,0:0:0:0:
256,204,402,2,0,L|305:196,1,50.0999984710694,2|0,0:0|0:0,0:0:0:0:
220,280,741,2,0,L|227:329,1,50.0999984710694,2|0,0:0|0:0,0:0:0:0:
144,244,1080,2,0,L|94:251,1,50.0999984710694,2|0,0:0|0:0,0:0:0:0:
180,168,1419,5,2,0:0:0:0:
256,204,1589,1,2,0:0:0:0:
220,280,1758,1,2,0:0:0:0:
144,244,1928,1,2,0:0:0:0:
250,116,2097,5,2,0:0:0:0:
307,274,2267,1,2,0:0:0:0:
149,331,2436,1,2,0:0:0:0:
92,173,2606,1,2,0:0:0:0:
200,224,2775,5,6,1:2:0:0:
460,120,3623,5,6,1:2:0:0:
382,302,3962,5,6,1:2:0:0:
277,41,4470,6,0,P|328:68|412:24,1,150.299995413208,6|4,1:2|1:3,0:0:0:0:
407,32,5064,1,4,1:3:0:0:
407,32,5148,1,6,1:2:0:0:
382,302,5487,6,0,L|320:291,1,62.6250023889543,2|0,1:2|0:0,0:0:0:0:
228,288,5826,2,0,L|238:226,1,62.6250023889543,0|0,1:0|0:0,0:0:0:0:
242,134,6165,2,0,L|303:144,1,62.6250023889543,2|0,1:2|0:0,0:0:0:0:
396,148,6504,2,0,L|385:209,1,62.6250023889543,0|0,1:0|0:0,0:0:0:0:
228,288,6843,6,0,P|202:269|172:262,1,62.6250023889543,2|0,1:2|0:0,0:0:0:0:
242,134,7182,2,0,P|272:126|297:108,1,62.6250023889543,0|0,1:0|0:0,0:0:0:0:
432,64,7521,5,2,1:2:0:0:
464,188,7691,1,0,0:0:0:0:
297,108,7860,1,0,1:0:0:0:
329,232,8030,1,0,0:0:0:0:
162,180,8199,6,0,L|170:117,1,62.6250023889543,2|0,1:2|0:0,0:0:0:0:
188,28,8538,2,0,L|125:19,1,62.6250023889543,0|0,1:0|0:0,0:0:0:0:
36,2,8877,2,0,L|27:64,1,62.6250023889543,2|0,1:2|0:0,0:0:0:0:
10,154,9216,2,0,L|72:162,1,62.6250023889543,0|0,1:0|0:0,0:0:0:0:
188,28,9555,6,0,L|250:19,1,62.6250023889543,2|0,1:2|0:0,0:0:0:0:
240,192,9894,2,0,L|177:200,1,62.6250023889543,0|0,1:0|0:0,0:0:0:0:
45,66,10233,5,2,1:2:0:0:
214,110,10402,1,0,0:0:0:0:
90,234,10572,1,0,1:0:0:0:
214,110,10741,6,0,P|297:105|379:89,1,167,4|0,1:2|0:0,0:0:0:0:
340,268,11250,2,0,P|299:260|257:257,1,83.5,8|0,0:0|0:0,0:0:0:0:
107,347,11589,1,0,1:0:0:0:
137,226,11758,1,0,1:0:0:0:
227,377,11928,1,8,0:0:0:0:
137,226,12097,6,0,P|98:154|128:80,1,167,4|0,1:2|0:0,0:0:0:0:
305,133,12606,2,0,L|293:225,1,83.5,8|0,0:0|0:0,0:0:0:0:
237,381,12945,1,0,1:0:0:0:
347,326,13114,1,0,1:0:0:0:
182,269,13284,1,8,0:0:0:0:
347,326,13453,6,0,P|428:304|511:294,1,167,4|0,1:2|0:0,0:0:0:0:
404,144,13962,2,0,P|363:136|323:123,1,83.5,8|0,0:0|0:0,0:0:0:0:
172,36,14301,1,0,1:0:0:0:
203,154,14470,1,0,1:0:0:0:
291,4,14640,1,8,0:0:0:0:
203,154,14809,6,0,P|152:180|48:132,1,167,4|0,1:2|0:0,0:0:0:0:
148,332,15318,2,0,L|260:316,1,83.5,12|0,0:0|0:0,0:0:0:0:
390,253,15657,1,0,1:0:0:0:
277,206,15826,1,0,1:0:0:0:
343,368,15996,5,8,0:0:0:0:
353,365,16080,1,0,0:0:0:0:
363,363,16165,1,0,0:0:0:0:
373,360,16250,1,0,0:0:0:0:
383,358,16335,5,0,1:0:0:0:
277,206,16504,1,0,1:0:0:0:
198,373,16674,2,0,L|108:356,1,83.5,12|0,0:0|0:0,0:0:0:0:
407,334,17013,5,0,1:0:0:0:
301,182,17182,1,0,1:0:0:0:
222,349,17352,2,0,L|132:332,1,83.5,12|0,0:0|0:0,0:0:0:0:
33,182,17691,5,0,1:0:0:0:
139,30,17860,1,0,1:0:0:0:
218,197,18030,2,0,L|308:180,1,83.5,12|0,0:0|0:0,0:0:0:0:
9,158,18369,5,0,1:0:0:0:
115,6,18538,1,0,1:0:0:0:
194,173,18708,2,0,L|284:156,1,83.5,12|0,0:0|0:0,0:0:0:0:
476,200,19047,6,0,P|468:252|484:292,1,83.5,4|0,3:2|3:0,0:0:0:0:
477,280,19301,1,0,3:0:0:0:
477,280,19386,1,0,3:0:0:0:
356,344,19555,6,0,L|352:392,2,41.75,0|0|0,3:0|3:0|3:0,0:0:0:0:
257,248,19894,6,0,L|225:284,2,41.75,0|0|0,3:0|3:0|3:0,0:0:0:0:
316,125,20233,5,0,3:0:0:0:
320,91,20318,1,0,3:0:0:0:
312,59,20402,1,8,3:0:0:0:
294,32,20487,1,8,3:0:0:0:
267,12,20572,1,8,3:0:0:0:
235,3,20657,1,8,3:0:0:0:
202,5,20741,1,8,3:0:0:0:
172,19,20826,1,8,3:0:0:0:
148,42,20911,1,8,3:0:0:0:
133,72,20996,1,8,3:0:0:0:
131,106,21080,6,0,L|136:148,3,41.75,8|8|8|8,3:0|3:0|3:0|3:0,0:0:0:0:
160,168,21419,2,0,L|165:210,3,41.75,8|8|8|8,3:0|3:0|3:0|3:0,0:0:0:0:
144,236,21758,6,0,P|175:235|205:243,1,62.6250023889543,2|0,0:0|0:0,0:0:0:0:
288,224,22097,2,0,P|288:255|280:285,1,62.6250023889543,0|0,0:0|0:0,0:0:0:0:
300,368,22436,2,0,P|268:368|238:360,1,62.6250023889543,2|0,0:0|0:0,0:0:0:0:
156,380,22775,2,0,P|155:348|163:318,1,62.6250023889543,0|0,0:0|0:0,0:0:0:0:
144,236,23114,6,0,L|19:247,1,125.250004777909,2|0,0:0|0:0,0:0:0:0:
4,80,23792,2,0,L|128:68,1,125.250004777909,2|0,0:0|0:0,0:0:0:0:
268,164,24470,6,0,P|256:193|255:224,1,62.6250023889543,2|0,0:0|0:0,0:0:0:0:
340,212,24809,2,0,P|369:223|400:224,1,62.6250023889543,0|0,0:0|0:0,0:0:0:0:
388,140,25148,2,0,P|399:110|400:79,1,62.6250023889543,2|0,0:0|0:0,0:0:0:0:
316,92,25487,2,0,P|286:80|255:79,1,62.6250023889543,0|0,0:0|0:0,0:0:0:0:
188,132,25826,6,0,L|200:256,1,125.250004777909,2|0,0:0|0:0,0:0:0:0:
32,272,26504,2,0,L|20:148,1,125.250004777909,2|0,0:0|0:0,0:0:0:0:
104,0,27182,5,2,0:0:0:0:
160,64,27352,1,0,0:0:0:0:
160,64,27521,2,0,L|224:58,1,62.6250023889543,0|0,0:0|0:0,0:0:0:0:
304,36,27860,2,0,P|324:68|280:156,1,125.250004777909,2|0,0:0|0:0,0:0:0:0:
228,192,28369,5,0,0:0:0:0:
228,192,28538,2,0,L|163:186,1,62.6250023889543,2|0,0:0|0:0,0:0:0:0:
84,164,28877,2,0,P|64:196|108:284,1,125.250004777909,0|2,0:0|0:0,0:0:0:0:
152,332,29386,5,0,0:0:0:0:
210,269,29555,1,0,0:0:0:0:
272,327,29725,1,0,0:0:0:0:
330,264,29894,6,0,L|320:132,1,125.250004777909,2|0,0:0|0:0,0:0:0:0:
432,110,30402,1,0,0:0:0:0:
432,110,30572,2,0,L|442:242,1,125.250004777909,2|0,0:0|0:0,0:0:0:0:
411,346,31080,1,0,0:0:0:0:
330,264,31250,5,2,0:0:0:0:
330,264,31419,1,2,0:0:0:0:
441,234,31589,1,2,0:0:0:0:
441,234,31758,1,2,0:0:0:0:
360,152,31928,2,0,P|329:159|298:162,1,62.6250023889543,2|0,0:0|0:0,0:0:0:0:
441,234,32267,2,0,P|471:227|502:224,1,62.6250023889543,2|0,0:0|0:0,0:0:0:0:
367,40,32606,5,4,1:2:0:0:
360,152,32775,1,2,0:3:0:0:
258,31,32945,1,8,0:0:0:0:
251,143,33114,1,2,0:3:0:0:
384,24,33284,5,0,1:0:0:0:
375,170,33453,1,2,0:3:0:0:
242,12,33623,1,8,0:0:0:0:
233,158,33792,1,2,0:3:0:0:
56,68,33962,6,0,L|138:56,1,83.5,0|2,1:0|0:3,0:0:0:0:
130,258,34301,2,0,L|118:176,1,83.5,8|2,0:0|0:3,0:0:0:0:
320,184,34640,2,0,L|238:196,1,83.5,0|2,1:0|0:3,0:0:0:0:
246,0,34979,2,0,L|258:76,1,83.5,8|2,0:0|0:3,0:0:0:0:
461,285,35318,5,0,1:0:0:0:
454,173,35487,1,2,0:3:0:0:
352,294,35657,1,8,0:0:0:0:
345,182,35826,1,2,0:3:0:0:
476,298,35996,5,0,1:0:0:0:
467,156,36165,1,2,0:3:0:0:
338,310,36335,1,8,0:0:0:0:
329,168,36504,1,2,0:3:0:0:
136,288,36674,6,0,L|218:278,1,83.5,0|2,1:0|0:3,0:0:0:0:
159,86,37013,2,0,L|168:168,1,83.5,8|2,0:0|0:3,0:0:0:0:
361,108,37352,2,0,L|278:117,1,83.5,0|2,1:0|0:3,0:0:0:0:
339,311,37691,2,0,L|329:228,1,83.5,8|2,0:0|0:3,0:0:0:0:
159,86,38030,6,0,P|119:95|80:84,1,83.5,4|2,1:2|0:3,0:0:0:0:
68,256,38369,2,0,P|108:247|147:258,1,83.5,8|2,0:0|0:3,0:0:0:0:
272,336,38708,1,0,1:0:0:0:
236,140,38877,1,2,0:3:0:0:
360,217,39047,2,0,L|452:200,1,83.5,8|2,0:0|0:3,0:0:0:0:
376,56,39386,5,0,1:2:0:0:
355,32,39470,1,0,0:0:0:0:
329,15,39555,1,2,0:3:0:0:
299,5,39640,1,0,0:0:0:0:
268,3,39725,1,8,0:0:0:0:
238,9,39809,1,0,0:0:0:0:
210,23,39894,1,2,0:3:0:0:
186,43,39979,1,0,0:0:0:0:
169,69,40064,6,0,L|175:110,1,41.75,0|0,1:2|0:0,0:0:0:0:
216,184,40233,2,0,L|178:202,1,41.75,2|0,1:3|0:0,0:0:0:0:
121,264,40402,2,0,L|92:234,1,41.75,8|0,0:0|0:0,0:0:0:0:
15,198,40572,2,0,L|34:161,1,41.75,2|0,0:3|0:0,0:0:0:0:
60,81,40741,6,0,P|101:83|140:69,1,83.5,0|2,1:0|0:3,0:0:0:0:
320,32,41080,2,0,P|297:66|290:107,1,83.5,8|2,0:0|0:3,0:0:0:0:
308,256,41419,1,0,1:0:0:0:
140,136,41589,1,2,0:3:0:0:
158,272,41758,2,0,L|148:360,1,83.5,8|2,0:0|0:3,0:0:0:0:
344,348,42097,6,0,P|392:320|440:320,1,83.5,0|2,1:0|0:3,0:0:0:0:
418,317,42352,1,0,0:0:0:0:
418,317,42436,1,8,0:0:0:0:
380,208,42606,5,2,0:3:0:0:
380,208,42691,1,0,0:0:0:0:
380,208,42775,1,0,1:0:0:0:
264,211,42945,5,2,1:3:0:0:
241,194,43029,1,0,0:0:0:0:
227,170,43114,1,8,0:0:0:0:
222,143,43199,1,0,0:0:0:0:
228,116,43283,1,2,0:3:0:0:
243,93,43368,1,0,0:0:0:0:
266,78,43453,5,0,1:0:0:0:
120,124,43623,1,0,1:0:0:0:
266,78,43792,2,0,L|348:89,1,83.5,12|0,0:0|0:0,0:0:0:0:
148,232,44131,5,0,1:0:0:0:
294,186,44301,1,0,1:0:0:0:
148,232,44470,2,0,L|66:221,1,83.5,12|0,0:0|0:0,0:0:0:0:
328,292,44809,5,0,1:0:0:0:
181,337,44979,1,0,1:0:0:0:
327,291,45148,2,0,L|409:302,1,83.5,12|0,0:0|0:0,0:0:0:0:
148,232,45487,5,0,1:0:0:0:
148,232,45572,1,0,1:0:0:0:
148,232,45657,1,0,1:0:0:0:
148,232,45741,1,0,1:0:0:0:
148,232,45826,2,0,L|65:220,1,83.5,12|0,0:0|0:0,0:0:0:0:
272,32,46165,5,4,1:2:0:0:
344,208,46335,1,0,1:0:0:0:
396,84,46504,1,8,0:0:0:0:
220,156,46674,1,0,0:0:0:0:
344,208,46843,6,0,L|436:220,1,83.5,0|0,1:0|1:0,0:0:0:0:
272,32,47182,2,0,L|180:44,1,83.5,8|0,0:0|0:0,0:0:0:0:
396,84,47521,5,0,1:0:0:0:
263,251,47691,1,0,3:0:0:0:
263,251,47775,1,0,3:0:0:0:
263,251,47860,2,0,L|180:240,1,83.5,0|0,3:0|3:0,0:0:0:0:
396,84,48199,2,0,L|478:95,1,83.5,0|0,3:0|3:0,0:0:0:0:
272,32,48538,5,0,3:0:0:0:
265,51,48623,1,0,3:0:0:0:
251,67,48708,1,0,3:0:0:0:
233,77,48792,1,0,3:0:0:0:
213,81,48877,5,0,1:0:0:0:
356,149,49047,1,0,1:0:0:0:
213,81,49216,2,0,L|121:93,1,83.5,12|0,0:0|0:0,0:0:0:0:
340,256,49555,5,0,1:0:0:0:
198,189,49725,1,0,1:0:0:0:
198,189,49809,1,0,1:0:0:0:
197,188,49894,2,0,L|105:200,1,83.5,12|0,0:0|0:0,0:0:0:0:
352,120,50233,5,0,1:0:0:0:
209,52,50402,1,0,1:0:0:0:
352,120,50572,2,0,L|444:108,1,83.5,12|0,0:0|0:0,0:0:0:0:
197,188,50911,5,0,1:0:0:0:
340,256,51080,1,0,1:0:0:0:
197,188,51250,2,0,L|105:200,1,83.5,12|0,0:0|0:0,0:0:0:0:
408,311,51589,6,0,P|440:313|467:299,1,62.6250023889543,4|0,1:2|0:0,0:0:0:0:
423,225,51928,2,0,P|408:197|382:180,1,62.6250023889543,0|0,1:2|0:0,0:0:0:0:
340,256,52267,1,0,1:2:0:0:
340,256,52436,2,0,P|323:282|321:313,1,62.6250023889543,0|0,0:0|1:2,0:0:0:0:
128,336,52775,6,0,L|112:192,1,125.250004777909,8|0,0:3|0:0,0:0:0:0:
135,89,53284,1,0,1:0:0:0:
64,140,53453,1,8,0:3:0:0:
185,160,53623,2,0,L|247:153,1,62.6250023889543,0|4,1:0|0:3,0:0:0:0:
114,211,53962,2,0,L|51:217,1,62.6250023889543,0|4,1:0|0:3,0:0:0:0:
212,308,54301,6,0,P|251:295|291:305,1,83.5,4|0,1:2|0:0,0:0:0:0:
288,160,54640,1,0,0:0:0:0:
288,160,54809,2,0,P|248:171|208:162,1,83.5,4|0,1:2|0:0,0:0:0:0:
244,12,55148,1,0,3:0:0:0:
244,12,55233,1,0,3:0:0:0:
244,12,55318,2,0,L|336:4,1,83.5,4|0,0:0|0:0,0:0:0:0:
100,48,55657,6,0,L|16:40,1,83.5,4|0,1:2|1:0,0:0:0:0:
0,176,55996,1,0,1:0:0:0:
0,176,56165,2,0,L|83:183,1,83.5,4|0,1:2|0:0,0:0:0:0:
232,120,56504,5,0,3:0:0:0:
254,135,56589,1,0,3:0:0:0:
271,156,56674,1,0,3:0:0:0:
282,183,56758,1,0,3:0:0:0:
283,210,56843,1,0,3:0:0:0:
274,236,56928,1,0,3:0:0:0:
259,260,57013,5,4,1:2:0:0:
412,232,57182,1,0,0:0:0:0:
232,120,57352,5,4,1:2:0:0:
385,92,57521,1,0,3:0:0:0:
385,92,57606,1,0,3:0:0:0:
385,92,57691,1,2,1:3:0:0:
259,260,57860,2,0,L|167:240,1,83.5,2|0,1:3|0:0,0:0:0:0:
168,32,58199,6,0,P|245:8|311:55,1,167,4|0,1:2|0:0,0:0:0:0:
401,237,58708,2,0,P|324:212|258:259,1,167,8|0,0:0|1:0,0:0:0:0:
196,380,59216,1,0,1:0:0:0:
287,350,59386,1,8,0:0:0:0:
166,288,59555,6,0,P|109:292|-5:311,1,167,4|0,1:2|0:0,0:0:0:0:
20,136,60064,1,0,3:0:0:0:
49,105,60148,1,0,3:0:0:0:
88,91,60233,1,0,3:0:0:0:
129,95,60318,1,0,3:0:0:0:
164,118,60403,1,0,3:0:0:0:
199,140,60487,1,0,3:0:0:0:
240,144,60572,1,0,3:0:0:0:
279,129,60657,1,0,3:0:0:0:
307,99,60741,2,0,L|300:44,1,41.75,0|0,3:0|3:0,0:0:0:0:
404,92,60911,2,0,L|411:147,1,41.75,0|0,3:0|3:0,0:0:0:0:
448,260,61080,6,0,P|360:249|307:318,1,183.700005606079,4|8,1:2|0:0,0:0:0:0:
168,356,61589,2,0,L|156:256,1,91.8500028030396,0|0,1:0|0:0,0:0:0:0:
176,136,61928,1,0,1:0:0:0:
16,284,62097,1,8,1:2:0:0:
34,155,62267,1,0,0:0:0:0:
167,356,62436,6,0,P|240:302|328:316,1,183.700005606079,0|8,1:0|0:0,0:0:0:0:
480,168,62945,2,0,P|391:181|319:128,1,183.700005606079,0|0,1:0|1:0,0:0:0:0:
352,12,63453,1,12,1:2:0:0:
203,96,63623,5,0,3:0:0:0:
203,96,63708,1,0,3:0:0:0:
203,96,63792,2,0,P|212:192|208:280,1,183.700005606079,4|8,1:2|0:0,0:0:0:0:
340,340,64301,2,0,P|344:288|356:248,1,91.8500028030396,0|0,1:0|0:0,0:0:0:0:
488,204,64640,1,0,1:0:0:0:
312,112,64809,1,8,1:2:0:0:
444,65,64979,1,0,0:0:0:0:
355,250,65148,6,0,L|251:226,1,91.8500028030396,0|0,1:0|3:0,0:0:0:0:
265,229,65402,1,0,3:0:0:0:
265,229,65487,1,8,3:2:0:0:
244,32,65657,2,0,P|328:5|397:59,1,183.700005606079,4|0,1:2|1:0,0:0:0:0:
265,229,66165,2,0,L|175:249,1,91.8500028030396,12|0,1:2|0:0,0:0:0:0:
40,123,66504,6,0,P|62:84|60:39,1,91.8500028030396,4|0,1:2|0:0,0:0:0:0:
216,60,66843,2,0,P|193:99|195:144,1,91.8500028030396,8|0,0:0|0:0,0:0:0:0:
360,216,67182,1,0,1:0:0:0:
241,262,67352,1,0,1:0:0:0:
313,97,67521,1,8,0:0:0:0:
248,280,67691,6,0,L|132:256,1,91.8500028030396,4|0,1:2|0:0,0:0:0:0:
300,84,68030,2,0,L|416:60,1,91.8500028030396,0|8,1:0|0:0,0:0:0:0:
493,206,68369,1,0,0:0:0:0:
512,84,68538,1,0,1:0:0:0:
512,84,68708,1,0,1:0:0:0:
370,187,68877,2,0,L|388:308,1,91.8500028030396,8|2,0:0|0:3,0:0:0:0:
160,324,69216,5,2,1:3:0:0:
200,144,69386,1,0,1:0:0:0:
330,367,69555,1,8,0:0:0:0:
370,187,69725,2,0,P|361:142|359:96,1,91.8500028030396,2|0,1:3|0:0,0:0:0:0:
148,233,70064,2,0,P|157:278|160:324,1,91.8500028030396,2|0,1:3|0:0,0:0:0:0:
32,108,70402,6,0,L|220:72,1,183.700005606079,2|0,1:3|0:0,0:0:0:0:
368,160,70911,1,8,0:0:0:0:
333,38,71080,1,4,0:0:0:0:
246,194,71250,2,0,L|256:288,1,91.8500028030396,8|0,1:2|1:0,0:0:0:0:
440,240,71589,1,8,3:0:0:0:
440,240,71674,1,8,3:0:0:0:
440,240,71758,1,8,3:0:0:0:
440,240,71843,1,8,3:0:0:0:
440,240,71928,6,0,P|484:166|433:78,1,183.700005606079,4|8,1:2|0:0,0:0:0:0:
236,102,72436,2,0,L|246:194,1,91.8500028030396,0|0,1:0|0:0,0:0:0:0:
216,320,72775,1,0,1:2:0:0:
104,128,72945,1,8,1:2:0:0:
74,254,73114,1,0,0:0:0:0:
236,102,73284,6,0,P|291:135|368:108,1,137.775004204559,0|0,1:0|3:0,0:0:0:0:
380,92,73623,1,8,3:2:0:0:
456,292,73792,2,0,P|367:281|302:341,1,183.700005606079,0|0,1:0|1:0,0:0:0:0:
74,254,74301,1,12,1:2:0:0:
216,100,74470,5,0,3:0:0:0:
216,100,74555,1,0,3:0:0:0:
216,100,74640,2,0,P|204:191|194:282,1,183.700005606079,4|8,1:2|0:0,0:0:0:0:
52,356,75148,2,0,P|44:310|34:265,1,91.8500028030396,0|0,1:0|0:0,0:0:0:0:
0,136,75487,1,0,1:0:0:0:
176,208,75656,1,8,1:2:0:0:
141,78,75826,1,0,0:0:0:0:
52,356,75996,6,0,L|156:336,1,91.8500028030396,0|0,1:0|3:0,0:0:0:0:
142,338,76250,1,0,3:0:0:0:
142,338,76335,1,8,3:2:0:0:
90,153,76504,2,0,L|0:136,1,91.8500028030396,0|0,1:0|0:0,0:0:0:0:
180,32,76843,1,4,1:2:0:0:
211,242,77013,2,0,L|301:259,1,91.8500028030396,4|0,1:2|0:0,0:0:0:0:
456,100,77352,5,0,1:2:0:0:
328,140,77521,1,0,1:0:0:0:
426,230,77691,2,0,L|528:216,1,91.8500028030396,8|0,0:0|0:0,0:0:0:0:
432,76,78030,5,0,1:0:0:0:
304,116,78199,1,0,1:0:0:0:
402,206,78369,2,0,L|504:192,1,91.8500028030396,8|0,0:0|0:0,0:0:0:0:
284,356,78708,6,0,L|182:342,1,91.8500028030396,0|0,1:0|1:0,0:0:0:0:
208,204,79047,2,0,L|310:218,1,91.8500028030396,8|0,0:0|0:0,0:0:0:0:
162,94,79386,5,0,1:0:0:0:
123,274,79555,1,0,1:0:0:0:
298,216,79725,2,0,L|288:112,1,91.8500028030396,8|0,0:0|0:0,0:0:0:0:
60,60,80064,5,0,1:0:0:0:
188,100,80233,1,0,1:0:0:0:
90,190,80403,2,0,L|-12:176,1,91.8500028030396,8|0,0:0|0:0,0:0:0:0:
84,36,80742,5,0,1:0:0:0:
212,76,80911,1,0,1:0:0:0:
114,166,81081,2,0,L|12:152,1,91.8500028030396,8|0,0:0|0:0,0:0:0:0:
192,340,81419,6,0,P|233:322|279:322,1,91.8500028030396,0|0,1:0|1:0,0:0:0:0:
404,176,81758,2,0,P|358:176|316:158,1,91.8500028030396,8|0,0:0|0:0,0:0:0:0:
173,44,82097,5,0,1:0:0:0:
143,225,82267,1,0,1:0:0:0:
316,158,82436,1,8,0:0:0:0:
56,116,82606,5,0,1:0:0:0:
56,116,82691,1,0,1:0:0:0:
56,116,82776,1,6,1:2:0:0:
360,72,83453,5,6,1:2:0:0:
120,328,84131,5,6,1:2:0:0:
376,304,84640,5,6,1:2:0:0:
376,304,84979,5,2,1:3:0:0:
400,208,85148,1,0,0:3:0:0:
304,235,85318,1,2,0:3:0:0:
328,138,85487,6,0,P|367:127|405:109,1,83.5,6|0,1:2|0:0,0:0:0:0:
174,156,85826,2,0,P|143:127|109:103,1,83.5,2|0,1:2|0:0,0:0:0:0:
265,280,86165,2,0,P|255:320|251:362,1,83.5,2|0,1:2|0:0,0:0:0:0:
440,264,86504,5,6,1:2:0:0:
256,192,86589,12,0,87521,0:0:0:0:
372,100,87860,5,0,1:0:0:0:
330,285,88030,1,0,1:0:0:0:
189,154,88199,6,0,P|196:123|201:92,1,62.6250023889543,2|0,1:2|0:0,0:0:0:0:
100,108,88538,2,0,P|69:100|38:95,1,62.6250023889543,0|0,1:2|0:0,0:0:0:0:
54,197,88877,2,0,P|46:227|41:258,1,62.6250023889543,2|0,1:2|0:0,0:0:0:0:
143,243,89216,2,0,P|173:250|204:255,1,62.6250023889543,0|0,1:2|0:0,0:0:0:0:
372,304,89555,6,0,P|402:296|433:291,1,62.6250023889543,2|0,1:2|0:0,0:0:0:0:
420,112,89894,2,0,P|389:107|358:99,1,62.6250023889543,0|0,1:2|0:0,0:0:0:0:
204,32,90233,5,2,1:2:0:0:
164,172,90402,1,0,0:0:0:0:
358,99,90572,1,0,1:2:0:0:
318,239,90741,1,0,0:0:0:0:
148,340,90911,6,0,L|136:278,1,62.6250023889543,2|0,1:2|0:0,0:0:0:0:
102,183,91250,2,0,L|163:171,1,62.6250023889543,0|0,1:2|0:0,0:0:0:0:
259,137,91589,2,0,L|270:198,1,62.6250023889543,2|0,1:2|0:0,0:0:0:0:
305,294,91928,2,0,L|243:305,1,62.6250023889543,0|0,1:2|0:0,0:0:0:0:
376,136,92267,6,0,L|437:124,1,62.6250023889543,2|0,1:2|0:0,0:0:0:0:
280,28,92606,2,0,L|218:16,1,62.6250023889543,0|0,1:2|0:0,0:0:0:0:
56,64,92945,5,2,1:2:0:0:
212,144,93114,1,0,0:0:0:0:
64,239,93284,1,0,1:2:0:0:
212,144,93453,6,0,P|272:160|384:164,1,167,4|0,1:2|0:0,0:0:0:0:
328,316,93962,2,0,P|286:318|245:324,1,83.5,8|0,0:0|0:0,0:0:0:0:
75,274,94301,1,0,1:0:0:0:
184,214,94471,1,0,1:0:0:0:
136,384,94640,1,8,0:0:0:0:
184,214,94809,6,0,P|197:134|157:62,1,167,4|0,1:2|0:0,0:0:0:0:
328,12,95318,2,0,P|323:53|340:96,1,83.5,8|0,0:0|0:0,0:0:0:0:
435,238,95657,1,0,1:0:0:0:
312,213,95826,1,0,1:0:0:0:
460,116,95996,1,8,0:0:0:0:
312,213,96165,6,0,L|132:192,1,167,4|0,1:2|0:0,0:0:0:0:
224,356,96674,2,0,L|307:347,1,83.5,8|0,0:0|0:0,0:0:0:0:
462,262,97013,1,0,1:0:0:0:
340,228,97182,1,0,1:0:0:0:
428,383,97352,1,8,0:0:0:0:
340,228,97521,6,0,P|312:184|348:68,1,167,4|0,1:2|0:0,0:0:0:0:
144,32,98030,2,0,L|132:128,1,83.5,12|0,0:0|0:0,0:0:0:0:
97,289,98369,1,0,1:0:0:0:
28,184,98538,1,0,1:0:0:0:
202,219,98708,5,8,0:0:0:0:
212,217,98792,1,0,0:0:0:0:
222,216,98877,1,0,0:0:0:0:
233,214,98962,1,0,0:0:0:0:
243,213,99046,5,0,1:0:0:0:
161,12,99216,1,0,1:0:0:0:
28,184,99386,2,0,L|40:276,1,83.5,12|0,0:0|0:0,0:0:0:0:
264,201,99725,5,0,1:0:0:0:
182,0,99895,1,0,1:0:0:0:
49,172,100065,2,0,L|61:264,1,83.5,12|0,0:0|0:0,0:0:0:0:
248,92,100402,5,0,1:0:0:0:
330,293,100572,1,0,1:0:0:0:
463,121,100742,2,0,L|451:29,1,83.5,12|0,0:0|0:0,0:0:0:0:
227,104,101081,5,0,1:0:0:0:
309,305,101250,1,0,1:0:0:0:
442,133,101419,2,0,L|430:41,1,83.5,12|0,0:0|0:0,0:0:0:0:
160,35,101758,5,4,3:2:0:0:
135,69,101842,1,0,3:0:0:0:
127,109,101927,1,0,3:0:0:0:
138,149,102012,1,0,3:0:0:0:
166,181,102097,1,0,3:0:0:0:
193,211,102181,1,0,3:0:0:0:
204,251,102266,1,0,3:0:0:0:
196,292,102351,1,0,3:0:0:0:
172,325,102436,6,0,L|114:339,3,41.75,0|0|0|0,3:0|3:0|3:0|3:0,0:0:0:0:
112,364,102775,2,0,L|71:374,3,41.75,0|0|0|0,3:0|3:0|3:0|3:0,0:0:0:0:
36,352,103114,6,0,P|72:303|59:243,1,125.250004777909,0|0,1:0|0:0,0:0:0:0:
196,292,103623,5,4,1:3:0:0:
196,292,103708,1,4,1:3:0:0:
196,292,103792,1,4,1:2:0:0:
