osu file format v14

[General]
AudioFilename: audio.mp3
AudioLeadIn: 0
PreviewTime: 60996
Countdown: 0
SampleSet: Soft
StackLeniency: 0.7
Mode: 0
LetterboxInBreaks: 0
WidescreenStoryboard: 1

[Editor]
DistanceSpacing: 1
BeatDivisor: 4
GridSize: 4
TimelineZoom: 2

[Metadata]
Title:Zettai Sengen ~Recital~
TitleUnicode:ゼッタイ宣言〜Recital〜
Artist:Pastel*Palettes
ArtistUnicode:Pastel*Palettes
Creator:Doormat
Version:Hard
Source:バンドリ! ガールズバンドパーティ!
Tags:BanG Dream! Girls Band Party bandori garupa ガルパ pasupare パスパレ パステルパレット game size maruyama aya 丸山彩 maeshima ami 前島亜美 hikawa hina 氷川日菜 ozawa ari 小澤亜李 shirasagi chisato 白鷺千聖 uesaka sumire 上坂すみれ yamato maya 大和麻弥 nakagami ikumi 中上育実 wakamiya eve 若宮イヴ hata sawako 秦佐和子 anime video game japanese
BeatmapID:2202959
BeatmapSetID:872038

[Difficulty]
HPDrainRate:5
CircleSize:4
OverallDifficulty:7
ApproachRate:8
SliderMultiplier:1.4
SliderTickRate:1

[Events]
//Background and Video events
0,0,"halloween pasupare.jpg",0,0
//Break Periods
//Storyboard Layer 0 (Background)
//Storyboard Layer 1 (Fail)
//Storyboard Layer 2 (Pass)
//Storyboard Layer 3 (Foreground)
//Storyboard Layer 4 (Overlay)
//Storyboard Sound Samples

[TimingPoints]
64,338.983050847458,4,2,1,40,1,0
64,-100,4,2,1,40,0,0
402,-100,4,2,1,45,0,0
741,-100,4,2,1,50,0,0
1080,-100,4,2,1,55,0,0
1419,-100,4,2,1,60,0,0
2775,-100,4,2,1,70,0,0
5487,-100,4,2,1,40,0,0
10741,-100,4,2,1,70,0,0
15318,-100,4,2,1,80,0,0
15657,-100,4,2,1,70,0,0
16335,-100,4,2,1,70,0,0
19047,-100,4,2,1,70,0,0
21758,-125,4,2,1,40,0,0
31250,-125,4,2,1,50,0,0
32606,-100,4,2,1,70,0,0
38030,-100,4,2,1,70,0,0
43453,-111.111111111111,4,2,1,70,0,0
46165,-111.111111111111,4,2,1,80,0,0
48877,-111.111111111111,4,2,1,70,0,0
51589,-125,4,2,1,60,0,0
54301,-100,4,2,1,80,0,0
55318,-100,4,2,1,80,0,0
55657,-100,4,2,1,80,0,0
61080,-100,4,2,1,90,0,1
71843,-100,4,2,1,90,0,0
71928,-100,4,2,1,90,0,1
82775,-125,4,2,1,90,0,0
86504,-125,4,2,1,90,0,0
87521,-100,4,2,1,5,0,0
87860,-100,4,2,1,70,0,0
88199,-100,4,2,1,40,0,0
93453,-100,4,2,1,70,0,0
98030,-100,4,2,1,80,0,0
98369,-100,4,2,1,70,0,0
99047,-100,4,2,1,70,0,0
101758,-100,4,2,1,70,0,0
103114,-100,4,2,1,50,0,0
103623,-100,4,2,1,90,0,0

[Colours]
Combo1 : 135,25,245
Combo2 : 215,10,10
Combo3 : 95,5,155
Combo4 : 235,10,95

[HitObjects]
376,132,64,6,0,L|389:200,1,70,2|0,0:0|0:0,0:0:0:0:
292,188,402,2,0,L|223:201,1,70,2|0,0:0|0:0,0:0:0:0:
236,104,741,2,0,L|222:35,1,70,2|0,0:0|0:0,0:0:0:0:
320,48,1080,2,0,L|388:34,1,70,2|0,0:0|0:0,0:0:0:0:
480,48,1419,6,0,L|464:136,1,70,2|2,0:0|0:0,0:0:0:0:
380,144,1758,2,0,L|396:232,1,70,2|2,0:0|0:0,0:0:0:0:
308,260,2097,1,2,0:0:0:0:
308,260,2267,1,2,0:0:0:0:
388,316,2436,2,0,L|375:384,1,70,2|2,0:0|0:0,0:0:0:0:
476,372,2775,5,6,1:2:0:0:
256,112,3623,5,6,1:2:0:0:
256,272,3962,5,6,1:2:0:0:
96,96,4470,5,6,1:2:0:0:
328,40,4979,6,0,L|336:88,2,35,4|4|6,1:3|1:3|1:2,0:0:0:0:
156,43,5487,6,0,P|127:64|93:69,1,70,2|0,1:2|0:0,0:0:0:0:
144,144,5826,2,0,P|172:164|206:169,1,70,0|0,1:0|0:0,0:0:0:0:
160,248,6165,2,0,P|131:269|97:274,1,70,2|0,1:2|0:0,0:0:0:0:
148,349,6504,2,0,P|176:369|210:374,1,70,0|0,1:0|0:0,0:0:0:0:
300,376,6843,6,0,L|292:306,1,70,2|0,1:2|0:0,0:0:0:0:
384,296,7182,2,0,L|391:226,1,70,0|0,1:0|0:0,0:0:0:0:
300,216,7521,1,2,1:2:0:0:
300,216,7691,1,0,0:0:0:0:
264,300,7860,2,0,L|172:284,1,70,0|0,1:0|0:0,0:0:0:0:
128,223,8199,6,0,P|152:199|160:165,1,70,2|0,1:2|0:0,0:0:0:0:
232,108,8538,2,0,P|207:83|173:75,1,70,0|0,1:0|0:0,0:0:0:0:
116,4,8877,2,0,P|91:28|83:62,1,70,2|0,1:2|0:0,0:0:0:0:
11,119,9216,2,0,P|35:143|69:151,1,70,0|0,1:0|0:0,0:0:0:0:
72,244,9555,6,0,L|3:259,1,70,2|0,1:2|0:0,0:0:0:0:
24,348,9894,2,0,L|92:332,1,70,0|0,1:0|0:0,0:0:0:0:
164,276,10233,2,0,L|232:291,1,70,2|0,1:2|0:0,0:0:0:0:
296,360,10572,1,0,1:0:0:0:
324,272,10741,6,0,P|346:208|307:153,1,140,4|0,1:2|0:0,0:0:0:0:
224,120,11250,2,0,L|240:44,1,70,8|0,0:0|0:0,0:0:0:0:
148,32,11589,2,0,L|132:108,1,70,0|0,1:0|1:0,0:0:0:0:
48,136,11928,1,8,0:0:0:0:
76,224,12097,6,0,P|128:208|232:200,1,140,4|0,1:2|0:0,0:0:0:0:
288,260,12606,1,8,0:0:0:0:
288,260,12775,1,0,0:0:0:0:
212,308,12945,2,0,L|227:376,1,70,0|0,1:0|1:0,0:0:0:0:
320,384,13284,1,8,0:0:0:0:
400,340,13453,6,0,P|413:271|419:201,1,140,4|0,1:2|0:0,0:0:0:0:
368,124,13962,2,0,L|300:143,1,70,8|0,0:0|0:0,0:0:0:0:
276,56,14301,2,0,L|343:36,1,70,0|0,1:0|1:0,0:0:0:0:
432,16,14640,1,8,0:0:0:0:
412,104,14809,6,0,P|404:144|480:204,1,140,4|0,1:2|0:0,0:0:0:0:
444,292,15318,2,0,L|348:276,1,70,12|0,0:0|0:0,0:0:0:0:
304,220,15657,1,0,1:0:0:0:
287,311,15826,1,0,1:0:0:0:
216,250,15996,1,8,0:0:0:0:
198,253,16080,1,0,0:0:0:0:
181,257,16165,1,0,0:0:0:0:
164,260,16250,1,0,0:0:0:0:
147,264,16335,6,0,P|149:229|132:199,1,70,0|0,1:0|1:0,0:0:0:0:
52,132,16674,1,12,0:0:0:0:
52,132,17013,6,0,P|85:122|108:97,1,70,0|0,1:0|1:0,0:0:0:0:
147,0,17352,1,12,0:0:0:0:
147,0,17691,6,0,P|166:28|197:43,1,70,0|0,1:0|1:0,0:0:0:0:
302,50,18030,1,12,0:0:0:0:
302,50,18369,6,0,P|280:77|276:111,1,70,0|0,1:0|1:0,0:0:0:0:
302,213,18708,1,12,0:0:0:0:
302,213,19047,6,0,L|376:200,1,70,4|0,3:2|3:0,0:0:0:0:
388,292,19386,2,0,L|314:305,1,70,0|0,3:0|3:0,0:0:0:0:
228,312,19725,2,0,L|215:243,1,70,0|0,3:0|3:0,0:0:0:0:
302,213,20063,2,0,L|289:144,1,70,0|0,3:0|3:0,0:0:0:0:
232,72,20402,6,0,L|196:84,3,35,8|8|8|8,3:0|3:0|3:0|3:0,0:0:0:0:
172,64,20741,2,0,L|136:76,3,35,8|8|8|8,3:0|3:0|3:0|3:0,0:0:0:0:
112,56,21080,2,0,L|76:68,3,35,8|8|8|8,3:0|3:0|3:0|3:0,0:0:0:0:
52,48,21419,2,0,L|16:60,3,35,8|8|8|8,3:0|3:0|3:0|3:0,0:0:0:0:
4,96,21758,6,0,P|34:142|34:197,1,112,2|0,0:0|0:0,0:0:0:0:
4,280,22267,1,0,0:0:0:0:
84,312,22436,2,0,P|139:311|185:281,1,112,2|0,0:0|0:0,0:0:0:0:
228,204,22945,1,0,0:0:0:0:
295,260,23114,6,0,L|283:380,1,112,2|0,0:0|0:0,0:0:0:0:
456,384,23792,2,0,L|468:264,1,112,2|0,0:0|0:0,0:0:0:0:
295,260,24470,6,0,P|262:302|208:307,1,112,2|0,0:0|0:0,0:0:0:0:
128,268,24979,1,0,0:0:0:0:
176,196,25148,2,0,P|171:141|128:108,1,112,2|0,0:0|0:0,0:0:0:0:
40,108,25657,1,0,0:0:0:0:
32,20,25826,6,0,L|160:8,1,112,2|0,0:0|0:0,0:0:0:0:
176,180,26504,2,0,L|304:168,1,112,2|0,0:0|0:0,0:0:0:0:
456,216,27182,5,2,0:0:0:0:
408,288,27352,2,0,L|416:364,2,56,0|0|0,0:0|0:0|0:0,0:0:0:0:
336,240,27860,2,0,P|281:233|240:269,1,112,2|0,0:0|0:0,0:0:0:0:
154,258,28369,1,0,0:0:0:0:
156,172,28538,6,0,L|148:108,1,56,2|0,0:0|0:0,0:0:0:0:
64,136,28877,2,0,L|50:247,1,112,0|2,0:0|0:0,0:0:0:0:
112,308,29386,1,0,0:0:0:0:
60,376,29555,2,0,L|-8:364,1,56,0|0,0:0|0:0,0:0:0:0:
112,307,29894,6,0,P|151:270|206:272,1,112,2|0,0:0|0:0,0:0:0:0:
280,320,30402,1,0,0:0:0:0:
328,248,30572,2,0,P|382:246|422:283,1,112,2|0,0:0|0:0,0:0:0:0:
464,364,31080,1,0,0:0:0:0:
504,284,31250,6,0,L|492:216,1,56,2|2,0:0|0:0,0:0:0:0:
424,172,31589,2,0,L|436:104,1,56,2|2,0:0|0:0,0:0:0:0:
448,28,31928,1,2,0:0:0:0:
286,109,32267,1,2,0:0:0:0:
367,271,32606,6,0,P|377:305|369:339,1,70,4|2,1:2|0:3,0:0:0:0:
284,368,32945,2,0,P|274:334|282:300,1,70,8|2,0:0|0:3,0:0:0:0:
248,220,33284,1,0,1:0:0:0:
248,220,33453,1,2,0:3:0:0:
180,280,33623,2,0,L|108:264,1,70,8|2,0:0|0:3,0:0:0:0:
20,256,33962,6,0,L|35:187,1,70,0|2,1:0|0:3,0:0:0:0:
128,176,34301,2,0,L|143:107,1,70,8|2,0:0|0:3,0:0:0:0:
232,136,34640,2,0,L|247:204,1,70,0|2,1:0|0:3,0:0:0:0:
340,216,34979,2,0,L|355:284,1,70,8|2,0:0|0:3,0:0:0:0:
432,344,35318,5,0,1:0:0:0:
432,344,35487,1,2,0:3:0:0:
344,372,35657,2,0,P|310:380|277:368,1,70,8|2,0:0|0:3,0:0:0:0:
220,304,35996,1,0,1:0:0:0:
220,304,36165,1,2,0:3:0:0:
300,260,36335,2,0,P|311:227|303:193,1,70,8|2,0:0|0:3,0:0:0:0:
252,116,36674,6,0,L|315:87,1,70,0|2,1:0|0:3,0:0:0:0:
392,36,37013,2,0,L|420:99,1,70,8|2,0:0|0:3,0:0:0:0:
472,176,37352,2,0,L|408:204,1,70,0|2,1:0|0:3,0:0:0:0:
440,292,37691,2,0,L|376:320,1,70,8|2,0:0|0:3,0:0:0:0:
296,276,38030,6,0,P|272:244|168:248,1,140,4|8,1:2|0:0,0:0:0:0:
112,304,38538,1,2,0:3:0:0:
24,272,38708,2,0,L|36:196,1,70,0|2,1:0|0:3,0:0:0:0:
112,304,39047,2,0,L|100:380,1,70,8|2,0:0|0:3,0:0:0:0:
192,384,39386,6,0,L|236:372,3,35,0|0|2|0,1:2|0:0|0:3|0:0,0:0:0:0:
236,344,39725,2,0,L|280:332,3,35,8|0|2|0,0:0|0:0|0:3|0:0,0:0:0:0:
280,304,40064,2,0,L|324:292,3,35,0|0|2|0,1:2|0:0|1:3|0:0,0:0:0:0:
324,264,40402,2,0,L|368:252,3,35,8|0|2|0,0:0|0:0|0:3|0:0,0:0:0:0:
368,224,40741,6,0,P|336:188|376:96,1,140,0|8,1:0|0:0,0:0:0:0:
440,64,41250,1,2,0:3:0:0:
368,8,41419,2,0,P|324:16|276:16,1,70,0|2,1:0|0:3,0:0:0:0:
440,64,41758,2,0,P|484:56|532:56,1,70,8|2,0:0|0:3,0:0:0:0:
512,148,42097,6,0,P|500:192|500:228,1,70,0|2,1:0|0:3,0:0:0:0:
499,216,42352,1,0,0:0:0:0:
499,216,42436,1,8,0:0:0:0:
412,248,42606,2,0,L|405:213,2,35,2|0|0,0:3|0:0|1:0,0:0:0:0:
324,276,42945,2,0,L|330:310,2,35,2|0|8,1:3|0:0|0:0,0:0:0:0:
276,196,43284,1,2,0:3:0:0:
208,260,43453,6,0,P|168:276|92:224,1,125.999996154785,0|12,1:0|0:0,0:0:0:0:
56,156,43962,1,0,0:0:0:0:
0,228,44131,1,0,1:0:0:0:
0,228,44301,1,0,1:0:0:0:
98,239,44470,2,0,L|182:219,1,62.9999980773926,12|0,0:0|0:0,0:0:0:0:
212,148,44809,5,0,1:0:0:0:
212,148,44979,1,0,1:0:0:0:
284,208,45148,2,0,L|276:284,1,62.9999980773926,12|0,0:0|0:0,0:0:0:0:
356,324,45487,1,0,1:0:0:0:
368,314,45571,1,0,1:0:0:0:
381,305,45656,1,0,1:0:0:0:
394,296,45741,1,0,1:0:0:0:
407,287,45826,2,0,L|413:224,1,62.9999980773926,12|0,0:0|0:0,0:0:0:0:
420,124,46165,5,4,1:2:0:0:
420,124,46335,1,0,1:0:0:0:
332,172,46504,2,0,P|297:172|268:153,1,62.9999980773926,8|0,0:0|0:0,0:0:0:0:
172,160,46843,2,0,P|172:125|191:96,1,62.9999980773926,0|0,1:0|1:0,0:0:0:0:
284,72,47182,1,8,0:0:0:0:
284,72,47352,1,0,0:0:0:0:
212,0,47521,6,0,L|128:12,1,62.9999980773926,0|0,1:0|3:0,0:0:0:0:
144,24,47775,1,0,3:0:0:0:
138,39,47860,2,0,L|68:48,1,62.9999980773926,0|0,3:0|3:0,0:0:0:0:
0,112,48199,2,0,P|33:163|16:221,1,125.999996154785,0|0,3:0|3:0,0:0:0:0:
104,276,48707,5,0,3:0:0:0:
104,276,48792,1,0,3:0:0:0:
104,276,48877,2,0,P|141:304|225:276,1,125.999996154785,0|12,1:0|0:0,0:0:0:0:
257,204,49386,1,0,0:0:0:0:
341,246,49555,1,0,1:0:0:0:
383,161,49725,1,0,1:0:0:0:
383,161,49809,1,0,1:0:0:0:
383,161,49894,2,0,L|369:80,1,62.9999980773926,12|0,0:0|0:0,0:0:0:0:
448,40,50233,6,0,L|472:177,1,125.999996154785,0|12,1:0|0:0,0:0:0:0:
416,240,50741,1,0,0:0:0:0:
492,294,50910,1,0,1:0:0:0:
492,294,51080,1,0,1:0:0:0:
437,370,51250,2,0,L|320:356,1,94.499997116089,12|0,0:0|0:0,0:0:0:0:
328,368,51589,6,0,L|334:312,1,56,4|0,1:2|0:0,0:0:0:0:
248,276,51928,2,0,L|241:331,1,56,0|0,1:2|0:0,0:0:0:0:
155,295,52267,1,0,1:2:0:0:
155,295,52436,2,0,L|161:239,1,56,0|0,0:0|1:2,0:0:0:0:
216,156,52775,6,0,P|257:185|332:162,1,112,8|0,0:3|0:0,0:0:0:0:
364,96,53284,1,0,1:0:0:0:
364,96,53453,1,8,0:3:0:0:
440,152,53623,2,0,L|428:224,1,56,0|4,1:0|0:3,0:0:0:0:
364,96,53962,2,0,L|352:24,1,56,0|4,1:0|0:3,0:0:0:0:
264,16,54301,6,0,P|228:36|184:28,2,70,4|0|0,1:2|0:0|0:0,0:0:0:0:
354,40,54809,2,0,P|402:8|474:36,1,140,4|0,1:2|3:0,0:0:0:0:
480,48,55233,1,0,3:0:0:0:
487,61,55318,2,0,L|471:141,1,70,4|0,0:0|0:0,0:0:0:0:
416,204,55657,6,0,P|456:224|496:220,2,70,4|0|0,1:2|1:0|1:0,0:0:0:0:
344,144,56165,2,0,P|300:132|228:196,1,140,4|0,1:2|3:0,0:0:0:0:
140,208,56674,1,0,3:0:0:0:
138,190,56758,1,0,3:0:0:0:
136,173,56843,1,0,3:0:0:0:
134,155,56928,1,0,3:0:0:0:
132,138,57013,6,0,L|44:146,1,70,4|0,1:2|0:0,0:0:0:0:
52,52,57352,2,0,L|140:44,1,70,4|0,1:2|3:0,0:0:0:0:
121,45,57606,1,0,3:0:0:0:
121,45,57691,1,2,1:3:0:0:
132,138,57860,2,0,L|201:131,1,70,2|0,1:3|0:0,0:0:0:0:
287,95,58199,6,0,P|324:150|302:214,1,140,4|0,1:2|0:0,0:0:0:0:
208,208,58708,2,0,P|170:263|192:327,1,140,8|0,0:0|1:0,0:0:0:0:
272,376,59216,1,0,1:0:0:0:
274,282,59386,1,8,0:0:0:0:
353,330,59555,6,0,P|412:336|460:264,1,140,4|0,1:2|0:0,0:0:0:0:
472,188,60064,2,0,L|437:183,3,35,0|0|0|0,3:0|3:0|3:0|3:0,0:0:0:0:
420,156,60402,2,0,L|385:151,3,35,0|0|0|0,3:0|3:0|3:0|3:0,0:0:0:0:
368,124,60741,2,0,L|333:119,3,35,0|0|0|0,3:0|3:0|3:0|3:0,0:0:0:0:
300,140,61080,6,0,P|307:209|313:279,1,140,4|8,1:2|0:0,0:0:0:0:
216,288,61589,2,0,P|208:218|202:148,1,140,0|0,1:0|1:0,0:0:0:0:
244,60,62097,1,8,1:2:0:0:
155,18,62267,1,0,0:0:0:0:
112,106,62436,6,0,P|51:133|-7:101,1,140,0|8,1:0|0:0,0:0:0:0:
48,220,62945,2,0,P|109:247|168:215,1,140,0|0,1:0|1:0,0:0:0:0:
208,124,63453,1,12,1:2:0:0:
260,208,63623,1,0,3:0:0:0:
307,124,63792,6,0,P|377:135|446:139,1,140,4|8,1:2|0:0,0:0:0:0:
480,232,64301,2,0,P|410:236|341:247,1,140,0|0,1:0|1:0,0:0:0:0:
280,324,64809,1,8,1:2:0:0:
244,233,64978,1,0,0:0:0:0:
208,142,65148,6,0,L|220:64,1,70,0|0,1:0|3:0,0:0:0:0:
218,72,65402,1,0,3:0:0:0:
218,72,65487,1,8,3:2:0:0:
136,20,65657,2,0,L|109:179,1,140,4|0,1:2|1:0,0:0:0:0:
64,240,66165,2,0,L|-8:228,1,70,12|0,1:2|0:0,0:0:0:0:
112,158,66504,6,0,L|184:146,1,70,4|0,1:2|0:0,0:0:0:0:
220,236,66843,2,0,L|194:304,1,70,8|0,0:0|0:0,0:0:0:0:
268,368,67182,1,0,1:0:0:0:
312,280,67352,2,0,L|384:268,1,70,0|8,1:0|0:0,0:0:0:0:
376,172,67691,6,0,P|358:142|356:107,1,70,4|0,1:2|0:0,0:0:0:0:
428,40,68030,2,0,P|462:39|493:55,1,70,0|8,1:0|0:0,0:0:0:0:
504,152,68369,2,0,P|476:208|532:280,1,140,0|0,0:0|1:0,0:0:0:0:
464,356,68877,2,0,L|376:340,1,70,8|2,0:0|0:3,0:0:0:0:
332,272,69216,5,2,1:3:0:0:
332,272,69386,1,0,1:0:0:0:
296,364,69555,1,8,0:0:0:0:
232,288,69725,2,0,L|241:218,1,70,2|0,1:3|0:0,0:0:0:0:
144,208,70064,2,0,L|134:138,1,70,2|0,1:3|0:0,0:0:0:0:
188,56,70402,6,0,P|241:97|307:80,1,140,2|0,1:3|0:0,0:0:0:0:
408,72,70911,2,0,L|401:141,1,70,8|4,0:0|0:0,0:0:0:0:
496,172,71250,2,0,L|489:241,1,70,8|0,1:2|1:0,0:0:0:0:
408,296,71589,1,8,3:0:0:0:
395,283,71673,1,8,3:0:0:0:
380,275,71758,1,8,3:0:0:0:
363,271,71843,1,8,3:0:0:0:
344,271,71928,6,0,P|303:324|236:322,1,140,4|8,1:2|0:0,0:0:0:0:
184,240,72436,2,0,P|193:173|252:141,1,140,0|0,1:0|1:2,0:0:0:0:
348,164,72945,1,8,1:2:0:0:
370,68,73114,1,0,0:0:0:0:
274,45,73284,6,0,P|204:34|136:21,1,140,0|8,1:0|3:2,0:0:0:0:
36,108,73792,2,0,P|105:118|173:131,1,140,0|0,1:0|1:0,0:0:0:0:
256,188,74301,1,12,1:2:0:0:
166,231,74471,1,0,3:0:0:0:
247,286,74640,6,0,P|312:306|365:265,1,140,4|8,1:2|0:0,0:0:0:0:
372,168,75148,2,0,P|307:187|254:146,1,140,0|0,1:0|1:0,0:0:0:0:
192,72,75657,2,0,L|212:4,1,70,8|0,1:2|0:0,0:0:0:0:
308,16,75996,6,0,P|352:36|380:32,1,70,0|0,1:0|3:0,0:0:0:0:
372,34,76250,1,0,3:0:0:0:
372,34,76335,1,8,3:2:0:0:
420,120,76504,2,0,P|385:120|355:138,1,70,0|0,1:0|0:0,0:0:0:0:
300,220,76843,1,4,1:2:0:0:
248,136,77013,2,0,L|152:144,1,70,4|0,1:2|0:0,0:0:0:0:
112,216,77352,5,0,1:2:0:0:
112,216,77521,1,0,1:0:0:0:
192,276,77691,2,0,L|175:343,1,70,8|0,0:0|0:0,0:0:0:0:
272,380,78030,1,0,1:0:0:0:
272,380,78199,1,0,1:0:0:0:
316,292,78369,2,0,L|383:308,1,70,8|0,0:0|0:0,0:0:0:0:
480,328,78708,6,0,P|490:294|490:259,1,70,0|0,1:0|1:0,0:0:0:0:
464,164,79047,2,0,P|399:182|346:141,1,140,8|0,0:0|1:0,0:0:0:0:
396,56,79555,1,0,1:0:0:0:
312,4,79725,2,0,P|260:16|216:16,1,70,8|0,0:0|0:0,0:0:0:0:
152,0,80064,5,0,1:0:0:0:
152,0,80233,1,0,1:0:0:0:
76,64,80402,2,0,L|100:144,1,70,8|0,0:0|0:0,0:0:0:0:
192,100,80741,1,0,1:0:0:0:
192,100,80910,1,0,1:0:0:0:
268,164,81080,2,0,L|244:244,1,70,8|0,0:0|0:0,0:0:0:0:
156,272,81419,6,0,P|131:247|97:241,1,70,0|0,1:0|1:0,0:0:0:0:
96,340,81758,2,0,P|136:368|232:316,1,140,8|0,0:0|1:0,0:0:0:0:
256,252,82267,1,0,1:0:0:0:
348,284,82436,2,0,L|342:353,1,70,8|0,0:0|1:0,0:0:0:0:
342,353,82691,1,0,1:0:0:0:
342,353,82774,1,6,1:2:0:0:
96,188,83453,5,6,1:2:0:0:
361,58,84131,5,6,1:2:0:0:
265,199,84640,5,6,1:2:0:0:
265,199,84979,2,0,L|280:272,1,56,2|0,1:3|0:3,0:0:0:0:
304,340,85318,1,2,0:3:0:0:
380,291,85487,6,0,P|404:278|431:270,1,56,6|0,1:2|0:0,0:0:0:0:
476,192,85826,2,0,P|452:177|431:158,1,56,2|0,1:2|0:0,0:0:0:0:
341,158,86165,2,0,P|340:185|333:213,1,56,2|0,1:2|0:0,0:0:0:0:
236,168,86504,1,6,1:2:0:0:
256,192,86589,12,0,87521,0:0:0:0:
232,256,88199,6,0,L|248:332,1,70,2|0,1:2|0:0,0:0:0:0:
328,280,88538,2,0,L|401:304,1,70,0|0,1:2|0:0,0:0:0:0:
396,208,88877,2,0,L|453:156,1,70,2|0,1:2|0:0,0:0:0:0:
368,112,89216,2,0,L|351:36,1,70,0|0,1:2|0:0,0:0:0:0:
270,87,89555,6,0,P|235:91|201:82,1,70,2|0,1:2|0:0,0:0:0:0:
168,168,89894,2,0,P|134:159|99:162,1,70,0|0,1:2|0:0,0:0:0:0:
20,208,90233,1,2,1:2:0:0:
20,208,90403,1,0,0:0:0:0:
96,260,90572,2,0,L|84:332,1,70,0|0,1:2|0:0,0:0:0:0:
168,368,90911,6,0,P|198:351|233:346,1,70,2|0,1:2|0:0,0:0:0:0:
296,280,91249,2,0,P|265:263|230:258,1,70,0|0,1:2|0:0,0:0:0:0:
168,192,91589,2,0,P|198:175|233:170,1,70,2|0,1:2|0:0,0:0:0:0:
295,104,91928,2,0,P|264:87|229:82,1,70,0|0,1:2|0:0,0:0:0:0:
288,8,92267,6,0,L|357:1,1,70,2|0,1:2|0:0,0:0:0:0:
424,64,92606,2,0,L|464:120,1,70,0|0,1:2|0:0,0:0:0:0:
443,209,92945,2,0,L|414:272,1,70,2|0,1:2|0:0,0:0:0:0:
364,352,93284,1,0,1:2:0:0:
292,296,93453,6,0,P|244:248|256:182,1,140,4|0,1:2|0:0,0:0:0:0:
304,104,93962,2,0,L|371:124,1,70,8|0,0:0|0:0,0:0:0:0:
396,36,94301,2,0,L|328:15,1,70,0|0,1:0|1:0,0:0:0:0:
240,40,94640,1,8,0:0:0:0:
304,104,94809,6,0,P|320:152|248:220,1,140,4|0,1:2|0:0,0:0:0:0:
188,184,95318,1,8,0:0:0:0:
188,184,95487,1,0,0:0:0:0:
184,276,95657,2,0,P|180:310|171:344,1,70,0|0,1:0|1:0,0:0:0:0:
84,368,95996,1,8,0:0:0:0:
72,276,96165,6,0,P|64:220|64:104,1,140,4|0,1:2|0:0,0:0:0:0:
108,56,96674,2,0,L|176:68,1,70,8|0,0:0|0:0,0:0:0:0:
204,156,97013,2,0,L|272:144,1,70,0|0,1:0|1:0,0:0:0:0:
340,208,97352,1,8,0:0:0:0:
412,152,97521,6,0,P|434:89|388:32,1,140,4|0,1:2|0:0,0:0:0:0:
304,16,98030,2,0,P|288:60|264:76,1,70,12|0,0:0|0:0,0:0:0:0:
180,56,98369,1,0,1:0:0:0:
210,142,98538,1,0,1:0:0:0:
119,124,98708,1,8,0:0:0:0:
101,121,98792,1,0,0:0:0:0:
84,122,98877,1,0,0:0:0:0:
67,128,98962,1,0,0:0:0:0:
53,138,99047,6,0,L|72:228,1,70,0|0,1:0|1:0,0:0:0:0:
92,308,99386,1,12,0:0:0:0:
92,308,99725,6,0,L|183:317,1,70,0|0,1:0|1:0,0:0:0:0:
265,323,100064,1,12,0:0:0:0:
265,323,100402,6,0,L|302:239,1,70,0|0,1:0|1:0,0:0:0:0:
333,162,100741,1,12,0:0:0:0:
333,162,101080,6,0,L|264:100,1,70,0|0,1:0|1:0,0:0:0:0:
201,47,101419,1,12,0:0:0:0:
201,47,101758,6,0,L|192:96,3,35,4|0|0|0,3:2|3:0|3:0|3:0,0:0:0:0:
160,96,102097,2,0,L|151:145,3,35,0|0|0|0,3:0|3:0|3:0|3:0,0:0:0:0:
180,156,102436,2,0,L|171:205,3,35,0|0|0|0,3:0|3:0|3:0|3:0,0:0:0:0:
139,205,102775,2,0,L|130:254,3,35,0|0|0|0,3:0|3:0|3:0|3:0,0:0:0:0:
152,272,103114,6,0,P|88:248|36:292,1,140,0|0,1:0|0:0,0:0:0:0:
104,364,103623,1,4,1:3:0:0:
104,364,103708,1,4,1:3:0:0:
104,364,103792,1,4,1:2:0:0:
