osu file format v14

[General]
AudioFilename: audio.mp3
AudioLeadIn: 0
PreviewTime: 55216
Countdown: 1
SampleSet: Normal
StackLeniency: 0.4
Mode: 1
LetterboxInBreaks: 0
WidescreenStoryboard: 1

[Editor]
DistanceSpacing: 0.2
BeatDivisor: 4
GridSize: 32
TimelineZoom: 1.3

[Metadata]
Title:Yuriyurarararayuruyuri Daijiken
TitleUnicode:ゆりゆららららゆるゆり大事件
Artist:Pastel*Palettes
ArtistUnicode:Pastel*Palettes
Creator:Chitanda Eru
Version:Muzukashii
Source:バンドリ! ガールズバンドパーティ!
Tags:ゆるゆり anime op opening j-pop jpop video game videogame [r] ron yuruyuri yuru yuri nanamori chu gorakubu bandori japanese BanG Dream! PasuPare パスパレ Paspale パステルパレット ぱすてるぱれっと 丸山彩 Maruyama Aya 大和麻弥 Yamato Maya 若宮イヴ Wakamiya Eve 白鷺千聖 Shirasagi Chisato 氷川日菜 Hikawa Hina 前島亜美 Maeshima Ami 中上育美 Nakagami Ikumi 秦佐和子 Hata Sawako 上坂すみれ Uesaka Sumire 小澤亜李 Ozawa Ari
BeatmapID:3242656
BeatmapSetID:1587749

[Difficulty]
HPDrainRate:6
CircleSize:3.5
OverallDifficulty:5
ApproachRate:9.2
SliderMultiplier:1.4
SliderTickRate:1

[Events]
//Background and Video events
0,0,"awu.jpg",0,0
//Break Periods
//Storyboard Layer 0 (Background)
//Storyboard Layer 1 (Fail)
//Storyboard Layer 2 (Pass)
//Storyboard Layer 3 (Foreground)
//Storyboard Layer 4 (Overlay)
//Storyboard Sound Samples

[TimingPoints]
400,342.857142857143,4,1,0,80,1,8
3142,342.857142857143,4,1,0,80,1,0
3142,-100,4,1,0,80,0,0
14114,-100,4,1,0,80,0,0
29242,-100,4,1,0,70,0,0
30528,-100,4,1,0,80,0,0
30571,-100,4,1,0,80,0,0
41542,-100,4,1,0,80,0,0
41585,-100,4,1,0,70,0,0
51100,-100,4,1,0,80,0,0
51185,-100,4,1,0,70,0,0
52471,-100,4,1,0,80,0,0
52557,-100,4,1,0,70,0,0
53842,-100,4,1,0,80,0,0
53928,-100,4,1,0,70,0,0
55214,-100,4,1,0,80,0,0
55300,-100,4,1,0,70,0,0
56627,342.857142857143,4,1,0,90,1,1
56627,-100,4,1,0,90,0,1
78569,-100,4,1,0,90,0,0
86798,342.857142857143,4,1,0,90,1,0
86798,-100,4,1,0,90,0,0
86840,-100,4,1,0,80,0,0

[Colours]
Combo1 : 255,255,111
Combo2 : 128,255,255
Combo3 : 255,183,219

[HitObjects]
253,35,3142,5,4,0:0:0:0:
109,77,3485,1,8,0:0:0:0:
109,77,3657,1,0,0:0:0:0:
109,77,3999,1,0,0:0:0:0:
109,77,4171,1,8,0:0:0:0:
109,77,4342,1,0,0:0:0:0:
109,77,4685,1,0,0:0:0:0:
109,77,5199,1,8,0:0:0:0:
109,77,5371,1,8,0:0:0:0:
109,77,5542,1,0,0:0:0:0:
109,77,5714,1,0,0:0:0:0:
253,35,5885,1,12,0:0:0:0:
109,77,6228,1,0,0:0:0:0:
109,77,6399,1,8,0:0:0:0:
109,77,6742,1,8,0:0:0:0:
109,77,6914,1,0,0:0:0:0:
109,77,7085,1,8,0:0:0:0:
109,77,7428,1,8,0:0:0:0:
109,77,7942,1,0,0:0:0:0:
109,77,8114,1,0,0:0:0:0:
109,77,8285,1,8,0:0:0:0:
109,77,8457,1,8,0:0:0:0:
253,35,8628,1,4,0:0:0:0:
109,77,8971,1,8,0:0:0:0:
109,77,9142,1,0,0:0:0:0:
109,77,9485,1,0,0:0:0:0:
109,77,9657,1,8,0:0:0:0:
109,77,9828,1,0,0:0:0:0:
109,77,10171,1,0,0:0:0:0:
109,77,10685,1,8,0:0:0:0:
109,77,10857,1,8,0:0:0:0:
109,77,11028,1,0,0:0:0:0:
109,77,11199,1,8,0:0:0:0:
253,35,11371,1,4,0:0:0:0:
109,77,11714,1,8,0:0:0:0:
253,35,12057,1,4,0:0:0:0:
109,77,12228,1,8,0:0:0:0:
253,35,12571,1,12,0:0:0:0:
109,77,13085,1,0,0:0:0:0:
109,77,13428,1,0,0:0:0:0:
109,77,13599,1,0,0:0:0:0:
109,77,13771,1,8,0:0:0:0:
109,77,13857,1,8,0:0:0:0:
109,77,13942,1,8,0:0:0:0:
253,35,14114,1,4,0:0:0:0:
109,77,14457,1,0,0:0:0:0:
109,77,14628,1,0,0:0:0:0:
109,77,14799,1,8,0:0:0:0:
109,77,14971,1,0,0:0:0:0:
109,77,15142,1,8,0:0:0:0:
109,77,15485,1,0,0:0:0:0:
109,77,15828,1,8,0:0:0:0:
109,77,15999,1,8,0:0:0:0:
109,77,16171,1,0,0:0:0:0:
109,77,16342,1,8,0:0:0:0:
109,77,16514,1,0,0:0:0:0:
109,77,16685,1,8,0:0:0:0:
109,77,16771,1,8,0:0:0:0:
109,77,16857,1,8,0:0:0:0:
109,77,17028,1,0,0:0:0:0:
109,77,17371,1,8,0:0:0:0:
109,77,17457,1,8,0:0:0:0:
109,77,17542,1,8,0:0:0:0:
109,77,17714,1,0,0:0:0:0:
109,77,18057,1,0,0:0:0:0:
109,77,18228,1,8,0:0:0:0:
109,77,18399,1,0,0:0:0:0:
109,77,18571,1,0,0:0:0:0:
109,77,18914,1,8,0:0:0:0:
253,35,19599,1,12,0:0:0:0:
109,77,19942,1,8,0:0:0:0:
109,77,20114,1,8,0:0:0:0:
109,77,20285,1,0,0:0:0:0:
109,77,20457,1,8,0:0:0:0:
109,77,20628,1,0,0:0:0:0:
109,77,20971,1,8,0:0:0:0:
109,77,21314,1,0,0:0:0:0:
109,77,21485,1,0,0:0:0:0:
109,77,21657,1,8,0:0:0:0:
109,77,21828,1,0,0:0:0:0:
109,77,21999,1,8,0:0:0:0:
109,77,22171,1,0,0:0:0:0:
109,77,22257,1,0,0:0:0:0:
109,77,22342,1,0,0:0:0:0:
109,77,22514,1,8,0:0:0:0:
109,77,22857,1,0,0:0:0:0:
109,77,22942,1,0,0:0:0:0:
109,77,23028,1,0,0:0:0:0:
109,77,23199,1,8,0:0:0:0:
109,77,23542,1,0,0:0:0:0:
109,77,23714,1,0,0:0:0:0:
109,77,23885,1,8,0:0:0:0:
109,77,24057,1,8,0:0:0:0:
109,77,24399,1,0,0:0:0:0:
251,37,25085,1,12,0:0:0:0:
109,77,25257,1,0,0:0:0:0:
109,77,25428,1,8,0:0:0:0:
251,37,25599,1,4,0:0:0:0:
109,77,26114,1,0,0:0:0:0:
251,37,26457,1,12,0:0:0:0:
109,77,26628,1,0,0:0:0:0:
109,77,26799,1,8,0:0:0:0:
251,37,26971,1,4,0:0:0:0:
109,77,27485,1,0,0:0:0:0:
251,37,27828,1,12,0:0:0:0:
109,77,27999,1,0,0:0:0:0:
109,77,28171,1,8,0:0:0:0:
109,77,28342,1,8,0:0:0:0:
109,77,28514,1,0,0:0:0:0:
109,77,28685,1,8,0:0:0:0:
109,77,28857,1,0,0:0:0:0:
109,77,28942,1,0,0:0:0:0:
109,77,29028,1,0,0:0:0:0:
251,37,29199,1,8,0:0:0:0:
109,77,30057,1,0,0:0:0:0:
109,77,30228,1,8,0:0:0:0:
251,37,30571,1,4,0:0:0:0:
109,77,30914,1,0,0:0:0:0:
109,77,31085,1,0,0:0:0:0:
109,77,31257,1,8,0:0:0:0:
109,77,31428,1,8,0:0:0:0:
109,77,31771,1,0,0:0:0:0:
109,77,31942,1,8,0:0:0:0:
109,77,32114,1,0,0:0:0:0:
109,77,32285,1,8,0:0:0:0:
109,77,32457,1,8,0:0:0:0:
109,77,32799,1,0,0:0:0:0:
109,77,32971,1,8,0:0:0:0:
109,77,33314,1,0,0:0:0:0:
109,77,33485,1,0,0:0:0:0:
109,77,33657,1,8,0:0:0:0:
109,77,33999,1,8,0:0:0:0:
109,77,34171,1,0,0:0:0:0:
109,77,34342,1,8,0:0:0:0:
109,77,34685,1,0,0:0:0:0:
109,77,34857,1,8,0:0:0:0:
109,77,35028,1,0,0:0:0:0:
109,77,35199,1,0,0:0:0:0:
251,37,36057,1,12,0:0:0:0:
109,77,36399,1,8,0:0:0:0:
109,77,36571,1,8,0:0:0:0:
109,77,36742,1,0,0:0:0:0:
109,77,36914,1,0,0:0:0:0:
109,77,37257,1,8,0:0:0:0:
109,77,37428,1,0,0:0:0:0:
109,77,37599,1,8,0:0:0:0:
109,77,37771,1,0,0:0:0:0:
109,77,37942,1,0,0:0:0:0:
109,77,38285,1,8,0:0:0:0:
109,77,38457,1,0,0:0:0:0:
109,77,38799,1,8,0:0:0:0:
109,77,38971,1,8,0:0:0:0:
109,77,39142,1,0,0:0:0:0:
109,77,39485,1,0,0:0:0:0:
109,77,39657,1,8,0:0:0:0:
109,77,39828,1,0,0:0:0:0:
109,77,40171,1,8,0:0:0:0:
109,77,40342,1,0,0:0:0:0:
109,77,40514,1,8,0:0:0:0:
109,77,40685,1,8,0:0:0:0:
251,37,41542,1,4,0:0:0:0:
109,77,41885,1,8,0:0:0:0:
109,77,42057,1,8,0:0:0:0:
109,77,42228,1,0,0:0:0:0:
109,77,42571,1,8,0:0:0:0:
109,77,42914,1,0,0:0:0:0:
109,77,43085,1,0,0:0:0:0:
109,77,43257,1,8,0:0:0:0:
109,77,43428,1,8,0:0:0:0:
109,77,43599,1,0,0:0:0:0:
109,77,44285,1,0,0:0:0:0:
109,77,44628,1,8,0:0:0:0:
109,77,44799,1,8,0:0:0:0:
109,77,44971,1,0,0:0:0:0:
109,77,45314,1,8,0:0:0:0:
109,77,45657,1,0,0:0:0:0:
109,77,45828,1,0,0:0:0:0:
109,77,45999,1,8,0:0:0:0:
109,77,46171,1,8,0:0:0:0:
109,77,46342,1,0,0:0:0:0:
109,77,47028,1,0,0:0:0:0:
109,77,47371,1,0,0:0:0:0:
109,77,47542,1,0,0:0:0:0:
109,77,47714,1,8,0:0:0:0:
109,77,48057,1,8,0:0:0:0:
109,77,48399,1,8,0:0:0:0:
109,77,48571,1,0,0:0:0:0:
109,77,48742,1,8,0:0:0:0:
109,77,48914,1,8,0:0:0:0:
109,77,49085,1,0,0:0:0:0:
109,77,49428,1,8,0:0:0:0:
109,77,49771,1,8,0:0:0:0:
109,77,49857,1,8,0:0:0:0:
109,77,49942,1,8,0:0:0:0:
109,77,50114,1,0,0:0:0:0:
109,77,50285,1,0,0:0:0:0:
109,77,50371,1,0,0:0:0:0:
109,77,50457,1,0,0:0:0:0:
109,77,50628,1,0,0:0:0:0:
109,77,50799,1,8,0:0:0:0:
109,77,50971,1,0,0:0:0:0:
253,35,51142,1,12,0:0:0:0:
109,77,51485,1,0,0:0:0:0:
109,77,51657,1,8,0:0:0:0:
253,35,52514,1,4,0:0:0:0:
109,77,52857,1,0,0:0:0:0:
109,77,53199,1,8,0:0:0:0:
109,77,53542,1,0,0:0:0:0:
249,35,53885,1,12,0:0:0:0:
109,77,54228,1,8,0:0:0:0:
109,77,54399,1,0,0:0:0:0:
249,35,55257,1,4,0:0:0:0:
109,77,55771,1,0,0:0:0:0:
109,77,56114,1,0,0:0:0:0:
109,77,56285,1,8,0:0:0:0:
109,77,56457,1,8,0:0:0:0:
249,35,56627,1,4,0:0:0:0:
109,77,56970,1,0,0:0:0:0:
109,77,57142,1,8,0:0:0:0:
109,77,57313,1,0,0:0:0:0:
109,77,57484,1,0,0:0:0:0:
109,77,57656,1,8,0:0:0:0:
109,77,57827,1,0,0:0:0:0:
109,77,57999,1,8,0:0:0:0:
109,77,58342,1,0,0:0:0:0:
109,77,58513,1,0,0:0:0:0:
109,77,58856,1,8,0:0:0:0:
109,77,59027,1,0,0:0:0:0:
109,77,59199,1,0,0:0:0:0:
109,77,59370,1,8,0:0:0:0:
109,77,59713,1,0,0:0:0:0:
109,77,59884,1,0,0:0:0:0:
109,77,60056,1,8,0:0:0:0:
109,77,60227,1,0,0:0:0:0:
109,77,60399,1,0,0:0:0:0:
109,77,60570,1,8,0:0:0:0:
109,77,60742,1,0,0:0:0:0:
109,77,61427,1,8,0:0:0:0:
109,77,61599,1,0,0:0:0:0:
109,77,61770,1,8,0:0:0:0:
109,77,61856,1,8,0:0:0:0:
109,77,61942,1,8,0:0:0:0:
109,77,62113,1,0,0:0:0:0:
109,77,62456,1,0,0:0:0:0:
109,77,62627,1,0,0:0:0:0:
109,77,62799,1,8,0:0:0:0:
109,77,63142,1,0,0:0:0:0:
109,77,63313,1,8,0:0:0:0:
109,77,63484,1,0,0:0:0:0:
109,77,63827,1,0,0:0:0:0:
109,77,63999,1,0,0:0:0:0:
109,77,64170,1,8,0:0:0:0:
109,77,64342,1,0,0:0:0:0:
109,77,64513,1,8,0:0:0:0:
109,77,64856,1,0,0:0:0:0:
109,77,65027,1,8,0:0:0:0:
109,77,65199,1,0,0:0:0:0:
109,77,65370,1,8,0:0:0:0:
109,77,65884,1,8,0:0:0:0:
109,77,66227,1,0,0:0:0:0:
109,77,66399,1,8,0:0:0:0:
109,77,66570,1,0,0:0:0:0:
109,77,66742,1,8,0:0:0:0:
109,77,66913,1,0,0:0:0:0:
109,77,67084,1,0,0:0:0:0:
109,77,67256,1,0,0:0:0:0:
109,77,67342,1,0,0:0:0:0:
109,77,67427,1,0,0:0:0:0:
249,35,67599,1,12,0:0:0:0:
109,77,67942,1,8,0:0:0:0:
109,77,68113,1,0,0:0:0:0:
109,77,68284,1,8,0:0:0:0:
109,77,68456,1,8,0:0:0:0:
109,77,68627,1,0,0:0:0:0:
109,77,68799,1,8,0:0:0:0:
109,77,68970,1,0,0:0:0:0:
109,77,69313,1,8,0:0:0:0:
109,77,69484,1,8,0:0:0:0:
109,77,69827,1,0,0:0:0:0:
109,77,69999,1,8,0:0:0:0:
109,77,70170,1,8,0:0:0:0:
109,77,70342,1,0,0:0:0:0:
109,77,70684,1,8,0:0:0:0:
109,77,70856,1,8,0:0:0:0:
109,77,71027,1,0,0:0:0:0:
109,77,71199,1,8,0:0:0:0:
109,77,71370,1,8,0:0:0:0:
109,77,71542,1,0,0:0:0:0:
109,77,71713,1,8,0:0:0:0:
109,77,72399,1,0,0:0:0:0:
109,77,72570,1,8,0:0:0:0:
109,77,72742,1,0,0:0:0:0:
109,77,72827,1,0,0:0:0:0:
109,77,72913,1,0,0:0:0:0:
109,77,73084,1,8,0:0:0:0:
109,77,73427,1,8,0:0:0:0:
109,77,73599,1,8,0:0:0:0:
109,77,73770,1,0,0:0:0:0:
109,77,74113,1,8,0:0:0:0:
109,77,74284,1,0,0:0:0:0:
109,77,74456,1,8,0:0:0:0:
109,77,74799,1,8,0:0:0:0:
109,77,74970,1,8,0:0:0:0:
109,77,75142,1,0,0:0:0:0:
109,77,75313,1,8,0:0:0:0:
109,77,75484,1,0,0:0:0:0:
109,77,75827,1,8,0:0:0:0:
109,77,75999,1,0,0:0:0:0:
109,77,76170,1,8,0:0:0:0:
109,77,76342,1,0,0:0:0:0:
109,77,76856,1,0,0:0:0:0:
109,77,77199,1,8,0:0:0:0:
109,77,77370,1,0,0:0:0:0:
109,77,77542,1,8,0:0:0:0:
109,77,77713,1,0,0:0:0:0:
109,77,77884,1,8,0:0:0:0:
109,77,78056,1,8,0:0:0:0:
109,77,78227,1,8,0:0:0:0:
109,77,78313,1,8,0:0:0:0:
109,77,78399,1,8,0:0:0:0:
249,35,78570,1,4,0:0:0:0:
249,35,78913,1,8,0:0:0:0:
109,77,79256,1,8,0:0:0:0:
249,35,79599,1,8,0:0:0:0:
249,35,79942,1,4,0:0:0:0:
109,77,80627,1,0,0:0:0:0:
109,77,80799,1,8,0:0:0:0:
109,77,80970,1,0,0:0:0:0:
249,35,81313,1,12,0:0:0:0:
249,35,81656,1,0,0:0:0:0:
109,77,81999,1,0,0:0:0:0:
249,35,82342,1,0,0:0:0:0:
249,35,82684,1,12,0:0:0:0:
109,77,83370,1,8,0:0:0:0:
109,77,83542,1,0,0:0:0:0:
109,77,83713,1,8,0:0:0:0:
249,35,84056,1,4,0:0:0:0:
249,35,84399,1,0,0:0:0:0:
109,77,84742,1,8,0:0:0:0:
249,35,85084,1,8,0:0:0:0:
249,35,85427,1,12,0:0:0:0:
109,77,86113,1,0,0:0:0:0:
109,77,86284,1,8,0:0:0:0:
109,77,86456,1,0,0:0:0:0:
253,35,86798,1,4,0:0:0:0:
109,77,87141,1,8,0:0:0:0:
109,77,87313,1,0,0:0:0:0:
109,77,87655,1,0,0:0:0:0:
109,77,87827,1,8,0:0:0:0:
109,77,87998,1,0,0:0:0:0:
109,77,88341,1,0,0:0:0:0:
109,77,88855,1,8,0:0:0:0:
109,77,89027,1,8,0:0:0:0:
109,77,89198,1,0,0:0:0:0:
109,77,89370,1,0,0:0:0:0:
253,35,89541,1,12,0:0:0:0:
109,77,89884,1,0,0:0:0:0:
109,77,90055,1,8,0:0:0:0:
109,77,90398,1,8,0:0:0:0:
109,77,90570,1,0,0:0:0:0:
109,77,90741,1,8,0:0:0:0:
109,77,91084,1,8,0:0:0:0:
109,77,91598,1,0,0:0:0:0:
109,77,91770,1,0,0:0:0:0:
109,77,91941,1,8,0:0:0:0:
109,77,92113,1,8,0:0:0:0:
253,35,92284,1,4,0:0:0:0:
109,77,92627,1,8,0:0:0:0:
109,77,92798,1,0,0:0:0:0:
109,77,93141,1,0,0:0:0:0:
109,77,93313,1,8,0:0:0:0:
109,77,93484,1,0,0:0:0:0:
109,77,93827,1,0,0:0:0:0:
109,77,94341,1,8,0:0:0:0:
109,77,94513,1,8,0:0:0:0:
109,77,94684,1,0,0:0:0:0:
109,77,94855,1,8,0:0:0:0:
253,35,95027,1,4,0:0:0:0:
109,77,95370,1,8,0:0:0:0:
253,35,95713,1,4,0:0:0:0:
109,77,95884,1,8,0:0:0:0:
253,35,96227,1,4,0:0:0:0:
109,77,96398,1,0,0:0:0:0:
109,77,96570,1,8,0:0:0:0:
109,77,96741,1,8,0:0:0:0:
109,77,96913,1,0,0:0:0:0:
253,35,97427,1,12,0:0:0:0:
