osu file format v14

[General]
AudioFilename: audio.mp3
AudioLeadIn: 0
PreviewTime: 55216
Countdown: 1
SampleSet: Normal
StackLeniency: 0.4
Mode: 1
LetterboxInBreaks: 0
WidescreenStoryboard: 1

[Editor]
DistanceSpacing: 0.2
BeatDivisor: 4
GridSize: 32
TimelineZoom: 1.3

[Metadata]
Title:Yuriyurarararayuruyuri Daijiken
TitleUnicode:ゆりゆららららゆるゆり大事件
Artist:Pastel*Palettes
ArtistUnicode:Pastel*Palettes
Creator:Chitanda Eru
Version:Kantan
Source:バンドリ! ガールズバンドパーティ!
Tags:ゆるゆり anime op opening j-pop jpop video game videogame [r] ron yuruyuri yuru yuri nanamori chu gorakubu bandori japanese BanG Dream! PasuPare パスパレ Paspale パステルパレット ぱすてるぱれっと 丸山彩 Maruyama Aya 大和麻弥 Yamato Maya 若宮イヴ Wakamiya Eve 白鷺千聖 Shirasagi Chisato 氷川日菜 Hikawa Hina 前島亜美 Maeshima Ami 中上育美 Nakagami Ikumi 秦佐和子 Hata Sawako 上坂すみれ Uesaka Sumire 小澤亜李 Ozawa Ari
BeatmapID:3242655
BeatmapSetID:1587749

[Difficulty]
HPDrainRate:8
CircleSize:3.5
OverallDifficulty:3
ApproachRate:9.2
SliderMultiplier:1.4
SliderTickRate:1

[Events]
//Background and Video events
0,0,"awu.jpg",0,0
//Break Periods
//Storyboard Layer 0 (Background)
//Storyboard Layer 1 (Fail)
//Storyboard Layer 2 (Pass)
//Storyboard Layer 3 (Foreground)
//Storyboard Layer 4 (Overlay)
//Storyboard Sound Samples

[TimingPoints]
400,342.857142857143,4,1,0,80,1,8
3142,342.857142857143,4,1,0,80,1,0
3142,-100,4,1,0,80,0,0
14114,-100,4,1,0,80,0,0
29242,-100,4,1,0,70,0,0
30528,-100,4,1,0,80,0,0
30571,-100,4,1,0,80,0,0
41542,-100,4,1,0,80,0,0
41585,-100,4,1,0,70,0,0
51100,-100,4,1,0,80,0,0
51185,-100,4,1,0,70,0,0
52471,-100,4,1,0,80,0,0
52557,-100,4,1,0,70,0,0
53842,-100,4,1,0,80,0,0
53928,-100,4,1,0,70,0,0
55214,-100,4,1,0,80,0,0
55300,-100,4,1,0,70,0,0
56627,342.857142857143,4,1,0,90,1,1
56627,-100,4,1,0,90,0,1
78569,-100,4,1,0,90,0,0
86798,342.857142857143,4,1,0,90,1,0
86798,-100,4,1,0,90,0,0
86840,-100,4,1,0,80,0,0

[Colours]
Combo1 : 255,255,111
Combo2 : 128,255,255
Combo3 : 255,183,219

[HitObjects]
253,35,3142,5,4,0:0:0:0:
109,77,4514,1,0,0:0:0:0:
109,77,5199,1,0,0:0:0:0:
253,35,5885,1,12,0:0:0:0:
109,77,7257,1,8,0:0:0:0:
109,77,7942,1,8,0:0:0:0:
253,35,8628,1,4,0:0:0:0:
109,77,9999,1,0,0:0:0:0:
109,77,10685,1,0,0:0:0:0:
253,35,11371,1,4,0:0:0:0:
253,35,12057,1,4,0:0:0:0:
253,35,12571,1,12,0:0:0:0:
253,35,14114,1,4,0:0:0:0:
109,77,14799,1,8,0:0:0:0:
109,77,15142,1,8,0:0:0:0:
109,77,15485,1,0,0:0:0:0:
109,77,16171,1,0,0:0:0:0:
109,77,16514,1,0,0:0:0:0:
109,77,16857,1,8,0:0:0:0:
109,77,17542,1,8,0:0:0:0:
109,77,18228,1,8,0:0:0:0:
253,35,19599,1,12,0:0:0:0:
109,77,20285,1,0,0:0:0:0:
109,77,20628,1,0,0:0:0:0:
109,77,20971,1,8,0:0:0:0:
109,77,21657,1,8,0:0:0:0:
109,77,21999,1,8,0:0:0:0:
109,77,22342,1,0,0:0:0:0:
109,77,23028,1,0,0:0:0:0:
109,77,23714,1,0,0:0:0:0:
251,37,25085,1,12,0:0:0:0:
251,37,25599,1,4,0:0:0:0:
251,37,26457,1,12,0:0:0:0:
251,37,26971,1,4,0:0:0:0:
251,37,27828,1,12,0:0:0:0:
109,77,28514,1,0,0:0:0:0:
109,77,28857,1,0,0:0:0:0:
251,37,29199,1,8,0:0:0:0:
251,37,30571,1,4,0:0:0:0:
109,77,31257,1,8,0:0:0:0:
109,77,31942,1,0,0:0:0:0:
109,77,32457,1,8,0:0:0:0:
109,77,33314,1,0,0:0:0:0:
109,77,33999,1,0,0:0:0:0:
109,77,34342,1,0,0:0:0:0:
109,77,34685,1,8,0:0:0:0:
251,37,36057,1,12,0:0:0:0:
109,77,36742,1,0,0:0:0:0:
109,77,37428,1,8,0:0:0:0:
109,77,37942,1,0,0:0:0:0:
109,77,38799,1,8,0:0:0:0:
109,77,39485,1,8,0:0:0:0:
109,77,39828,1,8,0:0:0:0:
109,77,40171,1,0,0:0:0:0:
251,37,41542,1,4,0:0:0:0:
109,77,42571,1,8,0:0:0:0:
109,77,42914,1,0,0:0:0:0:
109,77,43428,1,0,0:0:0:0:
109,77,44285,1,8,0:0:0:0:
109,77,45314,1,0,0:0:0:0:
109,77,45657,1,8,0:0:0:0:
109,77,46171,1,8,0:0:0:0:
109,77,47028,1,0,0:0:0:0:
109,77,48399,1,8,0:0:0:0:
109,77,48914,1,0,0:0:0:0:
109,77,49771,1,8,0:0:0:0:
109,77,50114,1,0,0:0:0:0:
109,77,50457,1,0,0:0:0:0:
109,77,50799,1,0,0:0:0:0:
253,35,51142,1,12,0:0:0:0:
253,35,52514,1,4,0:0:0:0:
249,35,53885,1,12,0:0:0:0:
249,35,55257,1,4,0:0:0:0:
249,35,56627,1,4,0:0:0:0:
109,77,57313,1,0,0:0:0:0:
109,77,57656,1,0,0:0:0:0:
109,77,57999,1,8,0:0:0:0:
109,77,58684,1,8,0:0:0:0:
109,77,59027,1,0,0:0:0:0:
109,77,59370,1,8,0:0:0:0:
109,77,60056,1,8,0:0:0:0:
109,77,60399,1,0,0:0:0:0:
109,77,60742,1,8,0:0:0:0:
109,77,61427,1,8,0:0:0:0:
109,77,61770,1,8,0:0:0:0:
109,77,62113,1,0,0:0:0:0:
109,77,62799,1,8,0:0:0:0:
109,77,63484,1,0,0:0:0:0:
109,77,63827,1,0,0:0:0:0:
109,77,64170,1,8,0:0:0:0:
109,77,64513,1,8,0:0:0:0:
109,77,64856,1,0,0:0:0:0:
109,77,66227,1,0,0:0:0:0:
249,35,67599,1,12,0:0:0:0:
109,77,68284,1,8,0:0:0:0:
109,77,68627,1,8,0:0:0:0:
109,77,68970,1,0,0:0:0:0:
109,77,69656,1,0,0:0:0:0:
109,77,69999,1,8,0:0:0:0:
109,77,70342,1,0,0:0:0:0:
109,77,71027,1,0,0:0:0:0:
109,77,71370,1,8,0:0:0:0:
109,77,71713,1,0,0:0:0:0:
109,77,72399,1,0,0:0:0:0:
109,77,72742,1,0,0:0:0:0:
109,77,73084,1,8,0:0:0:0:
109,77,73770,1,0,0:0:0:0:
109,77,74456,1,8,0:0:0:0:
109,77,74799,1,8,0:0:0:0:
109,77,75142,1,0,0:0:0:0:
109,77,75484,1,0,0:0:0:0:
109,77,75827,1,8,0:0:0:0:
109,77,77199,1,8,0:0:0:0:
249,35,78570,1,4,0:0:0:0:
249,35,79942,1,4,0:0:0:0:
249,35,81313,1,12,0:0:0:0:
249,35,82684,1,12,0:0:0:0:
249,35,84056,1,4,0:0:0:0:
249,35,85427,1,12,0:0:0:0:
253,35,86798,5,4,0:0:0:0:
109,77,88170,1,0,0:0:0:0:
109,77,88855,1,0,0:0:0:0:
253,35,89541,1,12,0:0:0:0:
109,77,90913,1,8,0:0:0:0:
109,77,91598,1,8,0:0:0:0:
253,35,92284,1,4,0:0:0:0:
109,77,93655,1,0,0:0:0:0:
109,77,94341,1,0,0:0:0:0:
253,35,95027,1,4,0:0:0:0:
253,35,95713,1,4,0:0:0:0:
253,35,96227,1,12,0:0:0:0:
253,35,97427,5,12,0:0:0:0:
