osu file format v14

[General]
AudioFilename: audio.mp3
AudioLeadIn: 0
PreviewTime: 41855
Countdown: 0
SampleSet: None
StackLeniency: 0.7
Mode: 1
LetterboxInBreaks: 0
UseSkinSprites: 1
WidescreenStoryboard: 1

[Editor]
DistanceSpacing: 0.6
BeatDivisor: 3
GridSize: 32
TimelineZoom: 1.8

[Metadata]
Title:Tokimeki Poporon
TitleUnicode:ときめきポポロン♪
Artist:Pastel*Palettes
ArtistUnicode:パステル パレット
Creator:Jerry
Version:Oni
Source:バンドリ! ガールズバンドパーティ!
Tags:cdhsausageboy BanG Dream! Girls Band Party! bandori ガルパ garupa ご注文はうさぎですか?? Gochuumon wa Usagi desu ka?? gochiusa is the order a rabit?? ending ed tv size season 2 ごちうさ チマメ隊 chimame tai 香風 智乃 Kafuu Chino 水瀬 いのり Minase Inori 条河 麻耶 Jouga Maya 徳井 青空 Tokui Sora 奈津 恵 Natsu Megumi 村川 梨衣 Murakawa Rie 若宮イヴ 丸山彩 氷川日菜 白鷺千聖 大和麻弥 Maruyama Aya Hikawa Hina Shirasagi Chisato Yamato Maya Wakamiya Eve pasupare パスパレ
BeatmapID:2034638
BeatmapSetID:971785

[Difficulty]
HPDrainRate:5
CircleSize:5
OverallDifficulty:6
ApproachRate:5
SliderMultiplier:1.4
SliderTickRate:1

[Events]
//Background and Video events
0,0,"tokimekiBG.jpg",0,155
//Break Periods
//Storyboard Layer 0 (Background)
//Storyboard Layer 1 (Fail)
//Storyboard Layer 2 (Pass)
//Storyboard Layer 3 (Foreground)
//Storyboard Sound Samples

[TimingPoints]
208,352.941176470588,4,1,0,50,1,0
42560,-100,4,1,0,50,0,1
63619,-100,4,1,0,50,0,0
65149,-100,4,1,0,50,0,1
86325,-100,4,1,0,50,0,0

[HitObjects]
256,192,208,5,4,0:0:0:0:
256,192,913,1,12,0:0:0:0:
256,192,1619,1,4,0:0:0:0:
256,192,1972,1,8,0:0:0:0:
256,192,2325,1,8,0:0:0:0:
256,192,2678,1,0,0:0:0:0:
256,192,3031,1,4,0:0:0:0:
256,192,5855,1,8,0:0:0:0:
256,192,6090,1,8,0:0:0:0:
256,192,6207,1,8,0:0:0:0:
256,192,6443,1,0,0:0:0:0:
256,192,6560,1,8,0:0:0:0:
256,192,6796,1,8,0:0:0:0:
256,192,6913,1,8,0:0:0:0:
256,192,7149,1,0,0:0:0:0:
256,192,7502,1,8,0:0:0:0:
256,192,7619,1,8,0:0:0:0:
256,192,7855,1,8,0:0:0:0:
256,192,8207,1,8,0:0:0:0:
256,192,8325,1,0,0:0:0:0:
256,192,8678,1,0,0:0:0:0:
256,192,8913,1,8,0:0:0:0:
256,192,9031,1,8,0:0:0:0:
256,192,9266,1,0,0:0:0:0:
256,192,9619,1,8,0:0:0:0:
256,192,9737,1,8,0:0:0:0:
256,192,9972,1,8,0:0:0:0:
256,192,11502,1,0,0:0:0:0:
256,192,11737,1,0,0:0:0:0:
256,192,11855,1,8,0:0:0:0:
256,192,12090,1,0,0:0:0:0:
256,192,12443,1,8,0:0:0:0:
256,192,12560,1,0,0:0:0:0:
256,192,12796,1,8,0:0:0:0:
256,192,13149,1,8,0:0:0:0:
256,192,13266,1,8,0:0:0:0:
256,192,13502,1,8,0:0:0:0:
256,192,13619,1,0,0:0:0:0:
256,192,13855,1,0,0:0:0:0:
256,192,13972,1,8,0:0:0:0:
256,192,14325,1,8,0:0:0:0:
256,192,14560,1,0,0:0:0:0:
256,192,14678,1,8,0:0:0:0:
256,192,14913,1,8,0:0:0:0:
256,192,15031,1,0,0:0:0:0:
256,192,15266,1,8,0:0:0:0:
256,192,15384,1,8,0:0:0:0:
256,192,15619,1,8,0:0:0:0:
256,192,17149,1,0,0:0:0:0:
256,192,17384,1,0,0:0:0:0:
256,192,17502,1,8,0:0:0:0:
256,192,17737,1,8,0:0:0:0:
256,192,17855,1,0,0:0:0:0:
256,192,18090,1,0,0:0:0:0:
256,192,18207,1,8,0:0:0:0:
256,192,18443,1,8,0:0:0:0:
256,192,18796,1,8,0:0:0:0:
256,192,18913,1,8,0:0:0:0:
256,192,19266,1,8,0:0:0:0:
256,192,19502,1,8,0:0:0:0:
256,192,19619,1,8,0:0:0:0:
256,192,19972,1,0,0:0:0:0:
256,192,20325,1,8,0:0:0:0:
256,192,20560,1,0,0:0:0:0:
256,192,20678,1,0,0:0:0:0:
256,192,20913,1,8,0:0:0:0:
256,192,21031,1,8,0:0:0:0:
256,192,21266,1,0,0:0:0:0:
256,192,22090,1,0,0:0:0:0:
256,192,22207,1,0,0:0:0:0:
256,192,22325,1,0,0:0:0:0:
256,192,22443,1,0,0:0:0:0:
256,192,22796,1,4,0:0:0:0:
256,192,23384,1,4,0:0:0:0:
256,192,24090,1,4,0:0:0:0:
256,192,24560,1,0,0:0:0:0:
256,192,24913,1,8,0:0:0:0:
256,192,25149,1,0,0:0:0:0:
256,192,25266,1,0,0:0:0:0:
256,192,25502,1,8,0:0:0:0:
256,192,25619,1,8,0:0:0:0:
256,192,25972,5,8,0:0:0:0:
256,192,26325,1,0,0:0:0:0:
256,192,26560,1,8,0:0:0:0:
256,192,26678,1,8,0:0:0:0:
256,192,26913,1,0,0:0:0:0:
256,192,27266,1,0,0:0:0:0:
256,192,27384,1,0,0:0:0:0:
256,192,28443,5,4,0:0:0:0:
256,192,28796,1,8,0:0:0:0:
256,192,29149,1,0,0:0:0:0:
256,192,29502,1,8,0:0:0:0:
256,192,29737,1,0,0:0:0:0:
256,192,30207,1,8,0:0:0:0:
256,192,30560,1,0,0:0:0:0:
256,192,30913,1,8,0:0:0:0:
256,192,31266,1,8,0:0:0:0:
256,192,31619,1,0,0:0:0:0:
256,192,31972,1,8,0:0:0:0:
256,192,32207,1,0,0:0:0:0:
256,192,32560,1,8,0:0:0:0:
256,192,33031,1,0,0:0:0:0:
256,192,33384,1,8,0:0:0:0:
256,192,33737,1,8,0:0:0:0:
256,192,34090,1,0,0:0:0:0:
256,192,34796,1,8,0:0:0:0:
256,192,35384,12,0,36090,0:0:0:0:
256,192,36207,5,8,0:0:0:0:
256,192,36325,1,8,0:0:0:0:
256,192,36443,1,8,0:0:0:0:
256,192,36560,1,8,0:0:0:0:
256,192,36678,1,8,0:0:0:0:
256,192,36796,1,8,0:0:0:0:
256,192,36913,5,0,0:0:0:0:
256,192,37266,1,12,0:0:0:0:
256,192,37619,1,0,0:0:0:0:
256,192,37972,1,12,0:0:0:0:
256,192,38325,1,0,0:0:0:0:
256,192,38678,1,12,0:0:0:0:
256,192,39031,1,0,0:0:0:0:
256,192,39384,1,12,0:0:0:0:
256,192,39737,1,0,0:0:0:0:
256,192,40090,1,8,0:0:0:0:
256,192,40443,1,8,0:0:0:0:
256,192,40678,1,0,0:0:0:0:
256,192,41031,1,12,0:0:0:0:
256,192,41384,1,12,0:0:0:0:
256,192,41502,1,12,0:0:0:0:
256,192,41855,1,8,0:0:0:0:
256,192,41972,1,8,0:0:0:0:
256,192,42090,1,8,0:0:0:0:
256,192,42207,1,8,0:0:0:0:
256,192,42325,1,8,0:0:0:0:
256,192,42443,1,8,0:0:0:0:
256,192,42560,1,4,0:0:0:0:
256,192,42913,1,8,0:0:0:0:
256,192,43266,1,0,0:0:0:0:
256,192,43619,1,8,0:0:0:0:
256,192,43855,1,8,0:0:0:0:
256,192,43972,1,0,0:0:0:0:
256,192,44325,1,8,0:0:0:0:
256,192,44678,1,0,0:0:0:0:
256,192,45031,1,8,0:0:0:0:
256,192,45266,1,8,0:0:0:0:
256,192,45384,1,0,0:0:0:0:
256,192,45737,1,8,0:0:0:0:
256,192,46090,1,0,0:0:0:0:
256,192,46443,1,8,0:0:0:0:
256,192,46678,1,0,0:0:0:0:
256,192,47031,1,8,0:0:0:0:
256,192,47502,1,0,0:0:0:0:
256,192,47855,1,8,0:0:0:0:
256,192,48207,1,0,0:0:0:0:
256,192,48560,1,8,0:0:0:0:
256,192,48796,1,8,0:0:0:0:
256,192,48913,1,0,0:0:0:0:
256,192,49266,1,8,0:0:0:0:
256,192,49619,1,0,0:0:0:0:
256,192,49972,1,8,0:0:0:0:
256,192,50207,1,8,0:0:0:0:
256,192,50325,1,0,0:0:0:0:
256,192,50678,1,8,0:0:0:0:
256,192,51031,1,0,0:0:0:0:
256,192,51384,1,8,0:0:0:0:
256,192,51737,1,0,0:0:0:0:
256,192,52090,1,0,0:0:0:0:
256,192,52325,1,8,0:0:0:0:
256,192,52678,1,0,0:0:0:0:
256,192,53149,1,0,0:0:0:0:
256,192,53384,1,8,0:0:0:0:
256,192,53502,1,8,0:0:0:0:
256,192,53737,1,0,0:0:0:0:
256,192,53855,5,0,0:0:0:0:
256,192,54207,1,0,0:0:0:0:
256,192,54560,1,8,0:0:0:0:
256,192,54796,1,0,0:0:0:0:
256,192,55149,1,8,0:0:0:0:
256,192,55502,1,8,0:0:0:0:
256,192,55619,1,8,0:0:0:0:
256,192,55972,1,8,0:0:0:0:
256,192,56207,1,8,0:0:0:0:
256,192,56325,1,8,0:0:0:0:
256,192,56560,1,8,0:0:0:0:
256,192,56678,1,0,0:0:0:0:
256,192,57031,1,8,0:0:0:0:
256,192,57384,1,0,0:0:0:0:
256,192,57619,1,8,0:0:0:0:
256,192,57972,1,8,0:0:0:0:
256,192,58090,1,8,0:0:0:0:
256,192,58325,1,0,0:0:0:0:
256,192,58443,1,0,0:0:0:0:
256,192,58678,1,8,0:0:0:0:
256,192,59031,1,8,0:0:0:0:
256,192,59149,1,8,0:0:0:0:
256,192,59502,1,0,0:0:0:0:
256,192,59855,1,12,0:0:0:0:
256,192,60207,1,0,0:0:0:0:
256,192,60560,1,12,0:0:0:0:
256,192,60913,1,0,0:0:0:0:
256,192,61266,1,12,0:0:0:0:
256,192,61619,1,0,0:0:0:0:
256,192,61972,1,12,0:0:0:0:
256,192,62325,1,0,0:0:0:0:
256,192,62678,1,8,0:0:0:0:
256,192,63031,1,8,0:0:0:0:
256,192,63266,1,8,0:0:0:0:
256,192,63619,1,4,0:0:0:0:
256,192,63972,1,8,0:0:0:0:
256,192,64090,1,8,0:0:0:0:
256,192,64443,1,8,0:0:0:0:
256,192,64560,1,8,0:0:0:0:
256,192,64678,1,8,0:0:0:0:
256,192,64796,1,8,0:0:0:0:
256,192,64913,1,8,0:0:0:0:
256,192,65031,1,8,0:0:0:0:
256,192,65149,1,0,0:0:0:0:
256,192,65502,1,8,0:0:0:0:
256,192,65855,1,0,0:0:0:0:
256,192,66208,1,8,0:0:0:0:
256,192,66444,1,8,0:0:0:0:
256,192,66561,1,0,0:0:0:0:
256,192,66914,1,8,0:0:0:0:
256,192,67267,1,0,0:0:0:0:
256,192,67620,1,8,0:0:0:0:
256,192,67855,1,8,0:0:0:0:
256,192,67973,1,0,0:0:0:0:
256,192,68326,1,8,0:0:0:0:
256,192,68679,1,0,0:0:0:0:
256,192,69032,1,8,0:0:0:0:
256,192,69267,1,0,0:0:0:0:
256,192,69620,1,8,0:0:0:0:
256,192,70091,1,0,0:0:0:0:
256,192,70325,1,8,0:0:0:0:
256,192,70444,1,8,0:0:0:0:
256,192,70796,1,0,0:0:0:0:
256,192,71149,1,8,0:0:0:0:
256,192,71502,1,0,0:0:0:0:
256,192,71855,1,8,0:0:0:0:
256,192,72090,1,8,0:0:0:0:
256,192,72208,1,0,0:0:0:0:
256,192,72561,1,8,0:0:0:0:
256,192,72914,1,0,0:0:0:0:
256,192,73267,1,8,0:0:0:0:
256,192,73502,1,8,0:0:0:0:
256,192,73620,1,0,0:0:0:0:
256,192,73973,1,8,0:0:0:0:
256,192,74326,1,0,0:0:0:0:
256,192,74679,1,0,0:0:0:0:
256,192,74914,1,8,0:0:0:0:
256,192,75267,5,0,0:0:0:0:
256,192,75737,1,0,0:0:0:0:
256,192,75972,1,8,0:0:0:0:
256,192,76090,1,8,0:0:0:0:
256,192,76325,1,0,0:0:0:0:
256,192,76443,5,0,0:0:0:0:
256,192,76796,1,0,0:0:0:0:
256,192,77149,1,8,0:0:0:0:
256,192,77384,1,0,0:0:0:0:
256,192,77737,1,8,0:0:0:0:
256,192,78090,1,8,0:0:0:0:
256,192,78207,1,8,0:0:0:0:
256,192,78560,1,0,0:0:0:0:
256,192,78796,1,0,0:0:0:0:
256,192,78913,1,0,0:0:0:0:
256,192,79149,1,8,0:0:0:0:
256,192,79266,1,8,0:0:0:0:
256,192,79619,1,8,0:0:0:0:
256,192,79972,1,0,0:0:0:0:
256,192,80207,1,8,0:0:0:0:
256,192,80560,1,4,0:0:0:0:
256,192,80913,1,8,0:0:0:0:
256,192,81031,1,8,0:0:0:0:
256,192,81266,1,0,0:0:0:0:
256,192,81619,1,8,0:0:0:0:
256,192,81737,1,8,0:0:0:0:
256,192,81855,1,8,0:0:0:0:
256,192,81972,1,8,0:0:0:0:
256,192,82090,1,0,0:0:0:0:
256,192,82443,1,12,0:0:0:0:
256,192,82796,1,0,0:0:0:0:
256,192,83149,1,12,0:0:0:0:
256,192,83502,1,0,0:0:0:0:
256,192,83855,1,12,0:0:0:0:
256,192,84207,1,0,0:0:0:0:
256,192,84560,1,12,0:0:0:0:
256,192,84913,1,4,0:0:0:0:
256,192,85266,1,4,0:0:0:0:
256,192,85619,1,4,0:0:0:0:
256,192,85972,1,4,0:0:0:0:
256,192,86325,1,4,0:0:0:0:
256,192,87266,1,0,0:0:0:0:
256,192,87384,1,0,0:0:0:0:
256,192,87737,1,4,0:0:0:0:
256,192,88090,1,8,0:0:0:0:
256,192,88207,1,8,0:0:0:0:
256,192,88325,1,8,0:0:0:0:
256,192,88443,1,8,0:0:0:0:
256,192,88678,1,8,0:0:0:0:
256,192,88796,1,8,0:0:0:0:
256,192,89031,1,4,0:0:0:0:
