osu file format v14

[General]
AudioFilename: audio.mp3
AudioLeadIn: 0
PreviewTime: 47083
Countdown: 0
SampleSet: Normal
StackLeniency: 0.7
Mode: 1
LetterboxInBreaks: 0
WidescreenStoryboard: 0

[Editor]
DistanceSpacing: 0.8
BeatDivisor: 4
GridSize: 4
TimelineZoom: 2.1

[Metadata]
Title:Tenka Toitsu A to Z*
TitleUnicode:天下トーイツ A to Z☆
Artist:Pastel*Palettes
ArtistUnicode:Pastel*Palettes
Creator:Tomoka Rin
Version:Oni
Source:バンドリ! ガールズバンドパーティ!
Tags:ガルパ BanG Dream 若宮イヴ 丸山彩 氷川日菜 白鷺千聖 大和麻弥 Maruyama Aya Hikawa Hina Shirasagi Chisato Yamato Maya Wakamiya eve bossandy boss nardo Nardoxyribonucleic
BeatmapID:1605346
BeatmapSetID:763494

[Difficulty]
HPDrainRate:6
CircleSize:4
OverallDifficulty:5.5
ApproachRate:5
SliderMultiplier:1.4
SliderTickRate:1

[Events]
//Background and Video events
0,0,"ibu.jpg",0,120
//Break Periods
//Storyboard Layer 0 (Background)
//Storyboard Layer 1 (Fail)
//Storyboard Layer 2 (Pass)
//Storyboard Layer 3 (Foreground)
//Storyboard Sound Samples

[TimingPoints]
24,392.156862745098,4,1,0,80,1,0
4729,-100,4,1,0,85,0,0
6298,-100,4,1,0,80,0,0
17474,-100,4,1,0,85,0,0
18847,-100,4,1,0,80,0,0
23553,-100,4,1,0,85,0,0
25122,-100,4,1,0,80,0,0
36102,-100,4,1,0,85,0,0
37671,-100,4,1,0,80,0,0
40808,-100,4,1,0,70,0,0
43945,-100,4,1,0,85,0,0
45514,-100,4,1,0,80,0,0
47082,-100,4,1,0,80,0,1
70612,-100,4,1,0,80,0,0
76886,-100,4,1,0,80,0,0
81788,-100,4,1,0,85,0,0
83161,-100,4,1,0,80,0,0

[HitObjects]
256,160,24,5,0,0:0:0:0:
112,148,318,1,0,0:0:0:0:
112,148,416,1,8,0:0:0:0:
112,148,710,1,0,0:0:0:0:
112,148,906,1,8,0:0:0:0:
112,148,1102,1,8,0:0:0:0:
112,148,1200,1,8,0:0:0:0:
112,148,1396,1,0,0:0:0:0:
112,148,1494,1,8,0:0:0:0:
112,168,1592,1,0,0:0:0:0:
112,148,1886,1,8,0:0:0:0:
112,148,1984,1,0,0:0:0:0:
120,136,2180,1,0,0:0:0:0:
112,148,2278,1,8,0:0:0:0:
112,148,2474,1,8,0:0:0:0:
112,148,2671,1,0,0:0:0:0:
124,96,2769,1,8,0:0:0:0:
112,148,2867,1,0,0:0:0:0:
104,136,2965,1,8,0:0:0:0:
112,168,3161,1,0,0:0:0:0:
112,148,3455,1,0,0:0:0:0:
112,148,3553,1,8,0:0:0:0:
112,148,3847,1,0,0:0:0:0:
112,148,4043,1,8,0:0:0:0:
112,148,4239,1,8,0:0:0:0:
112,148,4337,1,0,0:0:0:0:
112,148,4435,1,0,0:0:0:0:
120,132,4533,1,8,0:0:0:0:
112,164,4729,1,12,0:0:0:0:
116,160,5122,1,12,0:0:0:0:
116,160,5514,1,12,0:0:0:0:
116,160,5906,1,12,0:0:0:0:
116,160,6298,5,4,0:0:0:0:
112,152,6494,1,8,0:0:0:0:
112,152,6690,1,0,0:0:0:0:
120,148,6788,1,0,0:0:0:0:
112,152,6886,1,8,0:0:0:0:
112,152,7082,1,0,0:0:0:0:
112,152,7278,1,8,0:0:0:0:
104,148,7376,1,0,0:0:0:0:
112,152,7573,1,0,0:0:0:0:
112,152,7671,1,8,0:0:0:0:
112,152,7867,1,0,0:0:0:0:
112,152,8063,1,8,0:0:0:0:
112,152,8259,1,0,0:0:0:0:
104,148,8357,1,0,0:0:0:0:
112,152,8455,1,8,0:0:0:0:
112,152,8651,1,0,0:0:0:0:
112,152,8847,1,8,0:0:0:0:
112,152,9043,1,0,0:0:0:0:
112,152,9141,1,8,0:0:0:0:
112,152,9239,1,8,0:0:0:0:
116,160,9435,5,0,0:0:0:0:
112,152,9631,1,8,0:0:0:0:
112,152,9827,1,0,0:0:0:0:
120,148,9925,1,0,0:0:0:0:
112,152,10024,1,8,0:0:0:0:
112,152,10220,1,0,0:0:0:0:
112,152,10416,1,8,0:0:0:0:
104,148,10514,1,0,0:0:0:0:
112,152,10710,1,0,0:0:0:0:
112,152,10808,1,8,0:0:0:0:
112,152,11004,1,0,0:0:0:0:
112,152,11200,1,8,0:0:0:0:
112,152,11396,1,0,0:0:0:0:
112,152,11592,1,8,0:0:0:0:
112,152,11788,1,0,0:0:0:0:
104,152,11886,1,0,0:0:0:0:
112,152,11984,1,8,0:0:0:0:
112,152,12082,1,8,0:0:0:0:
112,152,12180,1,0,0:0:0:0:
112,152,12376,1,8,0:0:0:0:
116,144,12573,5,4,0:0:0:0:
116,144,12769,1,4,0:0:0:0:
116,144,13161,1,12,0:0:0:0:
116,144,13553,1,8,0:0:0:0:
116,144,13749,1,0,0:0:0:0:
116,144,13945,1,8,0:0:0:0:
116,144,14141,1,0,0:0:0:0:
116,144,14337,1,8,0:0:0:0:
184,148,14435,1,8,0:0:0:0:
184,160,14533,1,0,0:0:0:0:
116,144,14729,1,8,0:0:0:0:
184,160,14925,1,0,0:0:0:0:
224,152,15122,1,8,0:0:0:0:
208,144,15318,1,0,0:0:0:0:
200,136,15514,1,8,0:0:0:0:
200,136,15612,1,0,0:0:0:0:
232,160,15710,1,0,0:0:0:0:
216,148,15906,1,8,0:0:0:0:
224,152,16004,1,8,0:0:0:0:
216,148,16102,1,8,0:0:0:0:
224,152,16298,1,0,0:0:0:0:
232,160,16494,1,0,0:0:0:0:
216,156,16690,1,8,0:0:0:0:
224,152,16788,1,8,0:0:0:0:
212,156,16886,1,8,0:0:0:0:
204,148,17082,1,0,0:0:0:0:
232,160,17474,1,12,0:0:0:0:
232,160,17769,1,12,0:0:0:0:
124,152,18063,1,12,0:0:0:0:
179,162,18455,1,8,0:0:0:0:
224,152,18847,5,0,0:0:0:0:
216,136,20416,1,0,0:0:0:0:
216,136,21984,1,0,0:0:0:0:
216,136,23553,1,4,0:0:0:0:
216,136,23945,1,4,0:0:0:0:
216,136,24337,1,12,0:0:0:0:
216,136,24729,1,12,0:0:0:0:
216,136,25122,5,0,0:0:0:0:
184,184,25318,1,8,0:0:0:0:
184,184,25416,1,8,0:0:0:0:
184,184,25514,1,0,0:0:0:0:
176,164,25710,1,8,0:0:0:0:
160,168,25906,1,0,0:0:0:0:
160,168,26004,1,8,0:0:0:0:
160,160,26200,1,8,0:0:0:0:
160,160,26298,1,0,0:0:0:0:
160,160,26494,1,8,0:0:0:0:
216,136,26690,5,0,0:0:0:0:
168,152,26886,1,0,0:0:0:0:
184,184,26984,1,8,0:0:0:0:
176,168,27082,1,0,0:0:0:0:
176,164,27278,1,8,0:0:0:0:
160,168,27474,1,8,0:0:0:0:
160,168,27573,1,0,0:0:0:0:
172,144,27671,1,0,0:0:0:0:
160,160,27769,1,0,0:0:0:0:
160,160,27867,1,8,0:0:0:0:
160,160,28063,1,8,0:0:0:0:
216,136,28259,5,0,0:0:0:0:
184,184,28455,1,8,0:0:0:0:
184,184,28553,1,8,0:0:0:0:
184,184,28651,1,0,0:0:0:0:
176,164,28847,1,8,0:0:0:0:
160,168,29043,1,0,0:0:0:0:
160,168,29141,1,8,0:0:0:0:
160,160,29337,1,8,0:0:0:0:
160,160,29435,1,0,0:0:0:0:
160,160,29631,1,8,0:0:0:0:
184,140,29827,1,12,0:0:0:0:
176,136,30122,1,12,0:0:0:0:
176,136,30416,1,4,0:0:0:0:
176,136,30612,1,4,0:0:0:0:
192,128,31004,1,8,0:0:0:0:
192,128,31102,1,0,0:0:0:0:
192,128,31200,1,0,0:0:0:0:
180,136,31396,5,0,0:0:0:0:
168,144,31984,1,0,0:0:0:0:
168,144,32180,1,0,0:0:0:0:
168,144,32573,1,8,0:0:0:0:
168,144,32965,1,0,0:0:0:0:
168,144,33357,1,8,0:0:0:0:
168,144,33553,1,0,0:0:0:0:
204,148,33749,1,0,0:0:0:0:
176,148,34141,1,8,0:0:0:0:
168,144,34533,1,0,0:0:0:0:
176,148,35122,1,0,0:0:0:0:
168,144,35318,1,0,0:0:0:0:
176,148,35710,1,8,0:0:0:0:
184,168,35906,1,0,0:0:0:0:
176,148,36102,1,12,0:0:0:0:
160,144,36494,1,4,0:0:0:0:
160,144,36886,1,12,0:0:0:0:
160,144,37278,1,4,0:0:0:0:
160,144,37671,5,8,0:0:0:0:
148,148,37867,1,0,0:0:0:0:
152,136,37965,1,0,0:0:0:0:
144,144,38063,1,0,0:0:0:0:
136,132,38259,1,0,0:0:0:0:
136,132,38455,1,0,0:0:0:0:
140,124,38651,1,8,0:0:0:0:
140,124,39043,1,8,0:0:0:0:
140,124,39435,1,8,0:0:0:0:
140,124,39631,1,0,0:0:0:0:
136,128,39827,1,8,0:0:0:0:
136,128,40024,1,0,0:0:0:0:
136,128,40220,1,0,0:0:0:0:
132,136,40416,1,8,0:0:0:0:
132,136,40808,5,8,0:0:0:0:
144,120,41200,1,0,0:0:0:0:
136,128,41592,1,8,0:0:0:0:
136,128,41984,1,0,0:0:0:0:
136,128,42376,1,0,0:0:0:0:
136,128,42769,1,0,0:0:0:0:
136,128,43161,1,8,0:0:0:0:
136,128,43553,1,8,0:0:0:0:
152,184,43945,5,12,0:0:0:0:
152,184,44239,1,4,0:0:0:0:
152,184,44533,1,4,0:0:0:0:
152,184,44729,1,12,0:0:0:0:
152,184,45024,1,4,0:0:0:0:
152,184,45318,1,4,0:0:0:0:
104,124,45514,1,8,0:0:0:0:
120,124,45710,1,0,0:0:0:0:
120,124,45906,1,8,0:0:0:0:
120,124,46004,1,8,0:0:0:0:
120,124,46102,1,0,0:0:0:0:
136,176,46200,1,0,0:0:0:0:
156,144,46298,1,8,0:0:0:0:
184,176,47082,5,4,0:0:0:0:
144,136,47278,1,8,0:0:0:0:
144,136,47376,1,0,0:0:0:0:
184,120,47573,1,0,0:0:0:0:
184,120,47671,1,8,0:0:0:0:
184,176,47867,1,0,0:0:0:0:
144,136,48063,1,8,0:0:0:0:
144,136,48161,1,0,0:0:0:0:
184,120,48357,1,0,0:0:0:0:
184,120,48455,1,8,0:0:0:0:
176,136,48651,1,0,0:0:0:0:
156,136,48847,1,8,0:0:0:0:
148,140,48945,1,8,0:0:0:0:
176,136,49043,1,8,0:0:0:0:
176,136,49239,1,8,0:0:0:0:
176,136,49435,1,0,0:0:0:0:
176,136,49631,1,8,0:0:0:0:
176,140,49729,1,8,0:0:0:0:
176,136,49827,1,8,0:0:0:0:
176,136,50024,1,8,0:0:0:0:
184,176,50220,5,0,0:0:0:0:
144,136,50416,1,8,0:0:0:0:
144,136,50514,1,0,0:0:0:0:
184,120,50710,1,0,0:0:0:0:
184,120,50808,1,8,0:0:0:0:
184,176,51004,1,0,0:0:0:0:
144,136,51200,1,8,0:0:0:0:
144,136,51298,1,0,0:0:0:0:
184,120,51494,1,0,0:0:0:0:
184,120,51592,1,8,0:0:0:0:
176,132,51788,1,0,0:0:0:0:
156,136,51984,1,8,0:0:0:0:
148,140,52082,1,8,0:0:0:0:
176,136,52180,1,8,0:0:0:0:
176,136,52376,1,8,0:0:0:0:
176,136,52573,1,0,0:0:0:0:
176,136,52769,1,0,0:0:0:0:
176,136,52965,1,8,0:0:0:0:
216,136,53357,5,0,0:0:0:0:
184,184,53553,1,8,0:0:0:0:
184,184,53651,1,8,0:0:0:0:
184,184,53749,1,0,0:0:0:0:
194,169,53847,1,0,0:0:0:0:
176,164,53945,1,8,0:0:0:0:
160,168,54141,1,0,0:0:0:0:
160,168,54239,1,8,0:0:0:0:
160,160,54435,1,8,0:0:0:0:
160,160,54533,1,0,0:0:0:0:
160,160,54729,1,8,0:0:0:0:
216,136,54925,5,0,0:0:0:0:
168,152,55122,1,8,0:0:0:0:
184,184,55220,1,8,0:0:0:0:
176,168,55318,1,0,0:0:0:0:
176,164,55514,1,0,0:0:0:0:
160,168,55710,1,8,0:0:0:0:
160,168,55808,1,0,0:0:0:0:
160,160,56004,1,0,0:0:0:0:
160,160,56102,1,8,0:0:0:0:
160,160,56298,1,8,0:0:0:0:
216,136,56494,5,0,0:0:0:0:
184,184,56690,1,8,0:0:0:0:
184,184,56788,1,8,0:0:0:0:
184,184,56886,1,8,0:0:0:0:
176,164,57082,1,0,0:0:0:0:
160,168,57278,1,0,0:0:0:0:
160,168,57474,1,8,0:0:0:0:
160,160,57573,1,8,0:0:0:0:
160,160,57671,1,8,0:0:0:0:
160,160,57867,1,0,0:0:0:0:
184,140,58063,5,12,0:0:0:0:
176,136,58357,1,12,0:0:0:0:
176,136,58651,1,4,0:0:0:0:
176,136,58847,1,4,0:0:0:0:
172,144,59043,1,8,0:0:0:0:
172,144,59141,1,0,0:0:0:0:
180,148,59239,1,0,0:0:0:0:
180,148,59337,1,0,0:0:0:0:
180,148,59435,1,8,0:0:0:0:
184,176,59631,5,4,0:0:0:0:
144,136,59827,1,8,0:0:0:0:
184,120,59925,1,0,0:0:0:0:
176,163,60023,1,0,0:0:0:0:
184,120,60220,1,8,0:0:0:0:
184,176,60416,1,0,0:0:0:0:
185,146,60514,1,0,0:0:0:0:
177,146,60612,1,8,0:0:0:0:
144,136,60710,1,8,0:0:0:0:
184,120,60808,1,0,0:0:0:0:
184,120,61004,1,8,0:0:0:0:
176,136,61200,1,0,0:0:0:0:
156,136,61396,1,8,0:0:0:0:
148,140,61494,1,8,0:0:0:0:
176,136,61592,1,8,0:0:0:0:
176,136,61788,1,8,0:0:0:0:
176,136,61984,1,0,0:0:0:0:
176,136,62180,1,8,0:0:0:0:
176,140,62278,1,8,0:0:0:0:
176,136,62376,1,8,0:0:0:0:
176,136,62573,1,8,0:0:0:0:
184,176,62769,5,0,0:0:0:0:
144,136,62965,1,8,0:0:0:0:
144,136,63063,1,0,0:0:0:0:
160,144,63161,1,0,0:0:0:0:
184,120,63357,1,8,0:0:0:0:
184,176,63553,1,0,0:0:0:0:
166,150,63651,1,0,0:0:0:0:
144,136,63749,1,8,0:0:0:0:
184,120,63847,1,8,0:0:0:0:
144,136,63945,1,0,0:0:0:0:
184,120,64141,1,8,0:0:0:0:
176,132,64337,1,0,0:0:0:0:
156,136,64533,1,8,0:0:0:0:
148,140,64631,1,8,0:0:0:0:
176,136,64729,1,8,0:0:0:0:
176,136,64925,1,8,0:0:0:0:
176,136,65122,1,0,0:0:0:0:
176,136,65318,1,0,0:0:0:0:
176,136,65514,1,8,0:0:0:0:
216,136,65906,5,0,0:0:0:0:
184,184,66102,1,8,0:0:0:0:
184,184,66200,1,8,0:0:0:0:
184,184,66298,1,8,0:0:0:0:
176,164,66494,1,8,0:0:0:0:
160,168,66690,1,0,0:0:0:0:
160,168,66788,1,8,0:0:0:0:
160,160,66984,1,8,0:0:0:0:
160,160,67082,1,0,0:0:0:0:
160,160,67278,1,8,0:0:0:0:
216,136,67474,5,0,0:0:0:0:
168,152,67671,1,8,0:0:0:0:
184,184,67769,1,8,0:0:0:0:
176,168,67867,1,0,0:0:0:0:
176,164,68063,1,8,0:0:0:0:
160,168,68259,1,0,0:0:0:0:
160,168,68357,1,0,0:0:0:0:
172,144,68455,1,0,0:0:0:0:
160,160,68553,1,0,0:0:0:0:
160,160,68651,1,8,0:0:0:0:
160,148,69043,1,0,0:0:0:0:
172,148,69239,1,8,0:0:0:0:
176,148,69631,1,8,0:0:0:0:
156,148,69827,1,0,0:0:0:0:
156,148,70122,1,8,0:0:0:0:
156,148,70416,1,8,0:0:0:0:
116,160,70612,5,4,0:0:0:0:
112,152,70808,1,8,0:0:0:0:
112,152,71004,1,0,0:0:0:0:
120,148,71102,1,0,0:0:0:0:
112,152,71200,1,8,0:0:0:0:
112,152,71396,1,0,0:0:0:0:
112,152,71592,1,8,0:0:0:0:
104,148,71690,1,0,0:0:0:0:
112,152,71886,1,0,0:0:0:0:
112,152,71984,1,8,0:0:0:0:
112,152,72180,1,0,0:0:0:0:
112,152,72376,1,8,0:0:0:0:
96,144,72474,1,0,0:0:0:0:
112,152,72573,1,0,0:0:0:0:
112,152,72769,1,8,0:0:0:0:
112,152,72965,1,0,0:0:0:0:
112,152,73161,1,8,0:0:0:0:
96,144,73259,1,8,0:0:0:0:
112,152,73357,1,0,0:0:0:0:
80,128,73455,1,0,0:0:0:0:
112,152,73553,1,8,0:0:0:0:
116,160,73749,5,0,0:0:0:0:
112,152,73945,1,8,0:0:0:0:
112,152,74141,1,0,0:0:0:0:
120,148,74239,1,0,0:0:0:0:
112,152,74337,1,8,0:0:0:0:
112,152,74533,1,0,0:0:0:0:
112,152,74729,1,8,0:0:0:0:
104,148,74827,1,0,0:0:0:0:
112,152,75023,1,0,0:0:0:0:
112,152,75122,1,8,0:0:0:0:
112,152,75318,1,0,0:0:0:0:
112,152,75514,1,8,0:0:0:0:
100,148,75612,1,0,0:0:0:0:
112,152,75710,1,0,0:0:0:0:
112,152,75906,1,8,0:0:0:0:
112,152,76102,1,0,0:0:0:0:
112,152,76298,1,8,0:0:0:0:
92,148,76396,1,0,0:0:0:0:
112,152,76494,1,0,0:0:0:0:
92,144,76592,1,0,0:0:0:0:
112,152,76690,1,8,0:0:0:0:
116,144,76886,5,4,0:0:0:0:
116,144,77082,1,4,0:0:0:0:
116,144,77474,1,12,0:0:0:0:
116,144,77867,1,8,0:0:0:0:
116,144,78063,1,0,0:0:0:0:
124,136,78259,1,8,0:0:0:0:
116,144,78455,1,0,0:0:0:0:
116,144,78651,1,8,0:0:0:0:
184,148,78749,1,8,0:0:0:0:
184,160,78847,1,0,0:0:0:0:
116,144,79043,1,8,0:0:0:0:
184,160,79239,1,0,0:0:0:0:
224,152,79435,1,8,0:0:0:0:
208,144,79631,1,8,0:0:0:0:
140,144,79827,1,8,0:0:0:0:
140,144,79925,1,0,0:0:0:0:
212,152,80023,1,0,0:0:0:0:
216,148,80220,1,8,0:0:0:0:
188,152,80318,1,8,0:0:0:0:
216,148,80416,1,8,0:0:0:0:
188,152,80612,1,0,0:0:0:0:
232,160,80808,1,0,0:0:0:0:
216,156,81004,1,8,0:0:0:0:
180,144,81102,1,8,0:0:0:0:
212,156,81200,1,8,0:0:0:0:
180,144,81396,1,0,0:0:0:0:
184,140,81788,1,12,0:0:0:0:
184,140,82082,1,12,0:0:0:0:
184,140,82376,1,12,0:0:0:0:
176,153,82769,1,0,0:0:0:0:
256,192,83161,12,0,86200,0:0:0:0:
