osu file format v14

[General]
AudioFilename: audio.mp3
AudioLeadIn: 0
PreviewTime: 46906
Countdown: 0
SampleSet: Soft
StackLeniency: 0.2
Mode: 0
LetterboxInBreaks: 0
WidescreenStoryboard: 0

[Editor]
Bookmarks: 83768
DistanceSpacing: 1
BeatDivisor: 2
GridSize: 32
TimelineZoom: 2.7

[Metadata]
Title:Tenka Toitsu A to Z*
TitleUnicode:天下トーイツ A to Z☆
Artist:Pastel*Palettes
ArtistUnicode:Pastel*Palettes
Creator:Shizuku-
Version:Special
Source:バンドリ! ガールズバンドパーティ!
Tags:bandori video game japanese BanG Dream! PasuPare パスパレ Paspale パステルパレット ぱすてるぱれっと 丸山彩 Maruyama Aya 大和麻弥 Yamato Maya 若宮イヴ Wakamiya Eve 白鷺千聖 Shirasagi Chisato 氷川日菜 Hikawa Hina 前島亜美 Maeshima Ami 中上育美 Nakagami Ikumi 秦佐和子 Hata Sawako 上坂すみれ Uesaka Sumire 小澤亜李 Ozawa Ari
BeatmapID:1898555
BeatmapSetID:909777

[Difficulty]
HPDrainRate:5
CircleSize:3.8
OverallDifficulty:9
ApproachRate:9.5
SliderMultiplier:1.92
SliderTickRate:1

[Events]
//Background and Video events
0,0,"SNS_Glory__T.png",0,0
//Break Periods
//Storyboard Layer 0 (Background)
//Storyboard Layer 1 (Fail)
//Storyboard Layer 2 (Pass)
//Storyboard Layer 3 (Foreground)
//Storyboard Sound Samples

[TimingPoints]
44,392.156862745098,4,2,1,80,1,0
534,-100,4,2,1,5,0,0
632,392.156862745098,4,2,1,80,1,0
632,-50,4,2,1,80,0,0
926,-100,4,2,1,50,0,0
2200,-50,4,2,1,80,0,0
2494,-100,4,2,1,50,0,0
2592,-100,4,2,1,50,0,0
3769,-50,4,2,1,80,0,0
4063,-100,4,2,1,50,0,0
5337,-66.6666666666667,4,2,1,80,0,0
5632,-66.6666666666667,4,2,1,5,0,0
5730,-55.5555555555556,4,2,1,80,0,0
6024,-55.5555555555556,4,2,1,5,0,0
6122,-47.6190476190476,4,2,1,80,0,0
6416,-47.6190476190476,4,2,1,5,0,0
6514,-33.3333333333333,4,2,1,80,0,0
6612,-33.3333333333333,4,2,1,5,0,0
6906,196.078431372549,4,2,1,80,1,0
6906,-76.9230769230769,4,2,1,80,0,0
7298,-100,4,2,1,80,0,0
8474,-1000,4,2,1,80,0,0
8621,-1000,4,2,1,5,0,0
8670,-66.6666666666667,4,2,1,80,0,0
8817,-66.6666666666667,4,2,1,5,0,0
8866,-1000,4,2,1,80,0,0
9013,-66.6666666666667,4,2,1,5,0,0
9062,-66.6666666666667,4,2,1,80,0,0
9209,-66.6666666666667,4,2,1,5,0,0
9258,-66.6666666666667,4,2,1,80,0,0
9455,-66.6666666666667,4,2,1,80,0,0
9602,-66.6666666666667,4,2,1,5,0,0
9651,-1000,4,2,1,80,0,0
9798,-66.6666666666667,4,2,1,5,0,0
9847,-66.6666666666667,4,2,1,80,0,0
9994,-66.6666666666667,4,2,1,5,0,0
10043,-100,4,2,1,80,0,0
11611,-1000,4,2,1,80,0,0
11758,-1000,4,2,1,5,0,0
11807,-66.6666666666667,4,2,1,80,0,0
11955,-66.6666666666667,4,2,1,5,0,0
12004,-1000,4,2,1,80,0,0
12151,-1000,4,2,1,5,0,0
12200,-66.6666666666667,4,2,1,80,0,0
12347,-66.6666666666667,4,2,1,5,0,0
12396,-1000,4,2,1,80,0,0
12592,-88.8888888888889,4,2,1,80,0,0
12788,-100,4,2,1,80,0,0
15141,-111.111111111111,4,2,1,80,0,0
15533,-100,4,2,1,80,0,0
18082,-100,4,2,1,80,0,0
18278,-100,4,2,1,5,0,0
18376,-100,4,2,1,80,0,0
18572,-100,4,2,1,5,0,0
18670,-90.9090909090909,4,2,1,80,0,0
19455,-100,4,2,1,80,0,0
19847,-66.6666666666667,4,2,1,5,0,0
20435,-333.333333333333,4,2,1,80,0,0
20925,-333.333333333333,4,2,1,5,0,0
21023,-100,4,2,1,80,0,0
21415,-100,4,2,1,5,0,0
22004,-200,4,2,1,80,0,0
22053,-200,4,2,1,5,0,0
22102,-200,4,2,1,80,0,0
22151,-200,4,2,1,5,0,0
22200,-200,4,2,1,80,0,0
22249,-200,4,2,1,5,0,0
22396,-66.6666666666667,4,2,1,80,0,0
22543,-66.6666666666667,4,2,1,5,0,0
22592,-100,4,2,1,80,0,0
22984,-100,4,2,1,5,0,0
23572,-333.333333333333,4,2,1,80,0,0
24111,-333.333333333333,4,2,1,5,0,0
24160,-100,4,2,1,80,0,0
24455,-100,4,2,1,5,0,0
24553,-83.3333333333333,4,2,1,80,0,0
24847,-83.3333333333333,4,2,1,5,0,0
24945,-69.4444444444444,4,2,1,80,0,0
25239,-69.4444444444444,4,2,1,5,0,0
25337,-69.4444444444444,4,2,1,80,0,0
25631,-69.4444444444444,4,2,1,5,0,0
25729,-100,4,2,1,80,0,0
32004,-200,4,2,1,80,0,0
36709,-66.6666666666667,4,2,1,80,0,0
37004,-66.6666666666667,4,2,1,5,0,0
37102,-76.9230769230769,4,2,1,80,0,0
37396,-76.9230769230769,4,2,1,5,0,0
37494,-90.9090909090909,4,2,1,80,0,0
37788,-90.9090909090909,4,2,1,5,0,0
37886,-90.9090909090909,4,2,1,80,0,0
38866,-200,4,2,1,80,0,0
39651,-142.857142857143,4,2,1,80,0,0
41415,-333.333333333333,4,2,1,80,0,0
43866,-333.333333333333,4,2,1,5,0,0
43964,-100,4,2,1,80,0,0
44455,-100,4,2,1,5,0,0
44553,-83.3333333333333,4,2,1,80,0,0
47690,-83.3333333333333,4,2,1,80,0,1
57298,-200,4,2,1,80,0,1
57347,-200,4,2,1,5,0,1
57494,-200,4,2,1,80,0,1
57641,-200,4,2,1,5,0,1
57690,-50,4,2,1,80,0,1
57837,-50,4,2,1,5,0,1
57886,-200,4,2,1,80,0,1
58082,-200,4,2,1,80,0,1
58131,-200,4,2,1,5,0,1
58278,-200,4,2,1,80,0,1
58425,-200,4,2,1,5,0,1
58474,-50,4,2,1,80,0,1
58621,-50,4,2,1,5,0,1
58670,-50,4,2,1,80,0,1
58719,-50,4,2,1,5,0,1
58964,-50,4,2,1,80,0,1
59013,-50,4,2,1,5,0,1
59258,-50,4,2,1,80,0,1
59307,-50,4,2,1,5,0,1
59455,-100,4,2,1,80,0,1
60239,-83.3333333333333,4,2,1,80,0,1
65092,-83.3333333333333,4,2,1,5,0,1
65141,-83.3333333333333,4,2,1,80,0,1
65337,-100,4,2,1,80,0,1
65484,-100,4,2,1,5,0,1
65533,-100,4,2,1,80,0,1
66513,-125,4,2,1,80,0,1
69651,-200,4,2,1,80,0,1
70337,-200,4,2,1,5,0,1
70435,-100,4,2,1,80,0,1
71121,-100,4,2,1,5,0,1
71219,-100,4,2,1,80,0,0
72788,-1000,4,2,1,80,0,0
72935,-1000,4,2,1,5,0,0
72984,-66.6666666666667,4,2,1,80,0,0
73131,-66.6666666666667,4,2,1,5,0,0
73180,-1000,4,2,1,80,0,0
73327,-1000,4,2,1,5,0,0
73376,-66.6666666666667,4,2,1,80,0,0
73523,-66.6666666666667,4,2,1,5,0,0
73572,-66.6666666666667,4,2,1,80,0,0
73768,-66.6666666666667,4,2,1,80,0,0
73915,-66.6666666666667,4,2,1,5,0,0
73964,-1000,4,2,1,80,0,0
74111,-1000,4,2,1,5,0,0
74160,-66.6666666666667,4,2,1,80,0,0
74307,-66.6666666666667,4,2,1,5,0,0
74356,-76.9230769230769,4,2,1,80,0,0
74749,-100,4,2,1,80,0,0
75925,-1000,4,2,1,80,0,0
76072,-1000,4,2,1,5,0,0
76121,-66.6666666666667,4,2,1,80,0,0
76268,-66.6666666666667,4,2,1,5,0,0
76317,-1000,4,2,1,80,0,0
76464,-1000,4,2,1,5,0,0
76513,-66.6666666666667,4,2,1,80,0,0
76660,-66.6666666666667,4,2,1,5,0,0
76709,-66.6666666666667,4,2,1,80,0,0
76906,-66.6666666666667,4,2,1,80,0,0
77053,-66.6666666666667,4,2,1,5,0,0
77102,-100,4,2,1,80,0,0
79455,-111.111111111111,4,2,1,80,0,0
79847,-90.9090909090909,4,2,1,80,0,0
80239,-100,4,2,1,80,0,0
82984,-90.9090909090909,4,2,1,80,0,0
83768,-250,4,2,1,80,0,0
86906,-100,4,2,1,5,0,0

[Colours]
Combo1 : 240,151,218
Combo2 : 250,131,199
Combo3 : 243,114,153
Combo4 : 235,120,215

[HitObjects]
415,230,44,6,0,P|471:237|393:265,1,240,0|0,0:0|0:0,0:0:0:0:
392,269,632,6,0,B|341:251|304:288|304:288|252:306|215:269,1,192,4|0,0:0|0:0,0:0:0:0:
184,200,926,5,8,0:0:0:0:
189,191,1024,2,0,P|168:200|152:218,1,48,8|0,0:0|0:0,0:0:0:0:
247,120,1220,5,8,0:0:0:0:
252,128,1318,2,0,P|254:105|247:82,1,48,8|0,0:0|0:0,0:0:0:0:
274,215,1514,6,0,P|292:228|315:233,1,48,8|0,0:0|0:0,0:0:0:0:
387,169,1710,5,8,0:0:0:0:
392,177,1808,2,0,P|394:154|387:131,1,48,8|0,0:0|0:0,0:0:0:0:
344,43,2004,2,0,P|330:61|325:84,1,48,8|8,0:0|0:0,0:0:0:0:
75,128,2200,6,0,B|112:165|164:147|164:147|201:110|252:128,1,192,12|0,0:2|0:0,0:0:0:0:
305,303,2494,1,8,0:0:0:0:
294,306,2592,2,0,P|278:267|278:214,1,96,8|8,0:0|0:0,0:0:0:0:
387,169,2886,2,0,P|406:177|433:177,1,48,8|0,0:0|0:0,0:0:0:0:
470,52,3082,2,0,P|451:60|424:60,1,48,8|0,0:0|0:0,0:0:0:0:
266,123,3279,1,8,0:0:0:0:
251,127,3377,2,0,P|234:114|221:91,1,48,8|0,0:0|0:0,0:0:0:0:
162,31,3573,2,0,P|150:51|132:66,1,48,8|8,0:0|0:0,0:0:0:0:
75,304,3769,6,0,B|93:253|56:216|56:216|38:164|75:127,1,192,12|0,0:2|0:0,0:0:0:0:
161,260,4063,1,8,0:0:0:0:
175,251,4161,2,0,L|268:277,1,96,8|8,0:0|0:0,0:0:0:0:
344,255,4455,2,0,L|390:268,1,48,8|0,0:0|0:0,0:0:0:0:
375,344,4651,2,0,L|328:331,1,48,8|0,0:0|0:0,0:0:0:0:
279,197,4847,1,8,0:0:0:0:
279,197,4945,2,0,P|268:180|268:153,1,48,8|0,0:0|0:0,0:0:0:0:
312,80,5141,5,8,0:0:0:0:
268,152,5239,1,8,0:0:0:0:
129,121,5337,6,0,P|64:138|132:126,1,216.000008239746,12|0,0:2|0:0,0:0:0:0:
134,117,5730,6,0,P|63:163|137:122,1,259.199992089844,8|0,0:2|0:0,0:0:0:0:
138,111,6122,6,0,P|55:165|142:117,1,302.399990771485,8|0,0:2|0:0,0:0:0:0:
138,111,6514,6,0,L|174:250,1,144.000005493164,8|0,0:2|0:0,0:0:0:0:
174,250,6906,6,0,B|255:235|255:235|327:275|327:275|409:260,1,249.599988574219,4|8,1:2|0:0,0:0:0:0:
367,90,7200,1,0,0:0:0:0:
367,90,7298,2,0,P|341:124|341:176,1,96,0|0,1:0|1:0,0:0:0:0:
384,346,7494,2,0,P|410:312|410:260,1,96,8|0,0:0|0:0,0:0:0:0:
367,90,7690,6,0,P|280:115|209:54,1,192,0|8,1:2|0:0,0:0:0:0:
208,53,7984,1,0,0:0:0:0:
138,111,8082,6,0,L|126:210,1,96,0|0,1:0|1:0,0:0:0:0:
267,334,8278,2,0,L|255:235,1,96,8|0,0:0|0:0,0:0:0:0:
138,111,8474,6,0,L|141:125,1,14.4,0|0,1:0|0:0,0:0:0:0:
126,206,8670,6,0,B|185:213|214:158|214:158|244:103|303:110,1,216.000008239746,12|0,1:2|0:0,0:0:0:0:
291,206,8866,6,0,L|288:220,1,14.4,0|0,1:0|0:0,0:0:0:0:
303,301,9062,6,0,B|244:308|215:253|215:253|185:198|126:205,1,216.000008239746,12|0,1:2|0:0,0:0:0:0:
138,111,9258,5,0,1:0:0:0:
141,125,9356,1,0,1:0:0:0:
126,206,9455,6,0,B|185:213|214:158|214:158|244:103|303:110,1,216.000008239746,12|0,1:2|0:0,0:0:0:0:
291,206,9651,6,0,L|288:220,1,14.4,0|0,1:0|0:0,0:0:0:0:
464,316,9847,6,0,B|405:323|376:268|376:268|346:213|287:220,1,216.000008239746,12|0,1:2|0:0,0:0:0:0:
303,301,10043,6,0,B|269:327|228:320|228:320|206:297|206:297|165:290|131:316,1,192,4|8,1:2|0:0,0:0:0:0:
46,278,10337,1,0,0:0:0:0:
46,278,10435,2,0,P|23:238|22:190,1,96,0|0,1:0|1:0,0:0:0:0:
162,31,10631,2,0,L|141:124,1,96,8|0,0:0|0:0,0:0:0:0:
126,206,10827,6,0,P|183:138|281:125,1,192,0|8,1:2|0:0,0:0:0:0:
281,125,11219,6,0,P|261:95|261:37,1,96,0|0,1:0|1:0,0:0:0:0:
341,14,11415,2,0,P|361:44|361:102,1,96,8|0,0:0|0:0,0:0:0:0:
261,36,11611,6,0,L|246:42,1,14.4,0|0,1:0|0:0,0:0:0:0:
162,31,11807,2,0,B|135:84|177:130|177:130|218:177|191:230,1,216.000008239746,12|0,1:2|0:0,0:0:0:0:
196,329,12004,6,0,L|202:314,1,14.4,0|0,1:0|0:0,0:0:0:0:
115,192,12200,2,0,B|121:132|181:117|181:117|241:100|247:40,1,216.000008239746,12|0,1:2|0:0,0:0:0:0:
339,20,12396,5,0,1:0:0:0:
335,29,12494,1,0,1:0:0:0:
247,41,12592,2,0,B|306:38|330:96|330:96|355:153|415:151,1,216.000008239746,12|0,1:2|1:0,0:0:0:0:
490,27,12886,1,0,1:0:0:0:
404,7,12984,1,12,1:2:0:0:
358,82,13082,1,8,1:2:0:0:
414,150,13180,6,0,B|425:212|425:212|394:267|394:267|406:331,2,192,4|8|0,1:2|0:0|1:0,0:0:0:0:
327,174,13670,1,0,1:0:0:0:
278,99,13768,2,0,L|186:126,1,96,8|0,0:0|0:0,0:0:0:0:
81,74,13964,6,0,B|126:82|151:133|151:133|156:179|116:218,2,192,0|8|0,1:2|0:0|1:0,0:0:0:0:
46,278,14553,1,8,0:0:0:0:
81,74,14749,6,0,B|129:58|170:94|170:94|211:130|259:114,1,192,0|8,1:2|0:0,0:0:0:0:
259,113,15043,1,0,0:0:0:0:
483,211,15141,6,0,B|440:229|405:193|405:193|369:156|326:174,1,172.799994726563,0|8,1:0|0:0,0:0:0:0:
326,173,15435,1,0,0:0:0:0:
174,371,15533,6,0,P|225:310|236:201,1,192,0|8,1:2|0:0,0:0:0:0:
236,201,15827,1,0,0:0:0:0:
182,119,15925,1,0,1:0:0:0:
242,45,16023,1,0,1:0:0:0:
332,79,16121,1,8,0:0:0:0:
328,174,16219,1,8,0:0:0:0:
236,201,16317,5,4,1:2:0:0:
88,146,16513,1,8,0:0:0:0:
88,146,16611,1,8,0:0:0:0:
88,146,16709,2,0,L|98:242,1,96,8|8,0:0|0:0,0:0:0:0:
174,371,16906,2,0,L|184:275,1,96,8|0,0:0|0:0,0:0:0:0:
416,301,17102,5,4,1:2:0:0:
416,301,17298,2,0,L|320:311,1,96,8|8,0:0|0:0,0:0:0:0:
236,201,17494,6,0,B|248:196|248:196|248:208|248:208|260:201|260:201|304:237|380:209|432:145|328:53|288:156,1,288,8|0,0:0|0:0,0:0:0:0:
183,275,17886,5,0,1:0:0:0:
183,275,18082,2,0,B|169:265|169:265|173:288|173:288|159:279|159:279|25:302,1,192,12|0,0:0|0:0,0:0:0:0:
81,153,18376,2,0,B|79:169|79:169|97:154|97:154|96:171|96:171|183:275,1,192,8|0,0:0|0:0,0:0:0:0:
412,301,18670,6,0,B|427:262|404:230|404:230|409:231|409:231|370:205|377:158|377:158|307:159|281:220|281:220|284:224|284:224|276:222|276:222|279:226|279:226|251:286|179:274,1,422.400012890625,12|0,0:0|1:0,0:0:0:0:
183,274,19455,6,0,B|205:218|172:173|172:173|166:169|166:169|174:165|174:165|168:162|168:162|88:84|186:-22|277:67|237:126,1,384,4|0,0:0|0:0,0:0:0:0:
241,118,20435,2,0,B|265:102|293:102|293:102|316:144|365:144,1,143.999995605469,0|0,0:0|0:0,0:0:0:0:
365,144,21023,6,0,B|362:197|319:237|265:237|265:237|260:246|260:246|253:231|253:231|232:180|166:155|117:220|147:274|183:274,1,384,4|0,0:0|0:0,0:0:0:0:
183,274,22004,2,0,L|179:297,1,24,0|0,0:0|0:0,0:0:0:0:
172,277,22102,2,0,L|168:300,1,24,0|0,0:0|0:0,0:0:0:0:
161,280,22200,2,0,L|157:303,1,24,0|0,0:0|0:0,0:0:0:0:
161,280,22396,6,0,B|222:248|277:282|277:282|282:275|282:275|301:317|348:324,1,216.000008239746,0|0,0:0|0:0,0:0:0:0:
347,323,22592,6,0,B|375:283|350:232|350:232|343:217|343:217|329:208|329:208|279:130|370:36|450:142|373:204,1,384,4|0,0:0|0:0,0:0:0:0:
373,203,23572,6,0,B|331:188|298:216|298:216|256:230|223:202,1,158.399995166016,0|0,0:0|0:0,0:0:0:0:
224,203,24160,6,0,P|326:203|238:283,1,288,4|0,0:0|0:0,0:0:0:0:
232,296,24553,6,0,P|346:224|213:198,1,345.599989453125,4|0,0:0|0:0,0:0:0:0:
203,192,24945,6,0,P|361:222|224:308,1,414.720010125,4|0,0:0|0:0,0:0:0:0:
117,228,25337,6,0,B|76:206|52:153|81:97|81:97|128:126|128:126|146:70|146:70|204:94|220:150|202:194,1,414.720010125,4|0,0:0|0:0,0:0:0:0:
223,307,25729,6,0,B|271:291|312:327|312:327|353:363|401:347,1,192,0|8,1:0|0:0,0:0:0:0:
457,284,26023,1,8,0:0:0:0:
457,284,26121,2,0,P|457:174|494:104,1,192,0|8,1:0|0:0,0:0:0:0:
416,20,26415,1,8,0:0:0:0:
416,20,26513,6,0,P|381:51|332:61,1,96,0|0,1:0|0:0,0:0:0:0:
280,133,26709,2,0,P|233:137|187:116,1,96,8|8,0:0|0:0,0:0:0:0:
53,230,26906,6,0,P|88:199|137:189,1,96,0|0,1:0|1:0,0:0:0:0:
189,117,27102,2,0,P|235:112|281:133,1,96,8|8,0:0|0:0,0:0:0:0:
401,346,27298,5,0,1:0:0:0:
492,316,27396,1,0,0:0:0:0:
492,220,27494,1,8,0:0:0:0:
400,190,27592,1,8,0:0:0:0:
344,268,27690,6,0,P|249:268|186:334,1,192,0|8,1:0|0:0,0:0:0:0:
185,334,27984,1,8,0:0:0:0:
53,230,28082,6,0,P|88:199|137:189,1,96,0|0,1:0|0:0,0:0:0:0:
189,117,28278,2,0,P|235:112|281:133,1,96,8|8,0:0|0:0,0:0:0:0:
482,148,28474,6,0,P|447:179|398:189,1,96,0|0,1:0|1:0,0:0:0:0:
279,131,28670,2,0,P|269:85|285:37,1,96,8|8,0:0|0:0,0:0:0:0:
185,334,28866,6,0,P|219:251|312:226,1,192,0|8,1:0|0:0,0:0:0:0:
387,284,29160,1,8,0:0:0:0:
387,284,29258,2,0,L|415:93,1,192,0|8,1:0|0:0,0:0:0:0:
414,94,29553,1,8,0:0:0:0:
284,39,29651,6,0,P|210:98|117:98,1,192,0|8,1:0|0:0,0:0:0:0:
17,107,29945,1,8,0:0:0:0:
0,202,30043,1,0,1:0:0:0:
87,248,30141,1,0,1:0:0:0:
155,180,30239,1,8,0:0:0:0:
240,223,30337,1,8,0:0:0:0:
224,317,30435,6,0,P|297:260|387:284,1,192,4|0,0:0|0:0,0:0:0:0:
439,126,30729,2,0,P|452:217|386:283,1,192,4|0,0:0|0:0,0:0:0:0:
240,223,31023,2,0,P|262:190|314:177,1,96,4|0,0:0|0:0,0:0:0:0:
439,126,31219,6,0,P|252:146|120:18,1,384,4|8,1:2|0:0,0:0:0:0:
91,147,31709,1,8,0:0:0:0:
91,147,31807,2,0,P|66:183|18:206,1,96,8|0,0:0|0:0,0:0:0:0:
20,205,32004,6,0,P|151:206|185:371,1,288,0|0,1:0|1:0,0:0:0:0:
85,315,32788,5,0,1:0:0:0:
200,336,32984,1,0,0:0:0:0:
315,357,33180,1,8,0:0:0:0:
430,378,33376,1,0,0:0:0:0:
458,263,33572,6,0,P|366:278|315:356,1,192,0|0,1:0|0:0,0:0:0:0:
314,356,34160,1,0,1:0:0:0:
240,223,34356,2,0,P|193:217|157:184,1,96,0|0,1:0|0:0,0:0:0:0:
97,22,34749,2,0,P|115:65|104:113,1,96,8|0,0:0|0:0,0:0:0:0:
69,195,35141,6,0,P|130:279|303:293,1,288,0|0,1:0|1:0,0:0:0:0:
458,263,35925,5,0,1:0:0:0:
302,293,36121,1,0,0:0:0:0:
225,153,36317,1,8,0:0:0:0:
225,153,36415,1,0,0:0:0:0:
225,153,36513,1,0,0:0:0:0:
416,21,36709,6,0,P|403:180|332:37,1,432.000016479493,4|0,1:2|0:0,0:0:0:0:
341,45,37102,6,0,P|402:170|412:32,1,374.399982861329,4|0,1:2|0:0,0:0:0:0:
410,43,37494,6,0,P|398:160|349:54,1,316.800009667969,4|0,1:2|0:0,0:0:0:0:
458,57,37886,1,4,1:2:0:0:
450,153,37984,1,0,1:0:0:0:
357,176,38082,1,0,1:0:0:0:
307,94,38180,1,0,0:0:0:0:
369,22,38278,5,0,1:0:0:0:
302,293,38474,1,0,1:0:0:0:
101,99,38670,1,8,0:0:0:0:
263,198,38866,5,0,1:0:0:0:
286,192,38964,1,8,0:0:0:0:
309,187,39062,1,0,1:0:0:0:
333,181,39160,1,0,0:0:0:0:
356,176,39258,1,0,1:0:0:0:
302,293,39455,1,8,0:0:0:0:
369,22,39651,6,0,B|298:0|251:62|251:62|177:77|135:11,1,268.799991796875,4|0,0:0|1:0,0:0:0:0:
101,99,40239,1,8,0:0:0:0:
263,198,40435,5,0,1:0:0:0:
256,164,40533,1,8,0:0:0:0:
250,131,40631,1,0,1:0:0:0:
244,98,40729,1,0,0:0:0:0:
238,65,40827,1,0,1:0:0:0:
101,99,41023,6,0,L|112:172,1,67.1999979492188,8|8,0:0|0:0,0:0:0:0:
167,246,41219,1,0,1:0:0:0:
163,258,41317,1,0,1:0:0:0:
157,273,41415,6,0,B|270:253|270:253|277:257|277:257|437:228|437:228|460:280|460:280|474:288|474:288|459:298|459:298|428:357|428:357|364:319|364:319|293:331|293:331|287:338|287:338|167:361,1,719.999978027344,4|0,0:0|0:0,0:0:0:0:
47,150,43964,6,0,B|0:58|142:-25|222:124|118:196|118:196|73:228|58:288|92:333,1,480,0|0,0:0|0:0,0:0:0:0:
157,273,44553,6,0,B|311:246|311:246|269:264|262:302,1,230.39999296875,12|0,1:2|0:0,0:0:0:0:
448,297,44847,2,0,B|454:331|496:349|496:349|342:322,1,230.39999296875,8|0,1:2|0:0,0:0:0:0:
319,168,45141,2,0,P|371:187|389:239,1,115.199996484375,8|0,1:2|0:0,0:0:0:0:
262,298,45337,6,0,B|246:189|246:189|251:182|251:182|237:70,1,230.39999296875,12|0,1:2|0:0,0:0:0:0:
123,127,45631,2,0,P|210:195|318:168,1,230.39999296875,8|0,1:2|0:0,0:0:0:0:
484,32,45925,2,0,L|464:147,1,115.199996484375,8|0,1:2|0:0,0:0:0:0:
387,262,46121,5,12,1:2:0:0:
319,355,46219,1,8,0:0:0:0:
209,319,46317,1,8,0:0:0:0:
209,204,46415,1,8,0:0:0:0:
319,168,46513,1,8,0:0:0:0:
318,52,46611,1,8,0:0:0:0:
208,17,46709,1,8,0:0:0:0:
140,110,46807,1,8,0:0:0:0:
209,204,46906,5,8,0:0:0:0:
204,222,47102,1,0,0:0:0:0:
199,240,47298,1,0,0:0:0:0:
194,258,47494,1,0,0:0:0:0:
188,273,47690,6,0,P|301:249|381:329,1,230.39999296875,4|8,1:2|0:0,0:0:0:0:
378,321,47984,1,0,0:0:0:0:
459,241,48082,2,0,L|475:123,1,115.199996484375,0|0,1:0|1:0,0:0:0:0:
318,52,48278,2,0,L|334:170,1,115.199996484375,8|0,0:0|0:0,0:0:0:0:
188,273,48474,6,0,B|151:219|188:166|188:166|225:111|188:58,1,230.39999296875,0|8,1:0|0:0,0:0:0:0:
188,58,48768,1,0,0:0:0:0:
24,65,48866,2,0,P|62:106|119:113,1,115.199996484375,0|0,1:0|1:0,0:0:0:0:
202,359,49062,2,0,P|146:350|108:308,1,115.199996484375,8|0,0:0|0:0,0:0:0:0:
272,80,49258,6,0,P|274:139|244:184,1,115.199996484375,0|0,1:0|0:0,0:0:0:0:
75,185,49455,2,0,P|44:137|47:81,1,115.199996484375,8|8,0:0|0:0,0:0:0:0:
382,168,49651,6,0,P|354:221|305:244,1,115.199996484375,0|0,1:0|0:0,0:0:0:0:
160,162,49847,2,0,P|156:105|188:58,1,115.199996484375,8|8,0:0|0:0,0:0:0:0:
306,244,50043,5,0,1:0:0:0:
243,184,50141,1,0,0:0:0:0:
160,162,50239,1,8,0:0:0:0:
75,185,50337,1,8,0:0:0:0:
122,292,50435,5,0,1:0:0:0:
171,243,50533,1,0,0:0:0:0:
238,226,50631,1,8,0:0:0:0:
306,244,50729,1,8,0:0:0:0:
270,331,50827,6,0,B|233:277|270:224|270:224|307:169|270:116,1,230.39999296875,0|8,1:0|0:0,0:0:0:0:
270,116,51121,1,0,0:0:0:0:
187,58,51219,2,0,L|72:79,1,115.199996484375,0|0,1:0|1:0,0:0:0:0:
75,185,51415,2,0,L|190:164,1,115.199996484375,8|0,0:0|0:0,0:0:0:0:
471,342,51611,6,0,P|370:344|305:239,1,230.39999296875,0|8,1:0|0:0,0:0:0:0:
305,243,51906,1,0,0:0:0:0:
410,112,52004,2,0,L|421:227,1,115.199996484375,0|0,1:0|1:0,0:0:0:0:
199,49,52200,2,0,L|188:163,1,115.199996484375,8|0,0:0|0:0,0:0:0:0:
312,318,52396,6,0,P|314:259|283:212,1,115.199996484375,0|0,1:0|0:0,0:0:0:0:
113,217,52592,2,0,P|83:265|87:322,1,115.199996484375,8|8,0:0|0:0,0:0:0:0:
421,227,52788,6,0,P|394:174|343:149,1,115.199996484375,0|0,1:0|0:0,0:0:0:0:
200,237,52984,2,0,P|196:293|228:341,1,115.199996484375,8|8,0:0|0:0,0:0:0:0:
346,149,53180,5,0,1:0:0:0:
284,213,53278,1,0,0:0:0:0:
200,237,53376,1,8,0:0:0:0:
113,217,53474,1,8,0:0:0:0:
88,87,53572,5,0,1:0:0:0:
181,59,53670,1,0,0:0:0:0:
275,82,53768,1,8,0:0:0:0:
346,149,53866,1,8,0:0:0:0:
372,243,53964,6,0,L|352:358,1,115.199996484375,0|0,1:0|0:0,0:0:0:0:
264,326,54160,2,0,L|284:211,1,115.199996484375,8|0,0:0|0:0,0:0:0:0:
432,103,54356,5,0,1:0:0:0:
346,149,54455,1,0,1:0:0:0:
275,82,54553,2,0,L|160:102,1,115.199996484375,8|0,0:0|0:0,0:0:0:0:
2,195,54749,6,0,P|112:198|161:99,1,230.39999296875,0|8,1:0|0:0,0:0:0:0:
191,264,55043,2,0,P|242:361|352:356,1,230.39999296875,0|0,0:0|1:0,0:0:0:0:
473,216,55337,2,0,P|416:210|371:243,1,115.199996484375,8|0,0:0|0:0,0:0:0:0:
264,326,55533,6,0,P|224:355|160:355,1,115.199996484375,0|0,1:0|0:0,0:0:0:0:
130,270,55729,2,0,P|170:241|234:241,1,115.199996484375,8|8,0:0|0:0,0:0:0:0:
280,20,55925,6,0,P|329:23|378:64,1,115.199996484375,0|0,1:0|0:0,0:0:0:0:
346,149,56121,2,0,P|296:145|247:104,1,115.199996484375,8|8,0:0|0:0,0:0:0:0:
53,59,56317,6,0,L|280:19,1,230.39999296875,0|8,1:0|0:0,0:0:0:0:
279,19,56611,1,8,0:0:0:0:
346,149,56709,6,0,P|296:145|247:104,1,115.199996484375,0|0,1:0|0:0,0:0:0:0:
100,185,56905,1,8,0:0:0:0:
130,270,57004,1,8,0:0:0:0:
160,355,57102,1,0,1:0:0:0:
160,355,57298,6,0,L|183:350,1,24,0|0,1:0|0:0,0:0:0:0:
371,242,57494,6,0,P|390:269|427:279,1,72,12|0,1:2|0:0,0:0:0:0:
437,276,57690,2,0,B|360:245|309:313|309:313|259:379|182:349,1,288,0|0,1:0|0:0,0:0:0:0:
130,270,57886,1,0,1:0:0:0:
130,270,58082,6,0,L|153:275,1,24,0|0,1:0|0:0,0:0:0:0:
341,383,58278,6,0,P|360:356|397:346,1,72,12|0,1:2|0:0,0:0:0:0:
407,349,58474,2,0,B|330:379|279:311|279:311|229:245|152:275,1,288,0|0,1:0|0:0,0:0:0:0:
73,330,58670,6,0,P|49:282|56:242,1,96,0|0,1:0|0:0,0:0:0:0:
346,149,58964,2,0,P|316:193|278:207,1,96,0|0,1:0|0:0,0:0:0:0:
53,4,59258,2,0,P|106:7|137:33,1,96,0|0,1:0|0:0,0:0:0:0:
277,207,59455,5,0,1:0:0:0:
279,241,59520,1,0,1:0:0:0:
246,255,59585,1,0,1:0:0:0:
223,229,59651,5,0,1:0:0:0:
245,191,59716,1,0,1:0:0:0:
215,158,59781,1,0,1:0:0:0:
176,176,59847,5,0,1:0:0:0:
180,227,59912,1,0,1:0:0:0:
132,247,59977,1,0,1:0:0:0:
98,208,60043,5,0,1:0:0:0:
129,154,60108,1,0,1:0:0:0:
88,106,60173,1,0,1:0:0:0:
29,132,60239,6,0,B|-8:186|29:239|29:239|66:294|29:347,1,230.39999296875,4|8,1:2|0:0,0:0:0:0:
29,346,60533,1,0,0:0:0:0:
132,247,60631,2,0,L|247:230,1,115.199996484375,0|0,1:0|1:0,0:0:0:0:
254,313,60827,2,0,L|139:330,1,115.199996484375,8|0,0:0|0:0,0:0:0:0:
215,158,61023,6,0,B|278:141|315:194|315:194|354:248|417:231,1,230.39999296875,0|8,1:0|0:0,0:0:0:0:
416,231,61317,1,0,0:0:0:0:
471,129,61415,2,0,P|480:69|451:21,1,115.199996484375,0|0,1:0|1:0,0:0:0:0:
372,40,61611,2,0,P|362:99|392:148,1,115.199996484375,8|0,0:0|0:0,0:0:0:0:
245,230,61807,6,0,P|186:234|141:186,1,115.199996484375,0|0,1:0|0:0,0:0:0:0:
127,51,62004,2,0,P|163:8|219:4,1,115.199996484375,8|8,0:0|0:0,0:0:0:0:
125,330,62200,2,0,P|80:291|82:225,1,115.199996484375,0|0,1:0|0:0,0:0:0:0:
167,121,62396,2,0,P|223:116|266:153,1,115.199996484375,8|8,0:0|0:0,0:0:0:0:
77,238,62592,5,0,1:0:0:0:
37,168,62690,1,0,0:0:0:0:
58,91,62788,1,8,0:0:0:0:
127,51,62886,1,8,0:0:0:0:
233,96,62984,5,0,1:0:0:0:
265,152,63082,1,0,0:0:0:0:
248,213,63180,1,8,0:0:0:0:
193,245,63278,1,8,0:0:0:0:
167,121,63376,6,0,B|275:111|275:111|284:120|284:120|393:111,1,230.39999296875,0|8,1:0|0:0,0:0:0:0:
392,111,63670,1,0,0:0:0:0:
437,276,63768,2,0,L|320:255,1,115.199996484375,0|0,1:0|1:0,0:0:0:0:
313,338,63964,2,0,L|429:358,1,115.199996484375,8|0,0:0|0:0,0:0:0:0:
248,213,64160,6,0,B|188:195|143:243|143:243|98:290|38:272,1,230.39999296875,0|8,1:0|0:0,0:0:0:0:
38,272,64455,1,0,0:0:0:0:
34,80,64553,2,0,P|70:123|69:180,1,115.199996484375,0|0,1:0|1:0,0:0:0:0:
74,371,64749,2,0,P|37:327|39:271,1,115.199996484375,8|0,0:0|0:0,0:0:0:0:
34,80,64945,6,0,L|203:120,1,172.799994726563,0|0,1:0|0:0,0:0:0:0:
202,119,65141,2,0,P|258:98|279:48,1,115.199996484375,8|8,0:0|0:0,0:0:0:0:
346,249,65337,6,0,P|303:203|224:204,1,144,0|0,1:0|0:0,0:0:0:0:
226,204,65533,2,0,P|183:211|140:184,1,96,8|8,0:0|0:0,0:0:0:0:
74,371,65729,5,0,1:0:0:0:
38,271,65827,1,0,0:0:0:0:
2,171,65925,1,8,0:0:0:0:
2,171,66121,2,0,L|17:75,1,96,0|0,1:0|0:0,0:0:0:0:
98,89,66317,2,0,L|83:185,1,96,8|8,0:0|0:0,0:0:0:0:
38,271,66513,6,0,P|100:224|174:228,1,153.6,0|0,1:0|1:0,0:0:0:0:
172,227,66807,1,0,0:0:0:0:
236,289,66906,2,0,P|267:312|304:312,1,76.8,8|0,0:0|0:0,0:0:0:0:
322,234,67102,2,0,P|291:211|254:211,1,76.8,0|8,1:0|0:0,0:0:0:0:
380,289,67298,5,0,0:0:0:0:
380,289,67396,2,0,L|359:137,1,153.6,8|0,0:0|0:0,0:0:0:0:
452,28,67690,2,0,P|455:61|432:98,1,76.8,8|0,0:0|0:0,0:0:0:0:
358,136,67886,2,0,P|325:139|287:116,1,76.8,0|8,1:0|0:0,0:0:0:0:
117,77,68082,6,0,P|191:87|249:40,1,153.6,0|0,1:0|1:0,0:0:0:0:
249,39,68376,1,0,0:0:0:0:
342,64,68474,2,0,P|360:97|357:135,1,76.8,8|0,0:0|0:0,0:0:0:0:
434,240,68670,2,0,P|414:272|379:288,1,76.8,0|8,1:0|0:0,0:0:0:0:
254,210,68866,5,0,1:0:0:0:
179,198,68964,1,8,0:0:0:0:
111,232,69062,1,0,1:0:0:0:
76,299,69160,1,0,0:0:0:0:
212,355,69258,5,8,0:0:0:0:
235,299,69356,1,8,0:0:0:0:
223,240,69455,1,0,1:0:0:0:
179,198,69553,1,0,1:0:0:0:
111,232,69651,6,0,B|233:213|233:213|311:257|311:257|432:237,1,336,4|0,1:2|0:0,0:0:0:0:
488,134,70435,6,0,B|502:114|516:83|514:-11|409:-41|317:42|358:145|439:158|439:158|523:173|546:257|508:328|457:337|411:324|399:263|432:236,1,672,4|0,1:2|0:0,0:0:0:0:
431,236,71219,6,0,P|392:270|348:278,1,96,4|0,1:2|0:0,0:0:0:0:
272,321,71415,2,0,P|223:304|194:270,1,96,8|0,0:0|0:0,0:0:0:0:
35,356,71611,6,0,P|74:322|118:314,1,96,0|0,1:0|1:0,0:0:0:0:
194,271,71807,2,0,P|242:287|271:321,1,96,8|0,0:0|0:0,0:0:0:0:
118,224,72004,6,0,P|118:124|182:65,1,192,0|8,1:2|0:0,0:0:0:0:
183,65,72298,1,0,0:0:0:0:
258,117,72396,6,0,L|353:126,1,96,0|0,1:0|1:0,0:0:0:0:
360,44,72592,2,0,L|265:35,1,96,8|0,0:0|0:0,0:0:0:0:
118,224,72788,6,0,L|121:238,1,14.4,0|0,1:0|0:0,0:0:0:0:
82,319,72984,6,0,B|140:339|183:299|183:299|225:259|283:279,1,216.000008239746,12|0,1:2|0:0,0:0:0:0:
246,373,73180,6,0,L|243:359,1,14.4,0|0,1:0|0:0,0:0:0:0:
282,278,73376,6,0,B|236:319|181:299|181:299|126:278|81:319,1,216.000008239746,12|0,1:2|0:0,0:0:0:0:
118,224,73572,5,0,1:0:0:0:
121,238,73670,1,0,1:0:0:0:
282,278,73768,6,0,P|308:178|239:95,1,216.000008239746,12|0,1:2|0:0,0:0:0:0:
183,154,73964,2,0,L|170:158,1,14.4,0|0,1:0|0:0,0:0:0:0:
242,96,74160,6,0,P|315:168|421:150,1,216.000008239746,12|0,1:2|0:0,0:0:0:0:
419,151,74356,2,0,B|346:161|346:161|277:238|277:238|205:248,1,249.599988574219,4|8,1:2|0:0,0:0:0:0:
72,158,74651,1,0,0:0:0:0:
72,158,74749,2,0,P|121:159|157:187,1,96,0|0,1:0|1:0,0:0:0:0:
126,259,74945,2,0,P|77:258|41:230,1,96,8|0,0:0|0:0,0:0:0:0:
207,20,75141,6,0,P|148:92|156:186,1,192,0|8,1:2|0:0,0:0:0:0:
156,186,75533,6,0,P|196:161|253:165,1,96,0|0,1:0|1:0,0:0:0:0:
354,87,75729,2,0,P|395:109|420:160,1,96,8|0,0:0|0:0,0:0:0:0:
395,311,75925,6,0,L|398:326,1,14.4,0|0,1:0|0:0,0:0:0:0:
432,230,76121,2,0,B|374:210|331:250|331:250|289:290|231:270,1,216.000008239746,12|0,1:2|0:0,0:0:0:0:
304,132,76317,6,0,L|306:116,1,14.4,0|0,1:0|0:0,0:0:0:0:
241,195,76513,2,0,B|302:196|329:248|329:248|354:300|416:301,1,216.000008239746,12|0,1:2|0:0,0:0:0:0:
432,230,76709,5,0,1:0:0:0:
446,227,76807,1,0,1:0:0:0:
431,120,76906,2,0,B|370:110|335:157|335:157|300:203|239:194,1,216.000008239746,12|0,1:2|0:0,0:0:0:0:
93,146,77102,1,0,1:0:0:0:
184,116,77200,1,0,1:0:0:0:
240,194,77298,1,12,1:2:0:0:
184,271,77396,1,8,1:2:0:0:
92,242,77494,6,0,P|14:289|2:382,2,192,4|8|0,1:2|0:0|1:0,0:0:0:0:
184,271,77984,1,0,1:0:0:0:
184,271,78082,2,0,P|219:290|272:282,1,96,8|0,0:0|0:0,0:0:0:0:
243,23,78278,6,0,B|268:54|258:91|258:91|226:127|226:127|216:164|241:195,2,192,0|8|0,1:2|0:0|1:0,0:0:0:0:
184,271,78866,1,8,0:0:0:0:
243,23,79062,6,0,B|293:3|331:40|331:40|369:77|419:57,1,192,0|8,1:2|0:0,0:0:0:0:
419,56,79356,1,8,0:0:0:0:
495,166,79455,6,0,B|448:157|417:191|417:191|385:225|338:216,1,172.799994726563,0|8,1:0|0:0,0:0:0:0:
338,216,79749,1,8,0:0:0:0:
86,114,79847,6,0,P|184:106|239:192,1,211.200006445313,0|8,1:2|0:0,0:0:0:0:
240,193,80141,1,8,0:0:0:0:
185,339,80239,5,0,1:0:0:0:
109,280,80337,1,0,1:0:0:0:
143,190,80435,1,8,0:0:0:0:
240,193,80533,1,8,0:0:0:0:
265,285,80631,5,4,1:2:0:0:
419,56,80827,1,8,0:0:0:0:
419,56,80925,1,8,0:0:0:0:
419,56,81023,2,0,L|324:70,1,96,8|8,0:0|0:0,0:0:0:0:
114,6,81219,2,0,L|209:20,1,96,8|0,0:0|0:0,0:0:0:0:
240,193,81415,5,4,1:2:0:0:
86,114,81611,1,8,0:0:0:0:
86,114,81709,1,8,0:0:0:0:
86,114,81807,2,0,L|72:209,1,96,8|8,0:0|0:0,0:0:0:0:
153,226,82004,2,0,L|167:131,1,96,8|0,0:0|0:0,0:0:0:0:
97,288,82200,5,0,1:0:0:0:
97,288,82396,2,0,B|110:282|110:282|107:297|107:297|120:292|120:292|269:318,1,192,12|0,0:0|0:0,0:0:0:0:
321,196,82690,2,0,B|307:190|307:190|310:205|310:205|297:200|297:200|148:226,1,192,8|0,0:0|0:0,0:0:0:0:
206,67,82984,6,0,B|117:90|117:90|115:87|115:87|96:133|96:133|166:118|199:174|199:174|208:151|208:151|243:216|323:195,1,422.400012890625,12|0,0:0|1:0,0:0:0:0:
484,136,83768,6,0,B|462:151|462:151|403:162|403:162|403:93|354:69|354:69|382:113|363:165|363:165|208:188|208:188|141:196|103:235|103:235|152:259|218:243|218:243|371:212|371:212|407:255|396:305|396:305|433:266|410:201|410:201|469:191|469:191|510:196|510:196|497:166|499:129,1,1228.8,4|0,0:2|0:1,0:1:0:0:
