osu file format v14

[General]
AudioFilename: audio.mp3
AudioLeadIn: 0
PreviewTime: 46906
Countdown: 0
SampleSet: Soft
StackLeniency: 0.2
Mode: 0
LetterboxInBreaks: 0
WidescreenStoryboard: 1

[Editor]
Bookmarks: 4847,83768
DistanceSpacing: 1
BeatDivisor: 2
GridSize: 32
TimelineZoom: 1.5

[Metadata]
Title:Tenka Toitsu A to Z*
TitleUnicode:天下トーイツ A to Z☆
Artist:Pastel*Palettes
ArtistUnicode:Pastel*Palettes
Creator:Shizuku-
Version:Light Insane
Source:バンドリ! ガールズバンドパーティ!
Tags:bandori video game japanese BanG Dream! PasuPare パスパレ Paspale パステルパレット ぱすてるぱれっと 丸山彩 Maruyama Aya 大和麻弥 Yamato Maya 若宮イヴ Wakamiya Eve 白鷺千聖 Shirasagi Chisato 氷川日菜 Hikawa Hina 前島亜美 Maeshima Ami 中上育美 Nakagami Ikumi 秦佐和子 Hata Sawako 上坂すみれ Uesaka Sumire 小澤亜李 Ozawa Ari
BeatmapID:2011738
BeatmapSetID:909777

[Difficulty]
HPDrainRate:4
CircleSize:3.5
OverallDifficulty:7
ApproachRate:8
SliderMultiplier:1
SliderTickRate:0.5

[Events]
//Background and Video events
0,0,"SNS_Glory__T.png",0,0
//Break Periods
//Storyboard Layer 0 (Background)
//Storyboard Layer 1 (Fail)
//Storyboard Layer 2 (Pass)
//Storyboard Layer 3 (Foreground)
//Storyboard Sound Samples

[TimingPoints]
44,392.156862745098,4,2,1,80,1,0
44,-50,4,2,1,80,0,0
534,-50,4,2,1,5,0,0
632,392.156862745098,4,2,1,80,1,0
632,-50,4,2,1,80,0,0
926,-50,4,2,1,50,0,0
2200,-50,4,2,1,80,0,0
2494,-50,4,2,1,50,0,0
2592,-50,4,2,1,50,0,0
3769,-50,4,2,1,80,0,0
4063,-50,4,2,1,50,0,0
5337,-50,4,2,1,80,0,0
5632,-50,4,2,1,5,0,0
5730,-50,4,2,1,80,0,0
6024,-50,4,2,1,5,0,0
6122,-50,4,2,1,80,0,0
6416,-50,4,2,1,5,0,0
6514,-50,4,2,1,80,0,0
6612,-50,4,2,1,5,0,0
6906,196.078431372549,4,2,1,80,1,0
6906,-100,4,2,1,80,0,0
7298,-100,4,2,1,80,0,0
8474,-100,4,2,1,80,0,0
8621,-100,4,2,1,5,0,0
8670,-100,4,2,1,80,0,0
8817,-100,4,2,1,5,0,0
8866,-100,4,2,1,80,0,0
9013,-100,4,2,1,5,0,0
9062,-100,4,2,1,80,0,0
9209,-100,4,2,1,5,0,0
9258,-100,4,2,1,80,0,0
9455,-100,4,2,1,80,0,0
9602,-100,4,2,1,5,0,0
9651,-100,4,2,1,80,0,0
9798,-100,4,2,1,5,0,0
9847,-100,4,2,1,80,0,0
9994,-100,4,2,1,5,0,0
10043,-100,4,2,1,80,0,0
11611,-100,4,2,1,80,0,0
11758,-100,4,2,1,5,0,0
11807,-100,4,2,1,80,0,0
11955,-100,4,2,1,5,0,0
12004,-100,4,2,1,80,0,0
12151,-100,4,2,1,5,0,0
12200,-100,4,2,1,80,0,0
12347,-100,4,2,1,5,0,0
12396,-100,4,2,1,80,0,0
12592,-100,4,2,1,80,0,0
12788,-100,4,2,1,80,0,0
15141,-100,4,2,1,80,0,0
15533,-100,4,2,1,80,0,0
18082,-100,4,2,1,80,0,0
18278,-100,4,2,1,5,0,0
18376,-100,4,2,1,80,0,0
18572,-100,4,2,1,5,0,0
18670,-100,4,2,1,80,0,0
19455,-100,4,2,1,80,0,0
19847,-100,4,2,1,5,0,0
20435,-100,4,2,1,80,0,0
20925,-100,4,2,1,5,0,0
21023,-100,4,2,1,80,0,0
21415,-100,4,2,1,5,0,0
22004,-100,4,2,1,80,0,0
22053,-100,4,2,1,5,0,0
22102,-100,4,2,1,80,0,0
22151,-100,4,2,1,5,0,0
22200,-100,4,2,1,80,0,0
22249,-100,4,2,1,5,0,0
22396,-100,4,2,1,80,0,0
22543,-100,4,2,1,5,0,0
22592,-100,4,2,1,80,0,0
22984,-100,4,2,1,5,0,0
23572,-100,4,2,1,80,0,0
24111,-100,4,2,1,5,0,0
24160,-100,4,2,1,80,0,0
24455,-100,4,2,1,5,0,0
24553,-100,4,2,1,80,0,0
24847,-100,4,2,1,5,0,0
24945,-100,4,2,1,80,0,0
25239,-100,4,2,1,5,0,0
25337,-100,4,2,1,80,0,0
25631,-100,4,2,1,5,0,0
25729,-100,4,2,1,80,0,0
32004,-100,4,2,1,80,0,0
36709,-100,4,2,1,80,0,0
37004,-100,4,2,1,5,0,0
37102,-100,4,2,1,80,0,0
37396,-100,4,2,1,5,0,0
37494,-100,4,2,1,80,0,0
37788,-100,4,2,1,5,0,0
37886,-100,4,2,1,80,0,0
38866,-100,4,2,1,80,0,0
39651,-100,4,2,1,80,0,0
41415,-133.333333333333,4,2,1,80,0,0
43866,-100,4,2,1,5,0,0
43964,-100,4,2,1,80,0,0
44455,-100,4,2,1,5,0,0
44553,-100,4,2,1,80,0,0
47690,-100,4,2,1,80,0,1
57298,-100,4,2,1,80,0,1
57347,-100,4,2,1,5,0,1
57494,-100,4,2,1,80,0,1
57641,-100,4,2,1,5,0,1
57690,-100,4,2,1,80,0,1
57837,-100,4,2,1,5,0,1
57886,-100,4,2,1,80,0,1
58082,-100,4,2,1,80,0,1
58131,-100,4,2,1,5,0,1
58278,-100,4,2,1,80,0,1
58425,-100,4,2,1,5,0,1
58474,-100,4,2,1,80,0,1
58621,-100,4,2,1,5,0,1
58670,-100,4,2,1,80,0,1
58719,-100,4,2,1,5,0,1
58964,-100,4,2,1,80,0,1
59013,-100,4,2,1,5,0,1
59258,-100,4,2,1,80,0,1
59307,-100,4,2,1,5,0,1
59455,-100,4,2,1,80,0,1
60239,-100,4,2,1,80,0,1
65092,-100,4,2,1,5,0,1
65141,-100,4,2,1,80,0,1
65337,-100,4,2,1,80,0,1
65484,-100,4,2,1,5,0,1
65533,-100,4,2,1,80,0,1
66513,-100,4,2,1,80,0,1
69651,-100,4,2,1,80,0,1
70337,-100,4,2,1,5,0,1
70435,-100,4,2,1,80,0,1
71121,-100,4,2,1,5,0,1
71219,-100,4,2,1,80,0,0
72788,-100,4,2,1,80,0,0
72935,-100,4,2,1,5,0,0
72984,-100,4,2,1,80,0,0
73131,-100,4,2,1,5,0,0
73180,-100,4,2,1,80,0,0
73327,-100,4,2,1,5,0,0
73376,-100,4,2,1,80,0,0
73523,-100,4,2,1,5,0,0
73572,-100,4,2,1,80,0,0
73768,-100,4,2,1,80,0,0
73915,-100,4,2,1,5,0,0
73964,-100,4,2,1,80,0,0
74111,-100,4,2,1,5,0,0
74160,-100,4,2,1,80,0,0
74307,-100,4,2,1,5,0,0
74356,-100,4,2,1,80,0,0
74749,-100,4,2,1,80,0,0
75925,-100,4,2,1,80,0,0
76072,-100,4,2,1,5,0,0
76121,-100,4,2,1,80,0,0
76268,-100,4,2,1,5,0,0
76317,-100,4,2,1,80,0,0
76464,-100,4,2,1,5,0,0
76513,-100,4,2,1,80,0,0
76660,-100,4,2,1,5,0,0
76709,-100,4,2,1,80,0,0
76906,-100,4,2,1,80,0,0
77053,-100,4,2,1,5,0,0
77102,-100,4,2,1,80,0,0
79455,-100,4,2,1,80,0,0
79847,-100,4,2,1,80,0,0
80239,-100,4,2,1,80,0,0
82984,-100,4,2,1,80,0,0
83768,-100,4,2,1,80,0,0
86906,-100,4,2,1,5,0,0

[Colours]
Combo1 : 240,151,218
Combo2 : 250,131,199
Combo3 : 243,114,153
Combo4 : 235,120,215

[HitObjects]
458,278,44,6,0,B|392:260|345:310|345:310|297:360|231:342,1,250,0|0,0:0|0:0,0:0:0:0:
212,324,632,6,0,L|204:224,1,100,4|0,0:0|0:0,0:0:0:0:
218,204,926,1,8,0:0:0:0:
230,182,1024,2,0,L|222:82,1,100,8|8,0:0|0:0,0:0:0:0:
220,57,1318,2,0,P|170:73|123:63,1,100,8|8,0:0|0:0,0:0:0:0:
102,52,1612,1,0,0:0:0:0:
47,136,1808,1,8,0:0:0:0:
85,228,2004,1,8,0:0:0:0:
85,228,2102,1,8,0:0:0:0:
85,228,2200,6,0,L|76:328,1,100,12|0,0:2|0:0,0:0:0:0:
74,352,2494,1,8,0:0:0:0:
72,376,2592,2,0,P|120:359|167:368,1,100,8|8,0:0|0:0,0:0:0:0:
192,369,2886,2,0,P|240:386|287:377,2,100,8|8|8,0:0|0:0|0:0,0:0:0:0:
189,343,3377,2,0,L|175:240,1,100,8|8,0:0|0:0,0:0:0:0:
173,219,3671,1,8,0:0:0:0:
170,194,3769,6,0,P|232:219|309:195,1,150,12|8,0:2|0:0,0:0:0:0:
320,173,4161,2,0,L|335:73,1,100,8|8,0:0|0:0,0:0:0:0:
340,49,4455,2,0,P|387:59|435:44,2,100,8|8|8,0:0|0:0|0:0,0:0:0:0:
320,33,4945,2,0,L|222:18,1,100,8|8,0:0|0:0,0:0:0:0:
197,25,5239,1,8,0:0:0:0:
197,25,5337,6,0,B|147:65|147:65|160:200,3,200,12|8|8|8,0:2|0:2|0:2|0:2,0:0:0:0:
123,293,6906,6,0,P|168:278|220:285,1,100,4|8,1:2|0:0,0:0:0:0:
262,310,7200,1,0,0:0:0:0:
262,310,7298,2,0,L|361:296,1,100,0|8,1:0|0:0,0:0:0:0:
457,320,7690,2,0,P|472:275|465:223,1,100,0|8,1:2|0:0,0:0:0:0:
433,185,7984,1,0,0:0:0:0:
433,185,8082,2,0,L|442:133,2,50,0|0|8,1:0|1:0|0:0,0:0:0:0:
490,35,8474,6,0,P|449:53|393:44,1,100,0|12,1:0|1:2,0:0:0:0:
355,16,8768,1,0,0:0:0:0:
355,16,8866,2,0,L|252:27,1,100,0|12,1:0|1:2,0:0:0:0:
209,6,9160,1,0,0:0:0:0:
209,6,9258,2,0,L|199:57,2,50,0|0|12,1:0|1:0|1:2,0:0:0:0:
118,48,9651,1,0,1:0:0:0:
22,19,9847,1,12,1:2:0:0:
54,113,10043,6,0,P|65:161|51:210,1,100,4|8,1:2|0:0,0:0:0:0:
19,246,10337,1,0,0:0:0:0:
19,246,10435,2,0,L|33:346,1,100,0|8,1:0|0:0,0:0:0:0:
130,368,10827,2,0,L|144:268,1,100,0|8,1:2|0:0,0:0:0:0:
169,226,11121,1,0,0:0:0:0:
169,226,11219,2,0,L|162:176,2,50,0|0|8,1:0|1:0|0:0,0:0:0:0:
255,275,11611,5,0,1:0:0:0:
349,241,11807,1,12,1:2:0:0:
410,319,12004,1,0,1:0:0:0:
503,285,12200,1,12,1:2:0:0:
499,186,12396,2,0,L|495:137,2,50,0|0|12,1:0|1:0|1:2,0:0:0:0:
490,35,12788,1,0,1:0:0:0:
458,55,12886,1,0,1:0:0:0:
422,64,12984,1,12,1:2:0:0:
385,61,13082,1,8,1:2:0:0:
351,46,13180,6,0,L|246:38,1,100,4|8,1:2|0:0,0:0:0:0:
158,1,13572,1,0,1:0:0:0:
190,95,13768,2,0,P|217:189|181:280,2,200,8|8|8,0:0|0:0|0:0,0:0:0:0:
117,343,14749,6,0,P|158:366|216:362,1,100,0|8,1:2|0:0,0:0:0:0:
256,345,15043,1,0,0:0:0:0:
256,345,15141,2,0,L|356:368,1,100,0|8,1:0|0:0,0:0:0:0:
403,362,15435,1,0,0:0:0:0:
403,362,15533,2,0,P|423:317|415:269,1,100,0|8,1:2|0:0,0:0:0:0:
471,154,15925,1,0,1:0:0:0:
440,176,16023,1,0,1:0:0:0:
405,186,16121,1,8,0:0:0:0:
367,183,16219,1,8,0:0:0:0:
333,168,16317,5,4,1:2:0:0:
274,88,16513,1,8,0:0:0:0:
274,88,16611,1,8,0:0:0:0:
274,88,16709,2,0,B|207:92|207:92|155:134|155:134|88:138,1,200,8|4,0:0|1:2,0:0:0:0:
21,212,17298,2,0,L|28:263,1,50,8|8,0:0|0:0,0:0:0:0:
39,310,17494,2,0,B|106:314|106:314|158:356|158:356|225:360,1,200,8|0,0:0|1:0,0:0:0:0:
279,276,18082,6,0,P|332:274|374:295,1,100,12|0,0:0|0:0,0:0:0:0:
297,179,18376,2,0,P|246:184|206:209,1,100,8|0,0:0|0:0,0:0:0:0:
373,294,18670,2,0,L|401:95,1,200,12|0,0:0|1:0,0:0:0:0:
400,95,19455,6,0,B|332:104|332:104|275:77|275:77|207:86,1,200,4|0,0:0|0:0,0:0:0:0:
207,85,20435,6,0,B|164:68|164:68|192:224|192:224|226:194,1,250,0|0,0:0|0:0,0:0:0:0:
207,85,21023,2,0,B|138:93|138:93|90:134|90:134|22:143,1,200,4|0,0:0|0:0,0:0:0:0:
23,143,22004,6,0,L|15:93,2,50,0|0|0,0:0|0:0|0:0,0:0:0:0:
0,272,22396,2,0,P|39:274|70:290,1,75,0|0,0:0|0:0,0:0:0:0:
81,310,22592,6,0,L|278:276,1,200,4|0,0:0|0:0,0:0:0:0:
278,275,23572,2,0,B|312:279|312:279|336:299|336:299|370:304,2,100,0|0|0,0:0|0:0|0:0,0:0:0:0:
450,354,24160,6,0,P|409:291|419:219,1,150,4|0,0:0|0:0,0:0:0:0:
444,176,24553,2,0,P|371:195|306:163,1,150,4|0,0:0|0:0,0:0:0:0:
283,119,24945,2,0,P|235:177|164:190,1,150,4|0,0:0|0:0,0:0:0:0:
117,179,25338,2,0,P|157:241|148:314,1,150,4|0,0:0|0:0,0:0:0:0:
111,347,25729,6,0,L|212:337,1,100,0|8,1:0|0:0,0:0:0:0:
260,331,26023,1,8,0:0:0:0:
260,331,26121,2,0,P|314:328|354:349,1,100,0|8,1:0|0:0,0:0:0:0:
392,379,26415,1,8,0:0:0:0:
392,379,26513,2,0,L|418:272,1,100,0|8,1:0|0:0,0:0:0:0:
506,238,26906,2,0,L|480:131,1,100,0|8,1:0|0:0,0:0:0:0:
460,43,27298,6,0,P|416:64|362:58,1,100,0|8,1:0|0:0,0:0:0:0:
323,33,27592,1,8,0:0:0:0:
323,33,27690,2,0,L|226:58,1,100,0|8,1:0|0:0,0:0:0:0:
135,16,28082,2,0,P|123:59|135:111,1,100,0|8,1:0|0:0,0:0:0:0:
203,184,28474,2,0,P|215:231|203:279,1,100,0|8,1:0|0:0,0:0:0:0:
147,362,28866,6,0,L|251:349,1,100,0|8,1:0|0:0,0:0:0:0:
290,373,29160,1,8,0:0:0:0:
290,373,29258,2,0,L|394:360,1,100,0|8,1:0|0:0,0:0:0:0:
466,295,29651,1,0,1:0:0:0:
417,207,29847,1,8,0:0:0:0:
417,207,29945,1,8,0:0:0:0:
417,207,30043,2,0,L|428:157,3,50,0|0|8|8,1:0|1:0|0:0|0:0,0:0:0:0:
440,109,30435,6,0,B|472:69|459:12|459:12|474:33|497:43,2,150,4|4|4,0:0|0:0|0:0,0:0:0:0:
365,42,31219,2,0,B|317:19|270:50|270:50|223:80|175:57,1,200,4|8,1:2|0:0,0:0:0:0:
130,34,31709,2,0,L|81:45,1,50,8|8,0:0|0:0,0:0:0:0:
17,122,32004,6,0,B|63:164|119:135|119:135|155:205|155:205|211:176|257:218,1,300,0|0,1:0|1:0,0:0:0:0:
317,297,32788,2,0,P|363:308|412:291,2,100,0|0|8,1:0|0:0|0:0,0:0:0:0:
244,366,33376,1,0,0:0:0:0:
150,333,33572,6,0,L|130:34,1,300,0|0,1:0|1:0,0:0:0:0:
213,90,34356,2,0,P|264:102|310:87,1,100,0|0,1:0|0:0,0:0:0:0:
392,33,34749,2,0,P|443:21|489:36,1,100,8|0,0:0|0:0,0:0:0:0:
438,122,35141,6,0,B|389:154|404:215|404:215|470:271|470:271|485:331|436:363,1,300,0|0,1:0|1:0,0:0:0:0:
343,323,35925,2,0,B|296:308|296:308|245:321,1,100,0|0,1:0|0:0,0:0:0:0:
148,339,36317,1,8,0:0:0:0:
148,339,36415,1,0,0:0:0:0:
148,339,36513,1,0,0:0:0:0:
66,281,36709,6,0,L|46:131,1,150,4|0,1:2|0:0,0:0:0:0:
40,82,37102,2,0,L|190:62,1,150,4|0,1:2|0:0,0:0:0:0:
239,56,37494,2,0,L|259:206,1,150,4|0,1:2|0:0,0:0:0:0:
193,274,37886,1,4,1:2:0:0:
231,279,37984,1,0,1:0:0:0:
268,284,38082,1,0,1:0:0:0:
305,289,38180,1,0,0:0:0:0:
342,294,38278,6,0,L|442:275,1,100,0|0,1:0|1:0,0:0:0:0:
482,184,38670,1,8,0:0:0:0:
409,115,38866,1,0,1:0:0:0:
409,115,38964,1,8,0:0:0:0:
409,115,39062,2,0,P|396:66|405:18,2,100,0|0|8,1:0|1:0|0:0,0:0:0:0:
315,78,39651,6,0,B|267:55|220:86|220:86|173:116|125:93,1,200,4|0,0:0|1:0,0:0:0:0:
41,38,40239,1,8,0:0:0:0:
49,137,40435,1,0,1:0:0:0:
42,174,40533,1,8,0:0:0:0:
36,211,40631,1,0,1:0:0:0:
29,248,40729,1,0,0:0:0:0:
23,285,40827,2,0,P|72:279|115:301,1,100,0|8,1:0|0:0,0:0:0:0:
140,344,41121,2,0,L|189:353,1,50,8|0,0:0|1:0,0:0:0:0:
255,278,41415,5,4,0:0:0:0:
256,192,41513,12,0,43768,0:0:0:0:
81,153,43964,6,0,B|152:213|125:298|66:328|22:269|39:228,1,250,0|0,0:0|0:0,0:0:0:0:
32,362,44553,6,0,P|107:364|167:321,2,150,12|8|8,1:2|1:2|1:2,0:0:0:0:
39,227,45337,2,0,L|188:204,2,150,12|8|8,1:2|1:2|1:2,0:0:0:0:
27,69,46121,5,12,1:2:0:0:
61,55,46219,1,8,0:0:0:0:
99,55,46317,1,8,0:0:0:0:
134,68,46415,1,8,0:0:0:0:
163,91,46513,1,8,0:0:0:0:
192,114,46611,1,8,0:0:0:0:
227,127,46709,1,8,0:0:0:0:
265,127,46807,1,8,0:0:0:0:
299,113,46905,1,8,0:0:0:0:
299,113,47690,6,0,P|348:98|395:111,1,100,4|8,1:2|0:0,0:0:0:0:
417,155,47984,2,0,L|397:253,1,100,0|0,0:0|1:0,0:0:0:0:
384,301,48278,2,0,P|357:296|333:301,1,50,8|0,0:0|0:0,0:0:0:0:
293,327,48474,2,0,P|250:350|199:346,1,100,0|8,1:0|0:0,0:0:0:0:
162,313,48768,2,0,L|147:214,1,100,0|0,0:0|1:0,0:0:0:0:
137,164,49062,1,8,0:0:0:0:
209,95,49258,6,0,L|255:111|303:95,1,100,0|8,1:0|0:0,0:0:0:0:
348,67,49553,1,8,0:0:0:0:
348,67,49651,2,0,L|397:79,2,50,0|0|8,1:0|0:0|0:0,0:0:0:0:
450,150,50043,2,0,P|465:200|452:246,1,100,0|8,1:0|0:0,0:0:0:0:
424,285,50337,1,8,0:0:0:0:
424,285,50435,2,0,L|324:304,1,100,0|8,1:0|0:0,0:0:0:0:
233,267,50827,6,0,P|194:244|140:251,1,100,0|8,1:0|0:0,0:0:0:0:
96,270,51121,2,0,L|84:170,1,100,0|0,0:0|1:0,0:0:0:0:
79,120,51415,2,0,P|103:125|127:121,1,50,8|0,0:0|0:0,0:0:0:0:
174,104,51611,2,0,L|271:126,1,100,0|8,1:0|0:0,0:0:0:0:
320,112,51906,2,0,L|341:209,1,100,0|0,0:0|1:0,0:0:0:0:
381,238,52200,2,0,L|370:286,1,50,8|0,0:0|0:0,0:0:0:0:
381,335,52396,6,0,P|334:321|285:335,1,100,0|8,1:0|0:0,0:0:0:0:
242,310,52690,1,8,0:0:0:0:
242,310,52788,2,0,P|195:323|146:310,1,100,0|8,1:0|0:0,0:0:0:0:
93,226,53180,1,0,1:0:0:0:
79,192,53278,1,0,0:0:0:0:
77,154,53376,1,8,0:0:0:0:
90,119,53474,1,8,0:0:0:0:
115,92,53572,1,0,1:0:0:0:
139,87,53670,1,0,0:0:0:0:
164,84,53768,1,8,0:0:0:0:
189,81,53866,1,8,0:0:0:0:
213,77,53964,6,0,P|264:91|310:82,1,100,0|8,1:0|0:0,0:0:0:0:
408,97,54356,2,0,L|419:46,2,50,0|0|8,1:0|1:0|0:0,0:0:0:0:
449,187,54749,2,0,P|395:191|355:216,1,100,0|8,1:0|0:0,0:0:0:0:
336,261,55043,2,0,P|293:285|244:288,1,100,0|0,0:0|1:0,0:0:0:0:
203,258,55337,1,8,0:0:0:0:
114,304,55533,6,0,P|103:253|117:207,1,100,0|8,1:0|0:0,0:0:0:0:
69,120,55925,2,0,L|168:102,1,100,0|8,1:0|0:0,0:0:0:0:
248,44,56317,2,0,P|302:38|340:58,1,100,0|8,1:0|0:0,0:0:0:0:
388,74,56611,2,0,L|368:173,1,100,8|0,0:0|0:0,0:0:0:0:
390,216,56905,2,0,L|399:265,2,50,8|8|0,0:0|0:0|1:0,0:0:0:0:
297,247,57298,6,0,P|265:242|247:245,1,50,0|0,1:0|0:0,0:0:0:0:
206,273,57494,2,0,L|107:258,2,100,12|0|0,1:2|1:0|1:0,0:0:0:0:
30,175,58082,6,0,P|62:180|80:177,1,50,0|0,1:0|0:0,0:0:0:0:
121,149,58278,2,0,L|220:164,1,100,12|0,1:2|1:0,0:0:0:0:
292,94,58670,2,0,L|440:71,2,150,0|0|0,1:0|1:0|1:0,0:0:0:0:
219,163,59455,2,0,B|265:208|326:191|326:191|367:244|367:244|428:227|474:272,1,300,0|0,1:0|1:0,0:0:0:0:
399,338,60239,6,0,P|350:332|304:348,1,100,4|8,1:2|0:0,0:0:0:0:
260,321,60533,2,0,P|213:337|164:331,1,100,0|0,0:0|1:0,0:0:0:0:
134,291,60827,2,0,L|127:242,1,50,8|0,0:0|0:0,0:0:0:0:
121,191,61023,2,0,P|170:185|216:201,1,100,0|8,1:0|0:0,0:0:0:0:
260,174,61317,2,0,P|306:190|355:184,1,100,0|0,0:0|1:0,0:0:0:0:
386,144,61611,2,0,L|393:95,1,50,8|0,0:0|0:0,0:0:0:0:
414,49,61807,6,0,P|365:55|316:41,1,100,0|8,1:0|0:0,0:0:0:0:
276,11,62102,1,8,0:0:0:0:
276,11,62200,2,0,L|223:18,2,50,0|0|8,1:0|0:0|0:0,0:0:0:0:
127,3,62592,2,0,P|148:50|143:98,1,100,0|8,1:0|0:0,0:0:0:0:
82,176,62984,2,0,P|77:225|98:270,1,100,0|8,1:0|0:0,0:0:0:0:
81,368,63376,6,0,L|178:346,1,100,0|8,1:0|0:0,0:0:0:0:
226,331,63670,2,0,P|270:356|319:354,1,100,0|0,0:0|1:0,0:0:0:0:
360,327,63964,1,8,0:0:0:0:
454,358,64160,2,0,L|440:259,1,100,0|8,1:0|0:0,0:0:0:0:
430,210,64454,2,0,P|458:168|461:119,1,100,0|0,0:0|1:0,0:0:0:0:
437,77,64748,1,8,0:0:0:0:
346,32,64945,6,0,P|297:42|249:26,1,100,0|8,1:0|0:0,0:0:0:0:
203,9,65239,1,8,0:0:0:0:
203,9,65337,2,0,L|105:28,1,100,0|8,1:0|0:0,0:0:0:0:
32,97,65729,1,0,1:0:0:0:
16,130,65827,1,0,0:0:0:0:
15,167,65925,1,8,0:0:0:0:
31,201,66023,1,8,0:0:0:0:
59,225,66121,1,0,1:0:0:0:
83,218,66219,1,0,0:0:0:0:
108,219,66317,1,8,0:0:0:0:
131,227,66415,1,8,0:0:0:0:
150,243,66513,6,0,P|200:295|276:295,1,150,0|0,1:0|0:0,0:0:0:0:
311,261,66906,2,0,L|410:250,1,100,8|0,0:0|1:0,0:0:0:0:
479,321,67298,1,0,0:0:0:0:
479,321,67396,2,0,L|497:219,1,100,8|0,0:0|0:0,0:0:0:0:
464,183,67690,1,8,0:0:0:0:
507,92,67886,1,0,1:0:0:0:
507,92,67984,1,8,0:0:0:0:
507,92,68082,6,0,B|472:74|435:86|435:86|397:98|362:80,1,150,0|0,1:0|0:0,0:0:0:0:
325,45,68474,1,8,0:0:0:0:
233,84,68670,1,0,1:0:0:0:
153,23,68866,2,0,B|119:90|145:163|218:182|218:182|140:154|83:218,1,350,0|0,1:0|1:0,0:0:0:0:
66,266,69651,6,0,P|174:352|271:253,1,300,4|0,1:2|0:0,0:0:0:0:
353,312,70435,2,0,L|504:291,2,150,4|0|0,1:2|0:0|0:0,0:0:0:0:
270,256,71219,6,0,P|270:197|285:157,1,100,4|8,1:2|0:0,0:0:0:0:
297,110,71513,1,0,0:0:0:0:
297,110,71611,2,0,P|251:125|201:117,1,100,0|8,1:0|0:0,0:0:0:0:
108,77,72004,2,0,L|119:180,1,100,0|8,1:2|0:0,0:0:0:0:
124,226,72298,1,0,0:0:0:0:
124,226,72396,2,0,L|74:218,2,50,0|0|8,1:0|1:0|0:0,0:0:0:0:
66,307,72788,6,0,L|166:323,1,100,0|12,1:0|1:2,0:0:0:0:
204,352,73082,1,0,0:0:0:0:
204,352,73180,2,0,P|255:362|300:351,1,100,0|12,1:0|1:2,0:0:0:0:
346,331,73474,1,0,0:0:0:0:
346,331,73572,2,0,L|396:349,2,50,0|0|12,1:0|1:0|1:2,0:0:0:0:
313,236,73964,1,0,1:0:0:0:
393,175,74160,1,12,1:2:0:0:
475,232,74356,6,0,P|492:183|479:126,1,100,4|8,1:2|0:0,0:0:0:0:
500,88,74651,1,0,0:0:0:0:
500,88,74749,2,0,L|401:73,1,100,0|8,1:0|0:0,0:0:0:0:
320,13,75141,2,0,L|221:28,1,100,0|8,1:2|0:0,0:0:0:0:
183,60,75435,1,0,0:0:0:0:
183,60,75533,2,0,L|133:52,2,50,0|0|8,1:0|1:0|0:0,0:0:0:0:
210,155,75925,5,0,1:0:0:0:
128,211,76121,1,12,1:2:0:0:
155,306,76317,1,0,1:0:0:0:
253,309,76513,1,12,1:2:0:0:
286,216,76709,2,0,L|336:206,2,50,0|0|12,1:0|1:0|1:2,0:0:0:0:
422,254,77102,1,0,1:0:0:0:
431,218,77200,1,0,1:0:0:0:
428,180,77298,1,12,1:2:0:0:
412,147,77396,1,8,1:2:0:0:
385,121,77494,6,0,L|285:109,1,100,4|8,1:2|0:0,0:0:0:0:
210,43,77886,1,0,1:0:0:0:
131,104,78082,2,0,P|43:106|29:11,2,200,8|8|8,0:0|0:0|0:0,0:0:0:0:
211,162,79062,6,0,P|225:213|210:262,1,100,0|8,1:2|0:0,0:0:0:0:
184,298,79356,1,8,0:0:0:0:
184,298,79455,2,0,L|283:284,1,100,0|8,1:0|0:0,0:0:0:0:
327,307,79749,1,0,0:0:0:0:
327,307,79847,2,0,P|377:320|421:306,1,100,0|8,1:2|0:0,0:0:0:0:
455,268,80141,1,8,0:0:0:0:
455,268,80239,2,0,L|463:209,2,50,0|0|8,1:0|1:0|0:0,0:0:0:0:
494,140,80631,5,4,1:2:0:0:
395,112,80827,1,8,0:0:0:0:
395,112,80925,1,8,0:0:0:0:
395,112,81023,2,0,B|328:116|328:116|276:158|276:158|209:162,1,200,8|4,0:0|1:2,0:0:0:0:
137,93,81611,1,8,0:0:0:0:
137,93,81709,1,8,0:0:0:0:
137,93,81807,2,0,B|177:136|177:136|147:274,1,200,8|0,0:0|1:0,0:0:0:0:
146,274,82396,6,0,P|198:275|241:301,1,100,12|0,0:0|0:0,0:0:0:0:
299,345,82690,2,0,P|247:346|204:372,1,100,8|0,0:0|0:0,0:0:0:0:
107,374,82984,2,0,B|131:336|123:291|123:291|125:283|125:283|122:291|122:291|109:235|65:218,2,200,12|0|4,0:0|1:0|0:0,0:0:0:0:
256,192,83964,12,0,86906,0:0:0:0:
