osu file format v14

[General]
AudioFilename: audio.mp3
AudioLeadIn: 0
PreviewTime: 46906
Countdown: 0
SampleSet: Soft
StackLeniency: 0.2
Mode: 0
LetterboxInBreaks: 0
WidescreenStoryboard: 1

[Editor]
Bookmarks: 4847,83768
DistanceSpacing: 1
BeatDivisor: 2
GridSize: 32
TimelineZoom: 1.600001

[Metadata]
Title:Tenka Toitsu A to Z*
TitleUnicode:天下トーイツ A to Z☆
Artist:Pastel*Palettes
ArtistUnicode:Pastel*Palettes
Creator:Shizuku-
Version:Easy
Source:バンドリ! ガールズバンドパーティ!
Tags:bandori video game japanese BanG Dream! PasuPare パスパレ Paspale パステルパレット ぱすてるぱれっと 丸山彩 Maruyama Aya 大和麻弥 Yamato Maya 若宮イヴ Wakamiya Eve 白鷺千聖 Shirasagi Chisato 氷川日菜 Hikawa Hina 前島亜美 Maeshima Ami 中上育美 Nakagami Ikumi 秦佐和子 Hata Sawako 上坂すみれ Uesaka Sumire 小澤亜李 Ozawa Ari
BeatmapID:2011737
BeatmapSetID:909777

[Difficulty]
HPDrainRate:5
CircleSize:2.5
OverallDifficulty:3
ApproachRate:3
SliderMultiplier:0.48
SliderTickRate:0.5

[Events]
//Background and Video events
0,0,"SNS_Glory__T.png",0,0
//Break Periods
//Storyboard Layer 0 (Background)
//Storyboard Layer 1 (Fail)
//Storyboard Layer 2 (Pass)
//Storyboard Layer 3 (Foreground)
//Storyboard Sound Samples

[TimingPoints]
44,392.156862745098,4,2,1,80,1,0
44,-50,4,2,1,80,0,0
534,-50,4,2,1,5,0,0
632,392.156862745098,4,2,1,80,1,0
632,-50,4,2,1,80,0,0
926,-50,4,2,1,50,0,0
2200,-50,4,2,1,80,0,0
2494,-50,4,2,1,50,0,0
2592,-50,4,2,1,50,0,0
3769,-50,4,2,1,80,0,0
4063,-50,4,2,1,50,0,0
5337,-50,4,2,1,80,0,0
5632,-50,4,2,1,5,0,0
5730,-50,4,2,1,80,0,0
6024,-50,4,2,1,5,0,0
6122,-50,4,2,1,80,0,0
6416,-50,4,2,1,5,0,0
6514,-50,4,2,1,80,0,0
6612,-50,4,2,1,5,0,0
6906,196.078431372549,4,2,1,80,1,0
6906,-100,4,2,1,80,0,0
7298,-100,4,2,1,80,0,0
8474,-100,4,2,1,80,0,0
8621,-100,4,2,1,5,0,0
8670,-100,4,2,1,80,0,0
8817,-100,4,2,1,5,0,0
8866,-100,4,2,1,80,0,0
9013,-100,4,2,1,5,0,0
9062,-100,4,2,1,80,0,0
9209,-100,4,2,1,5,0,0
9258,-100,4,2,1,80,0,0
9455,-100,4,2,1,80,0,0
9602,-100,4,2,1,5,0,0
9651,-100,4,2,1,80,0,0
9798,-100,4,2,1,5,0,0
9847,-100,4,2,1,80,0,0
9994,-100,4,2,1,5,0,0
10043,-100,4,2,1,80,0,0
11611,-100,4,2,1,80,0,0
11758,-100,4,2,1,5,0,0
11807,-100,4,2,1,80,0,0
11955,-100,4,2,1,5,0,0
12004,-100,4,2,1,80,0,0
12151,-100,4,2,1,5,0,0
12200,-100,4,2,1,80,0,0
12347,-100,4,2,1,5,0,0
12396,-100,4,2,1,80,0,0
12592,-100,4,2,1,80,0,0
12788,-100,4,2,1,80,0,0
15141,-100,4,2,1,80,0,0
15533,-100,4,2,1,80,0,0
18082,-100,4,2,1,80,0,0
18278,-100,4,2,1,5,0,0
18376,-100,4,2,1,80,0,0
18572,-100,4,2,1,5,0,0
18670,-100,4,2,1,80,0,0
19455,-100,4,2,1,80,0,0
19847,-100,4,2,1,5,0,0
20435,-100,4,2,1,80,0,0
20925,-100,4,2,1,5,0,0
21023,-100,4,2,1,80,0,0
21415,-100,4,2,1,5,0,0
22004,-100,4,2,1,80,0,0
22053,-100,4,2,1,5,0,0
22102,-100,4,2,1,80,0,0
22151,-100,4,2,1,5,0,0
22200,-100,4,2,1,80,0,0
22249,-100,4,2,1,5,0,0
22396,-100,4,2,1,80,0,0
22543,-100,4,2,1,5,0,0
22592,-100,4,2,1,80,0,0
22984,-100,4,2,1,5,0,0
23572,-100,4,2,1,80,0,0
24111,-100,4,2,1,5,0,0
24160,-100,4,2,1,80,0,0
24455,-100,4,2,1,5,0,0
24553,-100,4,2,1,80,0,0
24847,-100,4,2,1,5,0,0
24945,-100,4,2,1,80,0,0
25239,-100,4,2,1,5,0,0
25337,-100,4,2,1,80,0,0
25631,-100,4,2,1,5,0,0
25729,-100,4,2,1,80,0,0
32004,-100,4,2,1,80,0,0
36709,-100,4,2,1,80,0,0
37004,-100,4,2,1,5,0,0
37102,-100,4,2,1,80,0,0
37396,-100,4,2,1,5,0,0
37494,-100,4,2,1,80,0,0
37788,-100,4,2,1,5,0,0
37886,-100,4,2,1,80,0,0
38866,-100,4,2,1,80,0,0
39651,-100,4,2,1,80,0,0
41415,-100,4,2,1,80,0,0
43866,-100,4,2,1,5,0,0
43964,-100,4,2,1,80,0,0
44455,-100,4,2,1,5,0,0
44553,-100,4,2,1,80,0,0
47690,-100,4,2,1,80,0,1
57298,-100,4,2,1,80,0,1
57347,-100,4,2,1,5,0,1
57494,-100,4,2,1,80,0,1
57641,-100,4,2,1,5,0,1
57690,-100,4,2,1,80,0,1
57837,-100,4,2,1,5,0,1
57886,-100,4,2,1,80,0,1
58082,-100,4,2,1,80,0,1
58131,-100,4,2,1,5,0,1
58278,-100,4,2,1,80,0,1
58425,-100,4,2,1,5,0,1
58474,-100,4,2,1,80,0,1
58621,-100,4,2,1,5,0,1
58670,-100,4,2,1,80,0,1
58719,-100,4,2,1,5,0,1
58964,-100,4,2,1,80,0,1
59013,-100,4,2,1,5,0,1
59258,-100,4,2,1,80,0,1
59307,-100,4,2,1,5,0,1
59455,-100,4,2,1,80,0,1
60239,-100,4,2,1,80,0,1
65092,-100,4,2,1,5,0,1
65141,-100,4,2,1,80,0,1
65337,-100,4,2,1,80,0,1
65484,-100,4,2,1,5,0,1
65533,-100,4,2,1,80,0,1
66513,-100,4,2,1,80,0,1
69651,-100,4,2,1,80,0,1
70337,-100,4,2,1,5,0,1
70435,-100,4,2,1,80,0,1
71121,-100,4,2,1,5,0,1
71219,-100,4,2,1,80,0,0
72788,-100,4,2,1,80,0,0
72935,-100,4,2,1,5,0,0
72984,-100,4,2,1,80,0,0
73131,-100,4,2,1,5,0,0
73180,-100,4,2,1,80,0,0
73327,-100,4,2,1,5,0,0
73376,-100,4,2,1,80,0,0
73523,-100,4,2,1,5,0,0
73572,-100,4,2,1,80,0,0
73768,-100,4,2,1,80,0,0
73915,-100,4,2,1,5,0,0
73964,-100,4,2,1,80,0,0
74111,-100,4,2,1,5,0,0
74160,-100,4,2,1,80,0,0
74307,-100,4,2,1,5,0,0
74356,-100,4,2,1,80,0,0
74749,-100,4,2,1,80,0,0
75925,-100,4,2,1,80,0,0
76072,-100,4,2,1,5,0,0
76121,-100,4,2,1,80,0,0
76268,-100,4,2,1,5,0,0
76317,-100,4,2,1,80,0,0
76464,-100,4,2,1,5,0,0
76513,-100,4,2,1,80,0,0
76660,-100,4,2,1,5,0,0
76709,-100,4,2,1,80,0,0
76906,-100,4,2,1,80,0,0
77053,-100,4,2,1,5,0,0
77102,-100,4,2,1,80,0,0
79455,-100,4,2,1,80,0,0
79847,-100,4,2,1,80,0,0
80239,-100,4,2,1,80,0,0
82984,-100,4,2,1,80,0,0
83768,-100,4,2,1,80,0,0
86906,-100,4,2,1,5,0,0

[Colours]
Combo1 : 240,151,218
Combo2 : 250,131,199
Combo3 : 243,114,153
Combo4 : 235,120,215

[HitObjects]
443,53,632,6,0,P|401:30|353:30,1,96,4|8,0:0|0:0,0:0:0:0:
289,62,1318,2,0,L|267:179,1,120,8|8,0:0|0:0,0:0:0:0:
330,251,2200,6,0,P|291:272|239:271,1,96,12|8,0:2|0:0,0:0:0:0:
177,235,2886,2,0,L|55:253,1,120,8|8,0:0|0:0,0:0:0:0:
52,156,3769,6,0,L|149:141,1,96,12|8,0:2|0:0,0:0:0:0:
218,153,4455,2,0,L|240:36,1,120,8|8,0:0|0:0,0:0:0:0:
335,45,5337,6,0,L|430:34,1,96,12|8,0:2|0:2,0:0:0:0:
443,129,6122,2,0,L|348:140,1,96,8|8,0:2|0:2,0:0:0:0:
298,222,6906,6,0,P|283:266|289:315,2,96,4|0|0,1:2|1:0|1:2,0:0:0:0:
377,275,8082,1,0,1:0:0:0:
403,133,8670,6,0,L|307:117,1,96,12|12,1:2|1:2,0:0:0:0:
249,41,9455,2,0,L|153:57,1,96,12|12,1:2|1:2,0:0:0:0:
108,43,10043,6,0,P|91:87|100:133,1,96,4|0,1:2|1:0,0:0:0:0:
164,204,10827,2,0,L|148:300,1,96,0|0,1:2|1:0,0:0:0:0:
274,367,11807,6,0,P|316:350|365:355,1,96,12|12,1:2|1:2,0:0:0:0:
458,381,12592,2,0,P|475:339|470:290,1,96,12|12,1:2|1:2,0:0:0:0:
433,257,13180,6,0,L|424:161,1,96,4|0,1:2|1:0,0:0:0:0:
446,119,13768,2,0,P|377:132|312:104,1,144,8|0,0:0|1:0,0:0:0:0:
257,23,14749,6,0,L|161:32,1,96,0|0,1:2|1:0,0:0:0:0:
75,75,15533,2,0,P|69:124|85:166,1,96,0|0,1:2|1:0,0:0:0:0:
158,228,16317,6,0,L|142:322,1,96,4|8,1:2|0:0,0:0:0:0:
222,375,17102,2,0,P|310:343|398:375,1,192,4|0,1:2|1:0,0:0:0:0:
440,351,18082,6,0,L|453:278,1,72,12|8,0:0|0:0,0:0:0:0:
466,209,18670,2,0,P|421:221|374:211,1,96,12|0,0:0|1:0,0:0:0:0:
310,138,19455,6,0,B|255:110|195:141|195:141|139:169|79:138,1,240,4|0,0:0|0:0,0:0:0:0:
56,280,21023,2,0,B|142:311|223:276|223:276|232:314|219:345,1,240,4|0,0:0|0:0,0:0:0:0:
310,374,22396,1,0,0:0:0:0:
310,374,22592,2,0,B|335:302|309:234|309:234|332:283|379:295,1,240,4|0,0:0|0:0,0:0:0:0:
506,226,24160,6,0,P|514:186|497:132,1,96,4|4,0:0|0:0,0:0:0:0:
419,79,24945,2,0,L|323:97,1,96,4|4,0:0|0:0,0:0:0:0:
244,149,25729,6,0,P|229:106|238:57,1,96,0|0,1:0|1:0,0:0:0:0:
154,10,26513,2,0,L|59:25,1,96,0|0,1:0|1:0,0:0:0:0:
26,60,27102,1,8,0:0:0:0:
96,124,27494,2,0,P|126:188|112:257,2,144,8|0|8,0:0|1:0|0:0,0:0:0:0:
143,41,29062,2,0,L|237:57,1,96,8|8,0:0|0:0,0:0:0:0:
269,93,29651,2,0,P|314:81|362:92,1,96,0|0,1:0|1:0,0:0:0:0:
442,39,30435,6,0,L|418:180,1,144,4|4,0:0|0:0,0:0:0:0:
442,221,31219,2,0,P|395:210|349:222,1,96,4|8,1:2|0:0,0:0:0:0:
293,299,32004,6,0,P|208:336|119:300,1,192,0|0,1:0|1:0,0:0:0:0:
26,322,33180,1,8,0:0:0:0:
61,232,33572,6,0,P|72:188|59:139,1,96,0|0,1:0|0:0,0:0:0:0:
20,52,34356,2,0,L|116:37,1,96,0|8,1:0|0:0,0:0:0:0:
183,104,35141,6,0,B|236:112|256:159|256:159|276:112|329:104,1,192,0|0,1:0|1:0,0:0:0:0:
417,141,36317,1,8,0:0:0:0:
344,203,36709,2,0,P|331:249|344:294,1,96,4|4,1:2|1:2,0:0:0:0:
304,381,37494,2,0,L|208:381,1,96,4|4,1:2|1:2,0:0:0:0:
167,294,38278,6,0,P|181:248|168:203,2,96,0|8|0,1:0|0:0|1:0,0:0:0:0:
91,171,39651,2,0,L|235:151,1,144,4|8,0:0|0:0,0:0:0:0:
306,88,40631,2,0,P|352:77|399:89,2,96,0|8|4,1:0|0:0|0:0,0:0:0:0:
256,192,41611,12,0,43768,0:0:0:0:
198,84,44553,6,0,L|52:100,2,144,12|8|0,1:2|1:2|0:0,0:0:0:0:
283,40,46121,2,0,P|333:119|298:204,1,192,12|8,1:2|0:0,0:0:0:0:
429,344,47690,6,0,P|383:326|336:326,1,96,4|0,1:2|1:0,0:0:0:0:
250,368,48474,2,0,L|154:353,1,96,0|0,1:0|1:0,0:0:0:0:
114,345,49062,1,8,0:0:0:0:
66,335,49258,6,0,P|52:291|60:243,1,96,0|0,1:0|1:0,0:0:0:0:
140,189,50043,2,0,L|155:95,1,96,0|0,1:0|1:0,0:0:0:0:
121,4,50827,6,0,P|172:-3|215:15,1,96,0|0,1:0|1:0,0:0:0:0:
269,90,51611,2,0,L|364:79,1,96,0|0,1:0|1:0,0:0:0:0:
410,63,52200,1,8,0:0:0:0:
446,93,52396,6,0,L|431:189,1,96,0|0,1:0|1:0,0:0:0:0:
341,222,53180,2,0,L|326:318,1,96,0|0,1:0|1:0,0:0:0:0:
197,382,54160,6,0,P|152:370|124:332,1,96,8|8,0:0|0:0,0:0:0:0:
117,283,54749,2,0,P|80:276|46:283,2,72,0|0|8,1:0|0:0|0:0,0:0:0:0:
168,201,55729,6,0,P|186:157|186:106,1,96,8|8,0:0|0:0,0:0:0:0:
163,66,56317,2,0,L|91:75,2,72,0|8|8,1:0|0:0|0:0,0:0:0:0:
210,57,57102,5,0,1:0:0:0:
295,16,57494,2,0,P|390:12|450:81,1,192,12|12,1:2|1:2,0:0:0:0:
400,162,58670,6,0,L|392:236,2,72,0|0|0,1:0|1:0|1:0,0:0:0:0:
364,129,59455,2,0,P|318:123|273:141,1,96,0|0,1:0|1:0,0:0:0:0:
212,215,60239,6,0,L|117:224,1,96,4|0,1:2|1:0,0:0:0:0:
25,192,61023,2,0,P|18:241|37:281,1,96,0|0,1:0|1:0,0:0:0:0:
77,307,61611,1,8,0:0:0:0:
122,320,61807,6,0,L|217:311,1,96,0|0,1:0|1:0,0:0:0:0:
299,259,62592,2,0,L|394:268,1,96,0|0,1:0|1:0,0:0:0:0:
469,328,63376,6,0,P|488:287|483:237,1,96,0|0,1:0|1:0,0:0:0:0:
412,172,64160,2,0,L|401:75,1,96,0|0,1:0|1:0,0:0:0:0:
393,28,64749,1,8,0:0:0:0:
393,28,64945,6,0,P|341:38|299:28,1,96,0|0,1:0|1:0,0:0:0:0:
233,97,65729,2,0,P|186:87|139:97,1,96,0|0,1:0|1:0,0:0:0:0:
56,48,66513,6,0,P|45:97|56:140,1,96,0|8,1:0|0:0,0:0:0:0:
122,210,67298,2,0,L|107:305,1,96,0|8,0:0|0:0,0:0:0:0:
202,308,68082,6,0,L|213:236,2,72,0|0|0,1:0|0:0|1:0,0:0:0:0:
235,342,68866,2,0,P|285:355|331:349,1,96,0|8,1:0|0:0,0:0:0:0:
418,383,69651,6,0,P|389:293|421:204,1,192,4|4,1:2|1:2,0:0:0:0:
354,24,71219,6,0,L|449:12,2,96,4|0|0,1:2|1:0|1:2,0:0:0:0:
286,92,72396,1,0,1:0:0:0:
161,19,72984,6,0,L|65:30,1,96,12|12,1:2|1:2,0:0:0:0:
43,124,73768,2,0,L|138:135,1,96,12|12,1:2|1:2,0:0:0:0:
185,142,74356,6,0,P|200:185|195:234,1,96,4|0,1:2|1:0,0:0:0:0:
141,314,75141,2,0,P|184:329|233:324,1,96,0|0,1:2|1:0,0:0:0:0:
370,367,76121,6,0,L|384:272,1,96,12|12,1:2|1:2,0:0:0:0:
465,220,76906,2,0,L|451:125,1,96,12|12,1:2|1:2,0:0:0:0:
447,77,77494,6,0,P|404:88|355:77,1,96,4|0,1:2|1:0,0:0:0:0:
321,42,78082,2,0,L|177:27,1,144,8|0,0:0|1:0,0:0:0:0:
85,53,79062,6,0,P|74:94|87:144,1,96,0|0,1:2|1:0,0:0:0:0:
156,211,79847,2,0,P|167:252|154:302,1,96,0|0,1:2|1:0,0:0:0:0:
225,365,80631,6,0,L|321:355,1,96,4|8,1:2|0:0,0:0:0:0:
414,375,81415,2,0,P|457:292|434:199,1,192,4|0,1:2|1:0,0:0:0:0:
402,164,82396,2,0,L|396:93,2,72,12|8|12,0:0|0:0|0:0,0:0:0:0:
309,191,83376,1,0,1:0:0:0:
219,156,83768,5,4,0:0:0:0:
256,192,83866,12,0,86906,0:0:0:0:
