osu file format v14

[General]
AudioFilename: audio.mp3
AudioLeadIn: 0
PreviewTime: 59999
Countdown: 0
SampleSet: Soft
StackLeniency: 0.8
Mode: 0
LetterboxInBreaks: 0
WidescreenStoryboard: 1

[Editor]
DistanceSpacing: 1.3
BeatDivisor: 4
GridSize: 4
TimelineZoom: 3.899998

[Metadata]
Title:Shuwarin*Drea~ming
TitleUnicode:しゅわりん☆どり~みん
Artist:Pastel*Palettes
ArtistUnicode:Pastel*Palettes
Creator:ailv
Version:Hinsvar's Hard
Source:バンドリ!ガールズバンドパーティ!
Tags:girls band party hinsvar nitrous aliv anvil shuwa dreaming alvi lafayla bandori garupa バンドリ! ホシノコドウ Tofu1222
BeatmapID:1648322
BeatmapSetID:785222

[Difficulty]
HPDrainRate:5
CircleSize:4
OverallDifficulty:6
ApproachRate:8
SliderMultiplier:1.4
SliderTickRate:1

[Events]
//Background and Video events
0,0,"shuwa.jpg",0,0
//Break Periods
//Storyboard Layer 0 (Background)
//Storyboard Layer 1 (Fail)
//Storyboard Layer 2 (Pass)
//Storyboard Layer 3 (Foreground)
//Storyboard Sound Samples

[TimingPoints]
-1202,340.909090909091,4,2,1,30,1,0
-8,-200,4,2,1,30,0,0
5616,-133.333333333333,4,2,1,50,0,0
8173,-100,4,2,1,70,0,0
24195,-133.333333333333,4,2,1,70,0,0
24707,-100,4,2,1,50,0,0
31013,-66.6666666666667,4,2,1,50,0,0
31354,-100,4,2,1,50,0,0
32377,-66.6666666666667,4,2,1,50,0,0
32718,-100,4,2,1,50,0,0
34082,-100,4,2,1,60,0,0
35616,-100,4,2,1,50,0,0
41923,-66.6666666666667,4,2,1,50,0,0
42263,-100,4,2,1,50,0,0
43286,-66.6666666666667,4,2,1,50,0,0
43627,-100,4,2,1,50,0,0
43798,-100,4,2,1,50,0,0
43968,-100,4,2,1,50,0,0
44138,-100,4,2,1,50,0,0
44309,-100,4,2,1,50,0,0
44479,-100,4,2,1,50,0,0
44650,-100,4,2,1,50,0,0
44820,-100,4,2,1,50,0,0
44991,-100,4,2,1,50,0,0
45161,-100,4,2,1,50,0,0
46525,-133.333333333333,4,2,1,40,0,0
50616,-100,4,2,1,50,0,0
57263,-100,4,2,1,60,0,0
60161,-100,4,2,1,80,0,1
66468,-66.6666666666667,4,2,1,80,0,1
66979,-100,4,2,1,80,0,1
67832,-66.6666666666667,4,2,1,80,0,1
68343,-100,4,2,1,80,0,1
76525,-200,4,2,1,60,0,1
77888,-100,4,2,1,60,0,0
79082,-100,4,2,1,70,0,0
94082,-200,4,2,1,40,0,0
96638,-133.333333333333,4,2,1,60,0,0

[Colours]
Combo1 : 235,112,115
Combo2 : 255,157,206
Combo3 : 166,126,239

[HitObjects]
58,40,161,6,0,P|41:91|50:150,1,105,0|2,0:0|0:0,0:0:0:0:
111,200,843,1,2,0:0:0:0:
111,200,1354,1,2,0:0:0:0:
183,150,1525,6,0,P|220:152|259:163,1,70,0|2,0:0|0:0,0:0:0:0:
315,220,2036,2,0,P|352:218|391:207,1,70,2|2,0:0|0:0,0:0:0:0:
425,131,2548,1,0,0:0:0:0:
472,203,2718,1,2,0:0:0:0:
435,282,2888,6,0,P|433:302|437:318,2,35,2|0|0,0:0|0:0|0:0,0:0:0:0:
457,143,3570,2,0,P|457:108|446:75,1,70,0|2,0:0|0:0,0:0:0:0:
315,127,4252,2,0,P|315:162|326:195,1,70,0|2,0:0|0:0,0:0:0:0:
215,282,4934,2,0,P|184:264|150:257,1,70,2|0,0:0|0:0,0:0:0:0:
29,85,5616,6,0,B|88:109|158:65|158:65|228:17|283:49,1,262.500010013581,4|0,3:2|3:0,0:0:0:0:
345,124,6638,1,0,3:0:0:0:
389,31,6809,1,0,3:0:0:0:
389,31,6894,1,0,3:0:0:0:
389,31,6979,1,4,3:2:0:0:
389,31,8173,6,0,P|411:98|388:166,1,140,4|0,3:2|3:0,0:0:0:0:
318,217,8684,1,2,3:2:0:0:
151,144,9025,1,2,3:2:0:0:
318,217,9366,1,0,3:0:0:0:
249,277,9536,6,0,P|186:298|115:273,1,140,2|0,0:0|3:0,0:0:0:0:
77,193,10048,1,2,3:2:0:0:
108,371,10388,1,2,3:2:0:0:
77,193,10729,1,0,0:0:0:0:
159,257,10900,1,0,3:0:0:0:
159,257,10985,1,0,3:0:0:0:
159,257,11070,6,0,P|191:265|234:263,1,70,4|0,3:2|0:0,0:0:0:0:
313,232,11411,1,8,0:0:0:0:
251,164,11582,2,0,P|242:101|284:39,1,140,2|2,0:0|0:0,0:0:0:0:
330,117,12093,1,8,0:0:0:0:
251,164,12263,6,0,B|182:175|182:175|116:147,1,140,2|0,3:2|3:0,0:0:0:0:
51,211,12775,2,0,B|39:243|39:243|45:279,1,70,8|0,0:0|0:0,0:0:0:0:
103,348,13116,1,2,3:2:0:0:
107,351,13286,1,0,0:0:0:0:
196,330,13457,2,0,B|208:298|208:298|202:262,1,70,8|0,0:0|0:0,0:0:0:0:
187,172,13798,5,4,3:2:0:0:
187,172,13968,2,0,P|223:175|263:159,1,70,0|8,0:0|0:0,0:0:0:0:
278,76,14309,2,0,P|330:112|341:192,1,140,2|2,0:0|0:0,0:0:0:0:
279,248,14820,1,8,0:0:0:0:
366,273,14991,6,0,P|426:262|489:213,1,140,2|0,3:2|3:0,0:0:0:0:
500,124,15502,2,0,P|481:93|447:65,1,70,8|0,0:0|0:0,0:0:0:0:
367,48,15843,2,0,L|323:61,3,35,2|0|0|0,3:2|3:0|3:0|3:0,3:0:0:0:
298,61,16184,2,0,L|254:48,3,35,8|0|0|0,3:2|3:0|3:0|3:0,3:0:0:0:
230,61,16525,6,0,B|172:83|172:83|90:74,1,140,4|8,3:2|0:0,0:0:0:0:
23,131,17036,2,0,B|15:166|15:166|21:202,1,70,2|0,0:0|3:0,0:0:0:0:
62,280,17377,1,2,0:0:0:0:
109,201,17548,1,8,0:0:0:0:
149,282,17718,6,0,P|213:306|278:276,1,140,4|0,3:2|3:0,0:0:0:0:
345,220,18229,2,0,P|379:213|415:221,1,70,8|2,0:0|0:0,0:0:0:0:
482,161,18570,2,0,P|497:109|484:59,2,105,0|2|0,3:0|0:0|3:0,0:0:0:0:
408,113,19252,5,4,3:2:0:0:
408,113,19593,2,0,L|338:128,1,70,10|0,3:2|0:0,0:0:0:0:
282,199,19934,2,0,L|212:184,1,70,0|0,3:2|0:0,0:0:0:0:
138,132,20275,2,0,L|68:147,1,70,8|0,3:2|0:0,0:0:0:0:
38,232,20616,6,0,P|72:237|108:247,1,70,2|0,3:2|3:0,0:0:0:0:
156,323,20957,1,8,0:0:0:0:
195,241,21127,2,0,P|261:217|329:242,1,140,2|0,3:2|3:0,0:0:0:0:
375,314,21638,1,8,0:0:0:0:
416,232,21809,6,0,B|424:185|424:185|418:138|418:138|428:91,1,140,4|0,3:2|3:0,0:0:0:0:
360,32,22320,2,0,B|329:45|329:45|292:51,1,70,8|0,0:0|0:0,0:0:0:0:
201,34,22661,2,0,L|164:25,4,35,2|0|0|0|0,3:2|3:0|3:0|3:0|3:0,3:0:0:0:
236,118,23173,5,6,3:2:0:0:
165,344,23513,1,6,3:2:0:0:
143,106,23854,1,6,3:2:0:0:
258,306,24195,6,0,P|308:308|357:281,1,105.000004005432,6|0,3:2|0:0,0:0:0:0:
392,198,24707,5,4,3:2:0:0:
392,198,25048,2,0,P|392:162|384:127,1,70,8|0,0:0|0:0,0:0:0:0:
328,57,25388,1,0,3:0:0:0:
328,57,25559,1,0,3:0:0:0:
244,91,25729,2,0,P|205:92|171:84,1,70,8|0,0:0|0:0,0:0:0:0:
91,48,26070,6,0,P|32:81|9:152,1,140,2|8,3:2|0:0,0:0:0:0:
66,217,26582,1,2,0:0:0:0:
145,173,26752,1,0,3:0:0:0:
145,173,26923,1,0,3:0:0:0:
183,255,27093,2,0,P|219:259|254:249,1,70,8|0,0:0|0:0,0:0:0:0:
315,185,27434,6,0,P|385:184|450:212,1,140,2|8,3:2|0:0,3:0:0:0:
446,302,27945,1,0,0:0:0:0:
373,357,28116,1,0,3:0:0:0:
286,331,28286,2,0,P|277:296|282:250,1,70,0|8,3:0|0:0,0:0:0:0:
202,212,28627,6,0,P|207:156|257:82,1,140,2|0,3:2|3:0,0:0:0:0:
342,91,29138,2,0,P|357:122|363:164,1,70,8|0,0:0|0:0,0:0:0:0:
373,247,29479,1,2,3:2:0:0:
447,193,29650,1,0,0:0:0:0:
460,282,29820,2,0,P|440:316|406:335,1,70,8|0,0:0|0:0,0:0:0:0:
323,327,30161,6,0,B|253:312|253:312|184:338,1,140,4|8,0:0|0:0,0:0:0:0:
105,297,30673,2,0,B|94:262|94:262|103:228,1,70,0|0,0:0|3:0,0:0:0:0:
135,146,31013,5,4,0:0:0:0:
135,146,31184,2,0,P|183:135|238:114,1,105.000004005432,4|0,0:0|0:0,0:0:0:0:
327,122,31525,6,0,B|350:182|350:182|363:256,1,140,4|8,3:2|0:0,0:0:0:0:
304,326,32036,2,0,B|270:312|270:312|231:311,1,70,0|0,0:0|3:0,0:0:0:0:
153,339,32377,5,0,0:0:0:0:
153,339,32548,2,0,P|104:315|68:280,1,105.000004005432,4|4,0:0|0:0,0:0:0:0:
109,200,32888,6,0,P|172:183|236:147,1,140,4|8,3:2|0:0,0:0:0:0:
323,116,33400,2,0,P|356:124|396:146,1,70,2|0,0:0|3:0,0:0:0:0:
442,222,33741,1,0,3:0:0:0:
477,138,33911,1,8,0:0:0:0:
442,222,34082,6,0,P|380:253|307:264,1,140,6|0,0:0|3:0,0:0:0:0:
232,217,34593,1,0,3:0:0:0:
223,35,34934,1,2,0:0:0:0:
232,217,35275,2,0,P|211:250|185:270,1,70,2|0,0:0|0:0,0:0:0:0:
96,249,35616,6,0,P|75:188|88:110,1,140,4|8,3:2|0:0,0:0:0:0:
159,59,36127,1,0,0:0:0:0:
225,121,36298,2,0,P|260:118|294:107,2,70,2|0|8,3:2|0:0|0:0,0:0:0:0:
164,189,36809,1,0,0:0:0:0:
210,266,36979,6,0,B|250:279|250:279|306:274|306:274|348:288,1,140,2|8,3:2|0:0,0:0:0:0:
403,358,37491,1,0,0:0:0:0:
477,306,37661,1,2,3:2:0:0:
420,234,37832,1,0,3:0:0:0:
345,287,38002,2,0,B|307:288|307:288|276:274,1,70,10|0,0:0|0:0,0:0:0:0:
227,199,38343,6,0,B|204:135|204:135|218:58,1,140,2|8,3:2|0:0,0:0:0:0:
294,15,38854,1,0,0:0:0:0:
347,88,39025,1,2,3:2:0:0:
433,61,39195,2,0,B|463:74|463:74|490:100,1,70,0|8,3:0|0:0,0:0:0:0:
475,190,39536,6,0,P|416:218|337:197,1,140,2|0,3:2|3:0,0:0:0:0:
276,141,40048,2,0,L|264:72,1,70,8|0,0:0|0:0,0:0:0:0:
192,16,40388,1,2,3:2:0:0:
86,164,40729,2,0,L|74:233,1,70,10|0,0:0|0:0,0:0:0:0:
113,321,41070,6,0,P|176:301|252:295,1,140,4|8,3:2|0:0,0:0:0:0:
294,215,41582,2,0,P|271:193|234:171,1,70,0|0,0:0|3:0,0:0:0:0:
205,89,41923,5,0,0:0:0:0:
205,89,42093,2,0,P|249:70|308:56,1,105.000004005432,4|4,0:0|0:0,0:0:0:0:
384,99,42434,6,0,P|408:166|403:235,1,140,4|8,3:2|0:0,0:0:0:0:
318,267,42945,2,0,P|286:254|249:247,1,70,0|0,0:0|3:0,0:0:0:0:
173,291,43286,5,0,0:0:0:0:
173,291,43457,2,0,P|119:291|68:272,1,105.000004005432,4|4,0:0|0:0,0:0:0:0:
47,185,43798,6,0,P|71:165|106:147,1,70,4|0,3:2|0:0,0:0:0:0:
177,202,44138,2,0,P|204:217|241:229,1,70,4|0,3:2|0:0,0:0:0:0:
300,159,44479,2,0,P|329:148|368:143,1,70,4|0,3:2|0:0,0:0:0:0:
411,223,44820,2,0,P|441:228|481:226,1,70,4|0,3:2|0:0,0:0:0:0:
505,138,45161,6,0,P|496:69|456:8,1,140,4|0,0:0|0:0,0:0:0:0:
366,12,45673,2,0,P|328:70|319:139,1,140,4|0,3:2|0:0,0:0:0:0:
334,228,46184,1,0,3:0:0:0:
274,296,46354,1,0,3:0:0:0:
186,316,46525,6,0,P|138:302|96:260,1,105.000004005432,4|2,3:2|0:0,0:0:0:0:
68,180,47036,1,0,3:0:0:0:
68,180,47207,2,0,P|78:127|69:69,1,105.000004005432,2|0,0:0|3:0,0:0:0:0:
139,18,47718,5,2,3:2:0:0:
171,100,47888,2,0,P|186:122|208:142,1,52.5000020027161,0|0,0:0|3:0,0:0:0:0:
214,228,48229,2,0,P|238:239|267:245,1,52.5000020027161,2|0,0:0|3:0,0:0:0:0:
339,198,48570,1,2,0:0:0:0:
339,198,48911,2,0,P|344:172|339:143,1,52.5000020027161,0|0,3:0|0:0,0:0:0:0:
285,75,49252,6,0,P|231:70|180:44,1,105.000004005432,2|0,3:2|3:0,0:0:0:0:
104,9,49763,1,0,3:0:0:0:
62,88,49934,2,0,P|54:116|54:146,1,52.5000020027161,2|0,3:2|0:0,0:0:0:0:
86,222,50275,1,0,3:0:0:0:
241,127,50616,5,6,3:2:0:0:
295,300,50957,2,0,P|325:284|367:275,1,70,0|4,0:0|0:0,0:0:0:0:
428,335,51298,1,2,0:0:0:0:
366,164,51638,2,0,P|374:130|392:96,1,70,4|0,0:0|0:0,0:0:0:0:
357,13,51979,6,0,P|304:32|221:27,1,140,4|8,3:2|0:0,0:0:0:0:
132,6,52491,1,2,0:0:0:0:
165,96,52661,1,0,3:0:0:0:
165,96,52832,1,0,3:0:0:0:
75,111,53002,2,0,P|42:129|17:151,1,70,10|0,0:0|0:0,0:0:0:0:
8,241,53343,6,0,P|23:311|64:377,1,140,2|8,3:2|0:0,0:0:0:0:
145,345,53854,1,0,0:0:0:0:
217,290,54025,2,0,P|222:258|217:213,2,70,0|2|8,3:0|0:0|0:0,0:0:0:0:
279,356,54536,6,0,P|349:351|420:327,1,140,4|0,0:0|3:0,0:0:0:0:
441,241,55048,1,2,3:2:0:0:
406,62,55388,1,2,3:2:0:0:
441,241,55729,1,0,3:0:0:0:
350,254,55900,6,0,P|282:231|226:189,1,140,2|0,3:2|0:0,0:0:0:0:
172,117,56411,1,2,0:0:0:0:
36,238,56752,2,0,P|27:272|25:308,2,70,2|0|0,0:0|0:0|0:0,0:0:0:0:
98,171,57263,6,0,P|112:100|75:45,1,140,4|0,0:0|0:0,0:0:0:0:
22,120,57775,1,2,3:2:0:0:
125,286,58116,1,2,3:2:0:0:
206,246,58286,2,0,P|221:218|233:182,1,70
305,126,58627,6,0,P|332:188|346:260,1,140,2|0,3:2|0:0,0:0:0:0:
308,342,59138,1,0,0:0:0:0:
438,142,59479,5,4,0:0:0:0:
438,142,60161,6,0,P|369:152|304:125,1,140,4|8,3:2|0:0,0:0:0:0:
255,48,60673,1,0,0:0:0:0:
217,130,60843,2,0,P|184:141|142:146,2,70,2|0|8,3:2|0:0|0:0,0:0:0:0:
266,206,61354,1,0,0:0:0:0:
306,286,61525,6,0,P|371:272|451:282,1,140,2|8,3:2|0:0,0:0:0:0:
500,208,62036,2,0,P|480:178|467:144,1,70,2|0,0:0|3:0,0:0:0:0:
481,56,62377,1,0,0:0:0:0:
397,93,62548,2,0,P|363:83|326:66,1,70,8|0,0:0|0:0,0:0:0:0:
267,133,62888,6,0,P|205:155|122:162,1,140,2|8,3:2|0:0,0:0:0:0:
63,100,63400,1,0,0:0:0:0:
47,193,63570,1,2,3:2:0:0:
47,193,63741,1,0,3:0:0:0:
114,253,63911,1,0,0:0:0:0:
72,334,64082,6,0,B|116:348|142:338|142:338|167:328|209:346,1,140,4|0,3:2|3:0,0:0:0:0:
296,370,64593,2,0,P|332:369|370:354,1,70,8|0,0:0|0:0,0:0:0:0:
426,291,64934,1,2,0:0:0:0:
374,215,65104,1,0,3:0:0:0:
430,143,65275,2,0,L|437:108,2,35,8|0|0,3:2|0:2|0:2,0:0:0:0:
340,124,65616,6,0,P|279:88|232:36,1,140,4|8,3:2|0:0,0:0:0:0:
150,76,66127,2,0,P|150:111|161:149,1,70,0|2,3:0|0:0,0:0:0:0:
98,267,66468,5,4,3:2:0:0:
98,267,66638,2,0,P|143:259|197:232,1,105.000004005432,4|0,3:2|0:0,0:0:0:0:
272,183,66979,6,0,P|341:188|409:210,1,140,2|8,3:2|0:0,0:0:0:0:
369,292,67491,2,0,P|335:304|305:322,1,70,0|2,3:0|0:0,0:0:0:0:
178,370,67832,5,4,3:2:0:0:
178,370,68002,2,0,P|200:325|214:267,1,105.000004005432,4|0,3:2|0:0,0:0:0:0:
169,191,68343,6,0,P|174:127|235:83,1,140,2|8,3:2|0:0,0:0:0:0:
349,222,69025,2,0,P|344:286|283:330,1,140,2|8,3:2|0:0,0:0:0:0:
132,231,69707,6,0,P|99:240|64:259,1,70,2|0,3:2|0:0,0:0:0:0:
7,188,70048,2,0,P|26:117|65:58,1,140,4|0,0:0|3:0,0:0:0:0:
142,104,70559,1,0,3:0:0:0:
198,32,70729,1,4,0:0:0:0:
282,87,70900,1,0,3:0:0:0:
282,87,70985,1,0,3:0:0:0:
282,87,71070,6,0,B|350:107|350:107|414:78,1,140,4|8,3:2|0:0,0:0:0:0:
483,137,71582,1,0,0:0:0:0:
449,221,71752,2,0,B|440:255|440:255|448:292,1,70,0|2,3:0|0:0,0:0:0:0:
359,315,72093,2,0,B|348:281|348:281|323:256,1,70,8|0,0:0|0:0,0:0:0:0:
240,218,72434,6,0,B|196:223|196:223|149:247|149:247|105:252,1,140,2|8,3:2|0:0,0:0:0:0:
129,340,72945,2,0,B|173:335|173:335|220:311|220:311|264:306,1,140,2|0,0:0|0:0,0:0:0:0:
339,255,73457,1,8,0:0:0:0:
393,327,73627,1,0,0:0:0:0:
470,279,73798,6,0,P|475:245|466:207,1,70,2|0,0:0|0:0,0:0:0:0:
400,148,74138,2,0,P|395:114|404:76,1,70,8|2,0:0|0:0,0:0:0:0:
328,25,74479,2,0,P|258:42|180:51,1,140,0|8,3:0|0:0,0:0:0:0:
109,7,74991,1,0,0:0:0:0:
111,97,75161,6,0,P|96:127|71:160,1,70,2|0,3:2|0:0,0:0:0:0:
14,225,75502,1,8,0:0:0:0:
148,348,75843,2,0,P|182:336|227:332,1,70,2|0,3:2|0:0,0:0:0:0:
298,369,76184,1,8,0:0:0:0:
343,290,76354,1,0,0:0:0:0:
426,340,76525,6,0,B|478:328|501:287|501:287|456:242|448:200|483:139,1,245,4|0,0:0|3:0,0:0:0:0:
476,151,77803,1,0,3:0:0:0:
476,151,77888,1,4,3:2:0:0:
486,164,79082,6,0,P|421:156|346:121,1,140,4|0,3:2|0:0,0:0:0:0:
305,47,79593,1,2,3:2:0:0:
136,116,79934,1,2,3:2:0:0:
305,47,80275,1,0,3:0:0:0:
268,130,80445,6,0,P|250:203|259:272,1,140,2|0,0:0|3:0,0:0:0:0:
291,352,80957,1,2,3:2:0:0:
460,284,81298,1,2,3:2:0:0:
291,352,81638,1,0,0:0:0:0:
207,348,81809,1,0,3:0:0:0:
207,348,81894,1,0,3:0:0:0:
207,348,81979,6,0,P|172:338|136:314,1,70,4|0,3:2|0:0,0:0:0:0:
68,268,82320,1,8,0:0:0:0:
141,211,82491,2,0,P|149:140|128:71,1,140,2|2,0:0|0:0,0:0:0:0:
197,13,83002,1,8,0:0:0:0:
273,62,83173,6,0,P|344:52|416:33,1,140,2|0,3:2|3:0,0:0:0:0:
474,99,83684,2,0,P|472:135|457:174,1,70,8|0,0:0|0:0,0:0:0:0:
380,208,84025,2,0,P|348:227|322:259,1,70,2|0,3:2|0:0,0:0:0:0:
275,327,84366,2,0,P|239:315|206:291,1,70,8|0,0:0|0:0,0:0:0:0:
149,231,84707,6,0,P|116:244|81:243,1,70,6|0,3:2|0:0,0:0:0:0:
102,154,85048,1,8,0:0:0:0:
31,95,85218,2,0,P|89:64|163:86,1,140,2|0,0:0|3:0,0:0:0:0:
211,155,85729,1,8,0:0:0:0:
278,94,85900,6,0,B|321:97|321:97|373:112|373:112|419:114,1,140,2|0,3:2|3:0,0:0:0:0:
390,201,86411,2,0,B|354:211|354:211|322:217,1,70,8|0,0:0|0:0,0:0:0:0:
243,264,86752,2,0,L|239:300,3,35,2|0|0|0,3:2|3:0|3:0|3:0,0:0:0:0:
218,327,87093,2,0,L|184:340,3,35,8|0|0|0,3:2|3:0|3:0|3:0,0:0:0:0:
152,352,87434,6,0,P|96:322|19:303,1,140,4|8,3:2|0:0,0:0:0:0:
65,222,87945,1,2,0:0:0:0:
7,151,88116,1,0,3:0:0:0:
96,135,88286,2,0,P|106:99|112:66,1,70,2|8,3:2|0:0,0:0:0:0:
196,32,88627,6,0,P|220:94|236:169,1,140,4|0,3:2|3:0,0:0:0:0:
215,254,89138,1,8,0:0:0:0:
302,226,89309,1,0,0:0:0:0:
285,315,89479,2,0,P|334:340|384:354,2,105,0|2|0,3:0|0:0|3:0,0:0:0:0:
253,229,90161,5,4,3:2:0:0:
253,229,90502,2,0,P|262:197|268:157,1,70,10|0,3:2|0:0,0:0:0:0:
357,175,90843,2,0,P|354:141|346:102,1,70,0|0,3:0|0:0,0:0:0:0:
437,90,91184,2,0,P|423:59|402:25,1,70,8|0,3:2|0:0,0:0:0:0:
306,22,91525,6,0,P|270:22|234:13,1,70,2|0,3:2|0:0,0:0:0:0:
184,97,91866,1,8,0:0:0:0:
87,110,92036,2,0,P|62:137|49:168,1,70,2|0,3:2|3:0,0:0:0:0:
104,240,92377,2,0,P|129:213|142:182,1,70,0|8,3:0|0:0,0:0:0:0:
232,176,92718,6,0,P|252:240|264:326,1,140,4|0,3:2|3:0,0:0:0:0:
348,344,93229,2,0,P|360:310|378:280,1,70,8|0,0:0|0:0,0:0:0:0:
444,218,93570,2,0,L|488:210,4,35,2|0|0|0|0,3:2|3:0|3:0|3:0|3:0,0:0:0:0:
357,187,94082,5,6,3:2:0:0:
256,192,94252,12,0,96298,0:0:0:0:
285,341,96638,5,4,3:2:0:0:
285,341,96809,2,0,B|324:360|359:344|359:344|399:328|441:345,1,157.500006008148,4|0,3:2|0:0,0:0:0:0:
