osu file format v14

[General]
AudioFilename: Shuwarin.mp3
AudioLeadIn: 0
PreviewTime: 60329
Countdown: 0
SampleSet: Soft
StackLeniency: 0.7
Mode: 0
LetterboxInBreaks: 0
WidescreenStoryboard: 0

[Editor]
DistanceSpacing: 1.5
BeatDivisor: 4
GridSize: 16
TimelineZoom: 1.9

[Metadata]
Title:Shuwarin*Drea~ming
TitleUnicode:しゅわりん☆どり〜みん
Artist:Pastel*Palettes
ArtistUnicode:Pastel*Palettes
Creator:Vignette-
Version:Easy
Source:バンドリ! ガールズバンドパーティ!
Tags:BanG Dream! Bandori! Girls Band Party! ガルパ Pasuteru*Paretto PasuPare パスパレ パステル パレット shuwa ぱすてるらいふ 丸山彩 Maruyama Aya 氷川日菜 Hikawa Hina 白鷺千聖 Shirasagi Chisato 大和麻弥 Yamato Maya 若宮イヴ Wakamiya Eve 前島亜美 Maeshima Ami 小澤亜李 Ozawa Ari 上坂すみれ Uesaka Sumire 中上育美 Nakagami Ikumi 秦佐和子 Hata Sawako my angel rize
BeatmapID:2004362
BeatmapSetID:956416

[Difficulty]
HPDrainRate:2
CircleSize:3
OverallDifficulty:3
ApproachRate:4
SliderMultiplier:0.8
SliderTickRate:1

[Events]
//Background and Video events
0,0,"shuwa.jpg",0,0
//Break Periods
//Storyboard Layer 0 (Background)
//Storyboard Layer 1 (Fail)
//Storyboard Layer 2 (Pass)
//Storyboard Layer 3 (Foreground)
//Storyboard Sound Samples

[TimingPoints]
670,340.909090909091,4,2,1,50,1,0
670,-100,4,2,1,50,0,0
8681,-100,4,2,1,70,0,0
25215,-100,4,2,1,60,0,0
47033,-100,4,2,1,50,0,0
51124,-100,4,2,1,70,0,0
52488,-100,4,2,1,60,0,0
57772,-100,4,2,1,70,0,0
60670,-100,4,2,1,80,0,1
70215,-100,4,2,1,80,0,0
71579,-100,4,2,1,80,0,1
78397,-100,4,2,1,70,0,0
79590,-100,4,2,1,70,0,0

[Colours]
Combo1 : 83,244,220
Combo2 : 255,128,255

[HitObjects]
44,91,670,6,0,P|126:58|201:75,1,160,2|0,0:0|0:0,0:0:0:0:
266,121,1692,1,0,0:0:0:0:
335,67,2033,2,0,B|365:49|365:49|457:58,2,120,2|0|0,0:0|0:0|0:0,0:0:0:0:
266,121,3397,6,0,P|264:189|274:214,1,80,2|0,0:0|0:0,0:0:0:0:
341,247,4079,1,2,0:0:0:0:
489,341,4760,2,0,L|402:345,1,80,2|0,0:0|0:0,0:0:0:0:
324,370,5442,1,2,0:0:0:0:
150,338,6124,5,4,3:0:0:0:
150,338,6806,2,0,L|145:245,1,80,0|8,3:0|3:0,0:0:0:0:
141,169,7488,1,4,3:0:0:0:
141,169,8681,6,0,P|214:146|268:161,1,120,4|12,3:0|3:0,0:0:0:0:
332,196,9533,2,0,B|423:211|423:211|456:183,2,120,4|4|12,3:0|3:0|3:0,0:0:0:0:
258,245,10897,1,4,3:0:0:0:
97,317,11579,6,0,P|87:221|99:184,1,120,4|0,3:0|0:0,0:0:0:0:
133,121,12431,1,0,3:0:0:0:
193,184,12772,2,0,B|284:194|284:194|306:176,1,120,0|8,3:0|3:0,0:0:0:0:
346,97,13624,2,0,L|429:93,1,80,0|8,3:0|3:0,0:0:0:0:
504,52,14306,6,0,P|515:137|501:180,1,120,4|0,3:0|0:0,0:0:0:0:
455,240,15158,1,0,3:0:0:0:
484,322,15499,2,0,L|364:325,1,120,0|8,3:0|3:0,0:0:0:0:
284,363,16351,2,0,L|203:359,1,80,0|8,3:0|3:0,0:0:0:0:
116,370,17033,6,0,P|105:307|119:236,1,120,4|0,3:0|0:0,0:0:0:0:
149,171,17885,1,0,3:0:0:0:
112,90,18226,2,0,P|161:81|230:98,1,120,4|8,3:0|3:0,0:0:0:0:
308,133,19079,1,0,3:0:0:0:
380,83,19420,1,0,0:0:0:0:
454,130,19760,6,0,P|460:220|447:257,2,120,4|0|8,3:0|0:0|3:0,0:0:0:0:
380,83,21124,2,0,L|297:80,1,80,4|8,3:0|3:0,0:0:0:0:
231,135,21806,2,0,L|106:136,1,120,0|4,3:0|3:0,0:0:0:0:
41,248,22829,5,8,3:0:0:0:
118,289,23170,2,0,P|192:296|234:269,1,120,0|4,3:0|3:0,0:0:0:0:
306,315,24022,2,0,L|402:327,2,80,0|0|0,3:0|3:0|3:0,0:0:0:0:
177,345,25215,6,0,P|156:261|178:177,1,160,0|0,3:0|3:0,0:0:0:0:
226,122,26238,1,8,3:0:0:0:
302,165,26579,2,0,B|391:174|391:174|428:153,2,120,0|0|8,3:0|3:0|3:0,0:0:0:0:
226,122,27942,6,0,P|161:117|106:160,1,120,0|0,3:0|0:0,0:0:0:0:
64,216,28795,1,0,3:0:0:0:
117,285,29135,2,0,L|239:281,1,120,0|8,3:0|3:0,0:0:0:0:
319,311,29988,1,0,3:0:0:0:
397,270,30329,1,8,3:0:0:0:
476,306,30670,6,0,P|489:239|471:175,1,120,4|0,3:0|3:0,0:0:0:0:
399,83,31692,1,12,3:0:0:0:
323,127,32033,2,0,L|203:120,1,120,4|0,3:0|3:0,0:0:0:0:
90,50,33056,1,12,3:0:0:0:
57,131,33397,6,0,P|51:221|63:263,1,120,4|0,3:0|0:0,0:0:0:0:
145,241,34249,1,0,3:0:0:0:
175,323,34590,2,0,L|300:333,1,120,0|8,3:0|3:0,0:0:0:0:
367,382,35442,2,0,L|450:380,1,80,0|0,3:0|3:0,0:0:0:0:
507,315,36124,6,0,P|515:216|489:153,1,160,4|0,3:0|3:0,0:0:0:0:
421,110,37147,1,8,3:0:0:0:
345,156,37488,2,0,B|311:173|311:173|225:151,2,120,0|0|8,3:0|3:0|3:0,0:0:0:0:
421,110,38851,6,0,P|432:193|416:242,1,120,0|0,3:0|0:0,0:0:0:0:
419,315,39704,1,0,3:0:0:0:
342,357,40045,2,0,L|216:348,1,120,0|8,3:0|3:0,0:0:0:0:
157,289,40897,1,0,3:0:0:0:
81,333,41238,1,8,3:0:0:0:
26,264,41579,6,0,P|23:153|32:131,1,120,4|0,3:0|3:0,0:0:0:0:
126,61,42601,1,4,3:0:0:0:
187,123,42942,2,0,L|316:121,1,120,4|0,3:0|3:0,0:0:0:0:
424,61,43965,1,4,3:0:0:0:
467,137,44306,6,0,L|474:221,1,80,4|8,3:0|3:0,0:0:0:0:
386,205,44988,2,0,L|393:289,1,80,0|8,3:0|3:0,0:0:0:0:
326,343,45670,2,0,P|249:359|173:318,1,160,4|8,3:0|3:0,0:0:0:0:
118,260,46692,1,8,3:0:0:0:
36,294,47033,6,0,B|18:203|65:221|41:119,1,160,4|0,3:0|3:0,0:0:0:0:
141,46,48226,2,0,P|230:37|272:54,1,120,0|0,3:0|0:0,0:0:0:0:
326,101,49079,2,0,L|424:96,1,80,0|8,3:0|3:0,0:0:0:0:
482,54,49760,6,0,P|499:137|483:223,1,160,0|0,3:0|3:0,0:0:0:0:
480,298,50783,1,8,3:0:0:0:
398,264,51124,2,0,L|317:260,1,80,4|0,3:0|3:0,0:0:0:0:
236,294,51806,2,0,L|156:297,1,80,0|0,3:0|3:0,0:0:0:0:
71,273,52488,5,4,3:0:0:0:
38,100,53170,2,0,L|125:106,1,80,0|8,3:0|3:0,0:0:0:0:
191,153,53851,2,0,P|270:172|342:125,1,160,0|0,3:0|3:0,0:0:0:0:
426,38,55045,6,0,B|447:86|447:86|435:168,1,120,4|8,3:0|3:0,0:0:0:0:
408,236,55897,1,0,3:0:0:0:
302,152,56408,2,0,P|219:136|171:152,1,120,0|8,3:0|3:0,0:0:0:0:
107,184,57260,1,0,3:0:0:0:
171,299,57772,6,0,L|303:294,1,120,4|8,3:0|3:0,0:0:0:0:
369,333,58624,1,0,3:0:0:0:
432,217,59135,2,0,P|435:135|420:87,1,120,4|8,3:0|3:0,0:0:0:0:
375,26,59988,1,8,3:0:0:0:
238,137,60670,6,0,P|156:150|84:106,1,160,4|0,3:0|3:0,0:0:0:0:
28,52,61692,1,8,3:0:0:0:
5,137,62033,2,0,B|1:221|1:221|13:263,2,120,0|0|8,3:0|3:0|3:0,0:0:0:0:
28,52,63397,6,0,L|116:55,1,80,0|8,3:0|3:0,0:0:0:0:
187,92,64079,1,0,3:0:0:0:
307,38,64590,2,0,P|393:27|434:46,1,120,4|8,3:0|3:0,0:0:0:0:
488,95,65442,1,0,3:0:0:0:
323,157,66124,6,0,L|188:165,2,120,4|0|12,3:0|3:0|3:0,0:0:0:0:
400,199,67488,2,0,P|413:280|404:327,2,120,0|0|12,3:0|3:0|3:0,0:0:0:0:
323,157,68851,6,0,L|322:77,1,80,0|8,3:0|3:0,0:0:0:0:
238,105,69533,2,0,L|237:25,1,80,0|8,0:0|3:0,0:0:0:0:
158,64,70215,2,0,P|69:86|35:140,1,160,0|0,3:0|3:0,0:0:0:0:
79,216,71238,1,8,3:0:0:0:
50,299,71579,6,0,B|151:324|135:263|218:283,1,160,4|0,3:0|3:0,0:0:0:0:
281,322,72601,1,8,3:0:0:0:
360,283,72942,2,0,B|442:271|442:271|491:294,2,120,0|0|8,3:0|3:0|3:0,0:0:0:0:
281,322,74306,6,0,P|229:328|194:319,1,80,0|8,3:0|3:0,0:0:0:0:
125,278,74988,1,0,3:0:0:0:
46,317,75329,1,8,3:0:0:0:
14,234,75670,2,0,P|12:162|18:139,1,80,0|8,3:0|3:0,0:0:0:0:
72,89,76351,2,0,L|162:89,1,80,0|8,3:0|3:0,0:0:0:0:
237,109,77033,1,4,3:0:0:0:
256,192,77204,12,0,78397,3:0:0:0:
237,109,79590,6,0,P|248:198|233:239,1,120,4|12,3:0|3:0,0:0:0:0:
167,276,80442,2,0,B|82:262|82:262|49:285,2,120,4|4|12,3:0|3:0|3:0,0:0:0:0:
245,315,81806,1,4,3:0:0:0:
418,347,82488,6,0,B|430:296|430:296|412:221,1,120,4|0,3:0|0:0,0:0:0:0:
354,165,83340,1,0,3:0:0:0:
282,216,83681,2,0,P|196:209|161:181,1,120,0|8,3:0|3:0,0:0:0:0:
83,204,84533,2,0,L|79:119,1,80,0|8,3:0|3:0,0:0:0:0:
32,49,85215,6,0,P|110:35|161:53,1,120,4|0,3:0|0:0,0:0:0:0:
223,90,86067,1,0,3:0:0:0:
295,39,86408,2,0,B|341:26|341:26|425:51,1,120,0|8,3:0|3:0,0:0:0:0:
466,114,87260,2,0,L|470:198,1,80,0|8,3:0|3:0,0:0:0:0:
427,271,87942,6,0,P|367:312|311:308,1,120,4|0,3:0|0:0,0:0:0:0:
243,271,88795,1,0,3:0:0:0:
192,342,89135,2,0,L|70:335,1,120,4|8,3:0|3:0,0:0:0:0:
28,258,89988,1,0,3:0:0:0:
65,178,90329,1,0,0:0:0:0:
31,96,90670,6,0,P|114:85|157:103,2,120,4|0|8,3:0|0:0|3:0,0:0:0:0:
65,178,92033,2,0,L|69:266,1,80,4|8,3:0|3:0,0:0:0:0:
109,336,92715,2,0,L|235:329,1,120,0|4,3:0|3:0,0:0:0:0:
354,288,93738,5,8,3:0:0:0:
434,324,94079,2,0,P|446:262|432:194,1,120,0|4,3:0|3:0,0:0:0:0:
256,192,94760,12,0,97317,3:0:0:0:
