osu file format v14

[General]
AudioFilename: audio.mp3
AudioLeadIn: 0
PreviewTime: 59999
Countdown: 0
SampleSet: Soft
StackLeniency: 0.8
Mode: 3
LetterboxInBreaks: 0
SpecialStyle: 0
WidescreenStoryboard: 0

[Editor]
Bookmarks: 4942
DistanceSpacing: 1
BeatDivisor: 4
GridSize: 32
TimelineZoom: 1.7

[Metadata]
Title:Shuwarin*Drea~ming
TitleUnicode:しゅわりん☆どり~みん
Artist:Pastel*Palettes
ArtistUnicode:Pastel*Palettes
Creator:ailv
Version:Tofu's NM
Source:バンドリ!ガールズバンドパーティ!
Tags:girls band party hinsvar nitrous aliv anvil shuwa dreaming alvi lafayla bandori garupa バンドリ! ホシノコドウ Tofu1222
BeatmapID:1655046
BeatmapSetID:785222

[Difficulty]
HPDrainRate:7
CircleSize:4
OverallDifficulty:7
ApproachRate:9.3
SliderMultiplier:2.05
SliderTickRate:1

[Events]
//Background and Video events
0,0,"shuwa.jpg",0,0
//Break Periods
//Storyboard Layer 0 (Background)
//Storyboard Layer 1 (Fail)
//Storyboard Layer 2 (Pass)
//Storyboard Layer 3 (Foreground)
//Storyboard Sound Samples

[TimingPoints]
-1202,340.909090909091,4,2,1,50,1,0
60161,-100,4,2,1,50,0,1
77888,-100,4,2,1,50,0,0

[HitObjects]
64,192,161,5,0,0:0:0:0:
192,192,332,1,0,0:0:0:0:
320,192,502,1,0,0:0:0:0:
448,192,673,1,0,0:0:0:0:
192,192,843,1,0,0:0:0:0:
64,192,1013,1,0,0:0:0:0:
320,192,1184,1,0,0:0:0:0:
448,192,1354,1,0,0:0:0:0:
192,192,1525,1,0,0:0:0:0:
320,192,1695,1,0,0:0:0:0:
448,192,1866,1,0,0:0:0:0:
64,192,2036,1,0,0:0:0:0:
320,192,2207,1,0,0:0:0:0:
192,192,2377,1,0,0:0:0:0:
64,192,2548,1,0,0:0:0:0:
448,192,2718,1,0,0:0:0:0:
192,192,2888,128,0,3570:0:0:0:0:
64,192,3570,128,0,4252:0:0:0:0:
320,192,4252,128,0,4934:0:0:0:0:
448,192,4934,128,0,5616:0:0:0:0:
192,192,5616,128,4,6979:0:0:0:0:
320,192,5616,1,8,0:0:0:0:
64,192,6979,1,4,0:0:0:0:
448,192,6979,1,2,0:0:0:0:
64,192,8173,1,8,0:0:0:0:
192,192,8173,1,4,0:0:0:0:
64,192,8513,1,8,0:0:0:0:
192,192,8513,1,4,0:0:0:0:
320,192,8684,1,8,0:0:0:0:
448,192,8684,1,4,0:0:0:0:
64,192,9025,1,8,0:0:0:0:
192,192,9025,1,4,0:0:0:0:
320,192,9366,1,8,0:0:0:0:
448,192,9366,1,4,0:0:0:0:
64,192,9536,1,8,0:0:0:0:
192,192,9536,1,4,0:0:0:0:
192,192,9877,1,8,0:0:0:0:
320,192,9877,1,4,0:0:0:0:
64,192,10048,1,8,0:0:0:0:
448,192,10048,1,4,0:0:0:0:
192,192,10388,1,8,0:0:0:0:
320,192,10388,1,4,0:0:0:0:
192,192,10729,128,0,11070:0:0:0:0:
64,192,11070,1,2,0:0:0:0:
448,192,11070,1,4,0:0:0:0:
192,192,11411,1,8,0:0:0:0:
320,192,11411,1,0,0:0:0:0:
448,192,11752,1,2,0:0:0:0:
320,192,11923,1,2,0:0:0:0:
64,192,12093,1,8,0:0:0:0:
192,192,12093,1,0,0:0:0:0:
320,192,12263,128,2,12604:0:0:0:0:
192,192,12604,1,2,0:0:0:0:
64,192,12775,1,8,0:0:0:0:
448,192,12775,1,0,0:0:0:0:
192,192,13116,1,2,0:0:0:0:
320,192,13286,1,2,0:0:0:0:
64,192,13457,1,8,0:0:0:0:
448,192,13457,1,0,0:0:0:0:
192,192,13798,1,2,0:0:0:0:
320,192,13798,1,4,0:0:0:0:
448,192,14138,1,8,0:0:0:0:
64,192,14138,1,0,0:0:0:0:
192,192,14479,1,2,0:0:0:0:
64,192,14650,1,2,0:0:0:0:
320,192,14820,1,8,0:0:0:0:
448,192,14820,1,0,0:0:0:0:
64,192,14991,128,2,15332:0:0:0:0:
192,192,15332,1,2,0:0:0:0:
320,192,15502,1,8,0:0:0:0:
448,192,15502,1,0,0:0:0:0:
64,192,15673,1,2,0:0:0:0:
320,192,15843,1,8,0:0:0:0:
448,192,15843,1,0,0:0:0:0:
192,192,15928,1,8,0:0:0:0:
64,192,16013,1,2,0:0:0:0:
448,192,16099,1,8,0:0:0:0:
320,192,16184,1,2,0:0:0:0:
192,192,16354,1,8,0:0:0:0:
64,192,16525,1,2,0:0:0:0:
448,192,16525,128,4,16866:0:0:0:0:
192,192,16866,1,8,0:0:0:0:
320,192,16866,1,0,0:0:0:0:
448,192,17207,1,2,0:0:0:0:
320,192,17377,1,2,0:0:0:0:
64,192,17548,1,8,0:0:0:0:
192,192,17548,1,0,0:0:0:0:
320,192,17718,128,2,18059:0:0:0:0:
448,192,17718,1,4,0:0:0:0:
192,192,18059,1,2,0:0:0:0:
64,192,18229,1,8,0:0:0:0:
448,192,18229,1,0,0:0:0:0:
192,192,18570,1,2,0:0:0:0:
320,192,18741,1,2,0:0:0:0:
64,192,18911,1,8,0:0:0:0:
448,192,18911,1,0,0:0:0:0:
192,192,19082,1,2,0:0:0:0:
320,192,19252,1,8,0:0:0:0:
448,192,19252,1,4,0:0:0:0:
64,192,19423,1,2,0:0:0:0:
192,192,19593,1,8,0:0:0:0:
320,192,19593,1,0,0:0:0:0:
448,192,19763,1,2,0:0:0:0:
64,192,19934,1,8,0:0:0:0:
192,192,19934,1,0,0:0:0:0:
320,192,20104,1,2,0:0:0:0:
64,192,20275,1,8,0:0:0:0:
448,192,20275,1,0,0:0:0:0:
192,192,20445,1,2,0:0:0:0:
320,192,20616,1,8,0:0:0:0:
448,192,20616,1,0,0:0:0:0:
192,192,20786,1,2,0:0:0:0:
64,192,20957,1,8,0:0:0:0:
448,192,20957,1,0,0:0:0:0:
320,192,21127,1,2,0:0:0:0:
64,192,21298,1,8,0:0:0:0:
192,192,21298,1,0,0:0:0:0:
448,192,21468,1,2,0:0:0:0:
192,192,21638,1,8,0:0:0:0:
320,192,21638,1,0,0:0:0:0:
64,192,21809,128,2,22150:0:0:0:0:
448,192,21809,1,4,0:0:0:0:
192,192,22150,1,2,0:0:0:0:
320,192,22320,1,8,0:0:0:0:
448,192,22320,1,0,0:0:0:0:
64,192,22491,1,2,0:0:0:0:
192,192,22661,1,8,0:0:0:0:
320,192,22661,128,0,23002:0:0:0:0:
448,192,23002,1,8,0:0:0:0:
64,192,23173,1,4,0:0:0:0:
192,192,23173,1,2,0:0:0:0:
320,192,23513,1,4,0:0:0:0:
448,192,23513,1,2,0:0:0:0:
192,192,23854,1,4,0:0:0:0:
320,192,23854,1,2,0:0:0:0:
64,192,24195,1,4,0:0:0:0:
448,192,24195,128,2,24707:0:0:0:0:
64,192,24707,1,2,0:0:0:0:
192,192,24707,1,4,0:0:0:0:
320,192,25048,1,8,0:0:0:0:
448,192,25048,1,0,0:0:0:0:
192,192,25388,1,2,0:0:0:0:
320,192,25559,1,2,0:0:0:0:
64,192,25729,1,8,0:0:0:0:
448,192,25729,1,0,0:0:0:0:
192,192,26070,1,2,0:0:0:0:
320,192,26411,1,8,0:0:0:0:
448,192,26411,1,0,0:0:0:0:
64,192,26752,1,2,0:0:0:0:
192,192,26923,1,2,0:0:0:0:
320,192,27093,1,8,0:0:0:0:
448,192,27093,1,0,0:0:0:0:
192,192,27434,1,2,0:0:0:0:
64,192,27775,1,8,0:0:0:0:
448,192,27775,1,0,0:0:0:0:
320,192,28116,1,2,0:0:0:0:
192,192,28286,1,2,0:0:0:0:
64,192,28457,1,8,0:0:0:0:
448,192,28457,1,0,0:0:0:0:
320,192,28627,1,2,0:0:0:0:
320,192,28968,1,2,0:0:0:0:
64,192,29138,1,8,0:0:0:0:
192,192,29138,1,0,0:0:0:0:
320,192,29479,1,2,0:0:0:0:
448,192,29650,1,2,0:0:0:0:
64,192,29820,1,8,0:0:0:0:
192,192,29820,1,0,0:0:0:0:
320,192,30161,1,2,0:0:0:0:
448,192,30161,1,4,0:0:0:0:
64,192,30502,1,8,0:0:0:0:
192,192,30502,1,0,0:0:0:0:
320,192,30843,1,2,0:0:0:0:
64,192,31013,1,8,0:0:0:0:
448,192,31013,1,4,0:0:0:0:
192,192,31184,1,8,0:0:0:0:
320,192,31184,1,4,0:0:0:0:
64,192,31525,1,2,0:0:0:0:
192,192,31525,1,4,0:0:0:0:
320,192,31866,1,8,0:0:0:0:
448,192,31866,1,0,0:0:0:0:
192,192,32207,1,2,0:0:0:0:
64,192,32377,1,8,0:0:0:0:
448,192,32377,1,4,0:0:0:0:
192,192,32548,1,8,0:0:0:0:
320,192,32548,1,4,0:0:0:0:
64,192,32888,1,2,0:0:0:0:
448,192,32888,1,4,0:0:0:0:
192,192,33229,1,8,0:0:0:0:
320,192,33229,1,0,0:0:0:0:
64,192,33570,1,2,0:0:0:0:
192,192,33741,1,2,0:0:0:0:
320,192,33911,1,8,0:0:0:0:
448,192,33911,1,0,0:0:0:0:
64,192,34082,1,4,0:0:0:0:
192,192,34082,1,2,0:0:0:0:
64,192,34423,1,4,0:0:0:0:
192,192,34423,1,2,0:0:0:0:
320,192,34593,1,4,0:0:0:0:
448,192,34593,1,2,0:0:0:0:
64,192,34934,1,4,0:0:0:0:
192,192,34934,1,2,0:0:0:0:
192,192,35275,1,4,0:0:0:0:
320,192,35275,1,2,0:0:0:0:
320,192,35616,1,2,0:0:0:0:
448,192,35616,1,4,0:0:0:0:
64,192,35957,1,8,0:0:0:0:
192,192,35957,1,0,0:0:0:0:
320,192,36298,1,2,0:0:0:0:
448,192,36468,1,2,0:0:0:0:
64,192,36638,1,8,0:0:0:0:
192,192,36638,1,0,0:0:0:0:
320,192,36979,1,2,0:0:0:0:
64,192,37320,1,8,0:0:0:0:
448,192,37320,1,0,0:0:0:0:
192,192,37661,1,2,0:0:0:0:
320,192,37832,1,2,0:0:0:0:
64,192,38002,1,8,0:0:0:0:
448,192,38002,1,0,0:0:0:0:
192,192,38343,1,2,0:0:0:0:
320,192,38684,1,8,0:0:0:0:
448,192,38684,1,0,0:0:0:0:
64,192,39025,1,2,0:0:0:0:
192,192,39195,1,2,0:0:0:0:
320,192,39366,1,8,0:0:0:0:
448,192,39366,1,0,0:0:0:0:
64,192,39536,1,2,0:0:0:0:
64,192,39877,1,2,0:0:0:0:
192,192,39877,1,0,0:0:0:0:
320,192,40048,1,8,0:0:0:0:
448,192,40048,1,0,0:0:0:0:
192,192,40218,1,2,0:0:0:0:
64,192,40388,1,8,0:0:0:0:
448,192,40388,1,0,0:0:0:0:
320,192,40559,1,2,0:0:0:0:
64,192,40729,1,8,0:0:0:0:
192,192,40729,1,0,0:0:0:0:
320,192,40900,1,2,0:0:0:0:
64,192,41070,1,2,0:0:0:0:
448,192,41070,1,4,0:0:0:0:
192,192,41411,1,8,0:0:0:0:
320,192,41411,1,0,0:0:0:0:
448,192,41752,1,2,0:0:0:0:
64,192,41923,1,8,0:0:0:0:
192,192,41923,1,4,0:0:0:0:
320,192,42093,1,8,0:0:0:0:
448,192,42093,1,4,0:0:0:0:
64,192,42434,1,2,0:0:0:0:
448,192,42434,1,4,0:0:0:0:
192,192,42775,1,8,0:0:0:0:
320,192,42775,1,0,0:0:0:0:
64,192,43116,1,2,0:0:0:0:
320,192,43286,1,8,0:0:0:0:
448,192,43286,1,4,0:0:0:0:
64,192,43457,1,8,0:0:0:0:
192,192,43457,1,4,0:0:0:0:
320,192,43798,1,2,0:0:0:0:
448,192,43798,1,4,0:0:0:0:
64,192,43968,1,8,0:0:0:0:
192,192,44138,1,2,0:0:0:0:
320,192,44138,1,4,0:0:0:0:
448,192,44309,1,8,0:0:0:0:
64,192,44479,1,2,0:0:0:0:
192,192,44479,1,4,0:0:0:0:
320,192,44650,1,8,0:0:0:0:
64,192,44820,1,2,0:0:0:0:
448,192,44820,1,4,0:0:0:0:
320,192,44991,1,8,0:0:0:0:
64,192,45161,1,2,0:0:0:0:
192,192,45161,1,0,0:0:0:0:
320,192,45332,1,8,0:0:0:0:
192,192,45417,1,8,0:0:0:0:
64,192,45502,1,8,0:0:0:0:
320,192,45673,1,2,0:0:0:0:
448,192,45673,1,0,0:0:0:0:
192,192,46013,1,2,0:0:0:0:
320,192,46184,1,8,0:0:0:0:
448,192,46184,1,0,0:0:0:0:
64,192,46354,1,2,0:0:0:0:
192,192,46525,128,2,47207:0:0:0:0:
320,192,46525,1,4,0:0:0:0:
448,192,47036,1,2,0:0:0:0:
320,192,47207,128,2,47718:0:0:0:0:
448,192,47548,1,8,0:0:0:0:
192,192,47718,128,2,48229:0:0:0:0:
448,192,48059,1,2,0:0:0:0:
64,192,48229,128,0,48570:0:0:0:0:
320,192,48400,1,2,0:0:0:0:
448,192,48570,128,2,48911:0:0:0:0:
64,192,48911,1,8,0:0:0:0:
320,192,48911,128,0,49252:0:0:0:0:
192,192,49252,128,2,49934:0:0:0:0:
64,192,49763,1,2,0:0:0:0:
320,192,49934,128,2,50616:0:0:0:0:
448,192,50275,1,8,0:0:0:0:
64,192,50616,1,8,0:0:0:0:
192,192,50616,1,4,0:0:0:0:
320,192,50957,1,8,0:0:0:0:
448,192,50957,1,4,0:0:0:0:
64,192,51298,1,8,0:0:0:0:
192,192,51298,1,4,0:0:0:0:
192,192,51638,1,8,0:0:0:0:
320,192,51638,1,4,0:0:0:0:
320,192,51979,1,2,0:0:0:0:
448,192,51979,1,4,0:0:0:0:
64,192,52320,1,8,0:0:0:0:
192,192,52320,1,0,0:0:0:0:
320,192,52661,1,2,0:0:0:0:
192,192,52832,1,2,0:0:0:0:
64,192,53002,128,8,53173:0:0:0:0:
448,192,53002,1,0,0:0:0:0:
192,192,53173,128,0,53343:0:0:0:0:
320,192,53343,128,2,53684:0:0:0:0:
448,192,53343,1,0,0:0:0:0:
64,192,53684,1,8,0:0:0:0:
192,192,53684,1,0,0:0:0:0:
320,192,54025,1,2,0:0:0:0:
192,192,54195,1,2,0:0:0:0:
64,192,54366,1,8,0:0:0:0:
448,192,54366,1,0,0:0:0:0:
192,192,54536,1,2,0:0:0:0:
320,192,54536,1,4,0:0:0:0:
192,192,54877,1,2,0:0:0:0:
320,192,54877,1,4,0:0:0:0:
64,192,55048,1,8,0:0:0:0:
448,192,55048,1,4,0:0:0:0:
64,192,55388,1,8,0:0:0:0:
448,192,55388,1,4,0:0:0:0:
64,192,55729,1,8,0:0:0:0:
192,192,55729,1,4,0:0:0:0:
320,192,55900,1,4,0:0:0:0:
448,192,55900,1,2,0:0:0:0:
64,192,56241,1,2,0:0:0:0:
192,192,56241,1,4,0:0:0:0:
320,192,56411,1,8,0:0:0:0:
448,192,56411,1,4,0:0:0:0:
192,192,56752,1,8,0:0:0:0:
320,192,56752,1,4,0:0:0:0:
448,192,56923,1,0,0:0:0:0:
64,192,57093,1,8,0:0:0:0:
192,192,57263,1,2,0:0:0:0:
320,192,57263,1,4,0:0:0:0:
192,192,57604,1,2,0:0:0:0:
320,192,57604,1,4,0:0:0:0:
64,192,57775,1,8,0:0:0:0:
448,192,57775,1,4,0:0:0:0:
192,192,57945,1,2,0:0:0:0:
320,192,58116,1,8,0:0:0:0:
448,192,58116,1,4,0:0:0:0:
64,192,58286,1,2,0:0:0:0:
192,192,58457,1,8,0:0:0:0:
320,192,58457,1,4,0:0:0:0:
64,192,58627,128,8,59479:0:0:0:0:
448,192,58627,1,4,0:0:0:0:
192,192,58968,1,8,0:0:0:0:
448,192,58968,1,4,0:0:0:0:
192,192,59138,1,8,0:0:0:0:
320,192,59138,1,4,0:0:0:0:
192,192,59479,1,8,0:0:0:0:
448,192,59479,1,4,0:0:0:0:
320,192,59820,128,0,60161:0:0:0:0:
64,192,60161,1,2,0:0:0:0:
448,192,60161,1,4,0:0:0:0:
192,192,60502,1,8,0:0:0:0:
320,192,60502,1,0,0:0:0:0:
64,192,60843,1,2,0:0:0:0:
192,192,61013,1,2,0:0:0:0:
320,192,61184,1,8,0:0:0:0:
448,192,61184,1,0,0:0:0:0:
192,192,61525,1,2,0:0:0:0:
64,192,61866,1,8,0:0:0:0:
448,192,61866,1,0,0:0:0:0:
192,192,62207,1,2,0:0:0:0:
320,192,62377,1,2,0:0:0:0:
64,192,62548,1,8,0:0:0:0:
192,192,62548,1,0,0:0:0:0:
320,192,62888,1,2,0:0:0:0:
64,192,63229,1,8,0:0:0:0:
448,192,63229,1,0,0:0:0:0:
320,192,63570,1,2,0:0:0:0:
192,192,63741,1,2,0:0:0:0:
64,192,63911,1,8,0:0:0:0:
448,192,63911,1,0,0:0:0:0:
192,192,64082,1,2,0:0:0:0:
320,192,64082,1,0,0:0:0:0:
64,192,64423,1,2,0:0:0:0:
192,192,64423,1,0,0:0:0:0:
320,192,64593,1,8,0:0:0:0:
448,192,64593,1,0,0:0:0:0:
192,192,64763,1,2,0:0:0:0:
64,192,64934,1,8,0:0:0:0:
448,192,64934,1,0,0:0:0:0:
320,192,65104,1,2,0:0:0:0:
64,192,65275,1,8,0:0:0:0:
192,192,65360,1,8,0:0:0:0:
320,192,65445,1,8,0:0:0:0:
64,192,65616,1,2,0:0:0:0:
192,192,65616,1,4,0:0:0:0:
320,192,65957,1,8,0:0:0:0:
448,192,65957,1,0,0:0:0:0:
64,192,66127,1,2,0:0:0:0:
192,192,66127,1,0,0:0:0:0:
64,192,66468,1,2,0:0:0:0:
192,192,66468,1,4,0:0:0:0:
320,192,66638,1,8,0:0:0:0:
448,192,66638,1,4,0:0:0:0:
64,192,66979,1,2,0:0:0:0:
192,192,66979,1,4,0:0:0:0:
320,192,67320,1,8,0:0:0:0:
448,192,67320,1,0,0:0:0:0:
64,192,67491,1,2,0:0:0:0:
192,192,67491,1,0,0:0:0:0:
64,192,67832,1,2,0:0:0:0:
192,192,67832,1,4,0:0:0:0:
320,192,68002,1,8,0:0:0:0:
448,192,68002,1,4,0:0:0:0:
64,192,68343,1,2,0:0:0:0:
448,192,68343,1,0,0:0:0:0:
192,192,68684,1,8,0:0:0:0:
320,192,68684,1,0,0:0:0:0:
64,192,69025,1,2,0:0:0:0:
192,192,69195,1,2,0:0:0:0:
320,192,69366,1,8,0:0:0:0:
448,192,69366,1,0,0:0:0:0:
64,192,69707,128,2,70048:0:0:0:0:
192,192,70048,128,8,70388:0:0:0:0:
320,192,70048,1,4,0:0:0:0:
320,192,70388,128,2,70729:0:0:0:0:
64,192,70559,1,2,0:0:0:0:
192,192,70729,1,8,0:0:0:0:
448,192,70729,128,4,71070:0:0:0:0:
64,192,71070,1,2,0:0:0:0:
320,192,71070,1,4,0:0:0:0:
192,192,71411,1,8,0:0:0:0:
448,192,71411,1,0,0:0:0:0:
320,192,71752,1,2,0:0:0:0:
192,192,71923,1,2,0:0:0:0:
64,192,72093,1,8,0:0:0:0:
448,192,72093,1,0,0:0:0:0:
192,192,72434,1,2,0:0:0:0:
64,192,72775,1,8,0:0:0:0:
320,192,72775,1,0,0:0:0:0:
192,192,73116,1,2,0:0:0:0:
320,192,73286,1,2,0:0:0:0:
64,192,73457,1,8,0:0:0:0:
448,192,73457,1,0,0:0:0:0:
320,192,73798,1,2,0:0:0:0:
64,192,74138,1,8,0:0:0:0:
192,192,74138,1,0,0:0:0:0:
320,192,74479,1,2,0:0:0:0:
448,192,74650,1,2,0:0:0:0:
64,192,74820,1,8,0:0:0:0:
192,192,74820,1,0,0:0:0:0:
320,192,75161,1,2,0:0:0:0:
192,192,75332,1,8,0:0:0:0:
64,192,75502,1,2,0:0:0:0:
448,192,75502,1,0,0:0:0:0:
320,192,75673,1,8,0:0:0:0:
64,192,75843,1,2,0:0:0:0:
192,192,75928,1,2,0:0:0:0:
320,192,76013,1,8,0:0:0:0:
448,192,76184,1,2,0:0:0:0:
320,192,76269,1,2,0:0:0:0:
192,192,76354,1,8,0:0:0:0:
64,192,76525,128,2,77888:0:0:0:0:
448,192,76525,1,4,0:0:0:0:
320,192,77888,1,8,0:0:0:0:
448,192,77888,1,4,0:0:0:0:
64,192,79082,1,4,0:0:0:0:
192,192,79082,1,8,0:0:0:0:
64,192,79423,1,4,0:0:0:0:
192,192,79423,1,8,0:0:0:0:
320,192,79593,1,8,0:0:0:0:
448,192,79593,1,4,0:0:0:0:
64,192,79934,1,4,0:0:0:0:
192,192,79934,1,8,0:0:0:0:
320,192,80275,1,8,0:0:0:0:
448,192,80275,1,4,0:0:0:0:
64,192,80445,1,4,0:0:0:0:
192,192,80445,1,8,0:0:0:0:
192,192,80786,1,8,0:0:0:0:
320,192,80786,1,4,0:0:0:0:
64,192,80957,1,4,0:0:0:0:
448,192,80957,1,8,0:0:0:0:
192,192,81298,1,8,0:0:0:0:
320,192,81298,1,4,0:0:0:0:
320,192,81638,128,0,81979:0:0:0:0:
64,192,81979,1,2,0:0:0:0:
448,192,81979,1,4,0:0:0:0:
192,192,82320,1,8,0:0:0:0:
320,192,82320,1,0,0:0:0:0:
64,192,82661,1,2,0:0:0:0:
192,192,82832,1,2,0:0:0:0:
320,192,83002,1,8,0:0:0:0:
448,192,83002,1,0,0:0:0:0:
192,192,83173,128,2,83513:0:0:0:0:
320,192,83513,1,2,0:0:0:0:
64,192,83684,1,8,0:0:0:0:
448,192,83684,1,0,0:0:0:0:
320,192,84025,1,2,0:0:0:0:
192,192,84195,1,2,0:0:0:0:
64,192,84366,1,8,0:0:0:0:
448,192,84366,1,0,0:0:0:0:
192,192,84707,1,2,0:0:0:0:
320,192,84707,1,4,0:0:0:0:
64,192,85048,1,8,0:0:0:0:
448,192,85048,1,0,0:0:0:0:
320,192,85388,1,2,0:0:0:0:
448,192,85559,1,2,0:0:0:0:
64,192,85729,1,8,0:0:0:0:
192,192,85729,1,0,0:0:0:0:
448,192,85900,128,2,86241:0:0:0:0:
320,192,86241,1,2,0:0:0:0:
64,192,86411,1,8,0:0:0:0:
192,192,86411,1,0,0:0:0:0:
448,192,86582,1,2,0:0:0:0:
64,192,86752,1,8,0:0:0:0:
192,192,86752,1,0,0:0:0:0:
320,192,86837,1,8,0:0:0:0:
448,192,86923,1,2,0:0:0:0:
64,192,87008,1,8,0:0:0:0:
192,192,87093,1,2,0:0:0:0:
320,192,87263,1,8,0:0:0:0:
64,192,87434,128,2,87775:0:0:0:0:
448,192,87434,1,4,0:0:0:0:
192,192,87775,1,8,0:0:0:0:
320,192,87775,1,0,0:0:0:0:
64,192,88116,1,2,0:0:0:0:
192,192,88286,1,2,0:0:0:0:
320,192,88457,1,8,0:0:0:0:
448,192,88457,1,0,0:0:0:0:
64,192,88627,1,2,0:0:0:0:
192,192,88627,128,4,88968:0:0:0:0:
320,192,88968,1,2,0:0:0:0:
64,192,89138,1,8,0:0:0:0:
448,192,89138,1,0,0:0:0:0:
320,192,89479,1,2,0:0:0:0:
192,192,89650,1,2,0:0:0:0:
64,192,89820,1,8,0:0:0:0:
448,192,89820,1,0,0:0:0:0:
320,192,89991,1,2,0:0:0:0:
64,192,90161,1,8,0:0:0:0:
192,192,90161,1,4,0:0:0:0:
448,192,90332,1,2,0:0:0:0:
192,192,90502,1,8,0:0:0:0:
320,192,90502,1,0,0:0:0:0:
64,192,90673,1,2,0:0:0:0:
320,192,90843,1,8,0:0:0:0:
448,192,90843,1,0,0:0:0:0:
192,192,91013,1,2,0:0:0:0:
64,192,91184,1,8,0:0:0:0:
448,192,91184,1,0,0:0:0:0:
320,192,91354,1,2,0:0:0:0:
64,192,91525,1,8,0:0:0:0:
192,192,91525,1,0,0:0:0:0:
320,192,91695,1,2,0:0:0:0:
64,192,91866,1,8,0:0:0:0:
448,192,91866,1,0,0:0:0:0:
192,192,92036,1,2,0:0:0:0:
320,192,92207,1,8,0:0:0:0:
448,192,92207,1,0,0:0:0:0:
64,192,92377,1,2,0:0:0:0:
192,192,92548,1,8,0:0:0:0:
320,192,92548,1,0,0:0:0:0:
64,192,92718,1,2,0:0:0:0:
448,192,92718,128,4,93059:0:0:0:0:
320,192,93059,1,2,0:0:0:0:
64,192,93229,1,8,0:0:0:0:
192,192,93229,1,0,0:0:0:0:
448,192,93400,1,2,0:0:0:0:
192,192,93570,128,8,93911:0:0:0:0:
320,192,93570,1,0,0:0:0:0:
448,192,93741,1,2,0:0:0:0:
64,192,93911,1,8,0:0:0:0:
320,192,94082,1,2,0:0:0:0:
448,192,94082,128,4,96468:0:0:0:0:
64,192,94423,1,0,0:0:0:0:
192,192,94593,1,0,0:0:0:0:
320,192,94763,1,0,0:0:0:0:
64,192,94934,1,0,0:0:0:0:
320,192,95104,1,0,0:0:0:0:
192,192,95275,1,0,0:0:0:0:
64,192,95445,1,0,0:0:0:0:
320,192,95616,1,0,0:0:0:0:
64,192,95786,1,0,0:0:0:0:
320,192,95957,1,0,0:0:0:0:
64,192,96127,1,0,0:0:0:0:
320,192,96298,1,0,0:0:0:0:
64,192,96468,1,0,0:0:0:0:
192,192,96638,1,8,0:0:0:0:
320,192,96638,1,4,0:0:0:0:
64,192,96809,128,2,97320:0:0:0:0:
448,192,96809,128,4,97320:0:0:0:0:
