osu file format v14

[General]
AudioFilename: audio.mp3
AudioLeadIn: 0
PreviewTime: 59999
Countdown: 0
SampleSet: Soft
StackLeniency: 0.8
Mode: 0
LetterboxInBreaks: 0
WidescreenStoryboard: 1

[Editor]
Bookmarks: 4942
DistanceSpacing: 0.9
BeatDivisor: 2
GridSize: 4
TimelineZoom: 1.7

[Metadata]
Title:Shuwarin*Drea~ming
TitleUnicode:しゅわりん☆どり~みん
Artist:Pastel*Palettes
ArtistUnicode:Pastel*Palettes
Creator:ailv
Version:Nitrous' Normal
Source:バンドリ!ガールズバンドパーティ!
Tags:girls band party hinsvar nitrous aliv anvil shuwa dreaming alvi lafayla bandori garupa バンドリ! ホシノコドウ Tofu1222
BeatmapID:1648324
BeatmapSetID:785222

[Difficulty]
HPDrainRate:3
CircleSize:3
OverallDifficulty:5
ApproachRate:6
SliderMultiplier:1.1
SliderTickRate:1

[Events]
//Background and Video events
0,0,"shuwa.jpg",0,0
//Break Periods
//Storyboard Layer 0 (Background)
//Storyboard Layer 1 (Fail)
//Storyboard Layer 2 (Pass)
//Storyboard Layer 3 (Foreground)
//Storyboard Sound Samples

[TimingPoints]
-1202,340.909090909091,4,2,1,30,1,0
161,-100,4,2,1,30,0,0
5616,-100,4,2,1,50,0,0
8173,-100,4,2,1,70,0,0
11070,-100,4,2,1,70,0,0
24707,-100,4,2,1,50,0,0
25048,-100,4,2,1,50,0,0
34082,-100,4,2,1,60,0,0
35616,-100,4,2,1,50,0,0
43798,-100,4,2,1,50,0,0
43968,-100,4,2,1,50,0,0
44138,-100,4,2,1,50,0,0
44309,-100,4,2,1,50,0,0
44479,-100,4,2,1,50,0,0
44650,-100,4,2,1,50,0,0
44820,-100,4,2,1,50,0,0
44991,-100,4,2,1,50,0,0
46525,-100,4,2,1,40,0,0
50616,-100,4,2,1,50,0,0
57263,-100,4,2,1,60,0,0
60161,-100,4,2,1,80,0,1
76525,-100,4,2,1,60,0,1
77888,-100,4,2,1,60,0,0
79082,-100,4,2,1,70,0,0
94082,-100,4,2,1,40,0,0
96638,-100,4,2,1,60,0,0

[Colours]
Combo1 : 235,112,115
Combo2 : 255,157,206
Combo3 : 166,126,239

[HitObjects]
120,226,161,6,0,P|152:225|241:212,1,110,0|0,0:0|0:0,0:0:0:0:
299,285,843,2,0,P|346:251|386:209,1,110,2|0,0:0|0:0,0:0:0:0:
411,119,1525,2,0,P|337:96|314:186,2,165,0|2|0,0:0|0:0|0:0,0:0:0:0:
480,189,2888,6,0,L|466:304,1,110,2|0,0:0|0:0,0:0:0:0:
382,351,3570,2,0,L|368:241,1,110,0|2,0:0|0:0,0:0:0:0:
302,167,4252,1,0,0:0:0:0:
302,167,4593,1,2,0:0:0:0:
230,235,4934,1,2,0:0:0:0:
230,235,5275,1,0,0:0:0:0:
256,192,5616,12,4,6979,3:2:0:0:
314,107,8173,6,0,P|259:100|190:75,1,110,4|0,3:2|3:0,0:0:0:0:
161,64,8684,1,2,3:2:0:0:
63,80,9025,1,2,3:2:0:0:
127,154,9366,1,0,3:0:0:0:
127,154,9536,6,0,P|125:202|116:269,1,110,2|0,0:0|3:0,0:0:0:0:
100,310,10048,1,2,3:2:0:0:
183,362,10388,1,2,3:2:0:0:
243,283,10729,1,0,3:0:0:0:
326,335,11070,6,0,L|293:382,2,55,4|0|8,3:2|0:0|0:0,0:0:0:0:
367,363,11582,2,0,P|359:307|371:254,1,110,2|2,0:0|0:0,0:0:0:0:
447,193,12263,2,0,P|456:137|442:87,1,110,2|0,3:2|3:0,0:0:0:0:
416,43,12775,1,8,0:0:0:0:
323,78,13116,2,0,P|289:78|191:104,1,110,2|8,3:2|0:0,0:0:0:0:
121,127,13798,6,0,L|125:66,2,55,4|0|8,3:2|0:0|0:0,0:0:0:0:
71,131,14309,2,0,P|82:188|74:243,1,110,2|2,0:0|0:0,0:0:0:0:
124,325,14991,2,0,P|153:292|224:278,1,110,2|0,3:2|3:0,0:0:0:0:
258,301,15502,2,0,L|250:190,2,110,8|2|8,0:0|3:2|3:2,0:0:0:0:
335,362,16525,6,0,P|351:303|341:254,1,110,4|8,3:2|0:0,0:0:0:0:
386,235,17036,2,0,P|370:179|381:120,1,110,2|2,0:0|0:0,0:0:0:0:
315,51,17718,2,0,P|274:54|197:35,1,110,4|0,3:2|3:0,0:0:0:0:
123,93,18400,1,2,0:0:0:0:
123,93,18570,2,0,P|92:85|27:84,2,82.5,0|0|0,3:0|0:0|3:0,0:0:0:0:
166,117,19252,6,0,P|158:154|162:245,1,110,4|10,3:2|3:2,0:0:0:0:
185,267,19763,2,0,P|230:226|339:258,1,165,0|8,0:0|3:2,0:0:0:0:
364,274,20445,1,0,0:0:0:0:
364,274,20616,2,0,P|354:216|373:159,1,110,2|8,3:2|0:0,0:0:0:0:
389,123,21127,2,0,P|343:138|272:123,1,110,2|0,3:2|3:0,0:0:0:0:
200,73,21809,6,0,P|184:126|205:193,1,110,4|0,3:2|3:0,0:0:0:0:
220,221,22320,1,8,0:0:0:0:
282,298,22661,2,0,L|395:291,1,110,2|0,3:2|3:0,0:0:0:0:
441,290,23173,5,6,3:2:0:0:
389,205,23513,1,6,3:2:0:0:
457,133,23854,1,6,3:2:0:0:
405,48,24195,1,6,3:2:0:0:
258,21,24707,5,4,3:2:0:0:
175,75,25048,2,0,L|167:137,1,55,8|0,0:0|0:0,0:0:0:0:
158,178,25388,2,0,P|202:147|275:155,1,110,0|8,3:0|0:0,0:0:0:0:
300,169,25900,1,0,0:0:0:0:
300,169,26070,6,0,P|370:178|422:161,1,110,2|8,3:2|0:0,0:0:0:0:
445,136,26582,2,0,P|430:191|455:261,1,110,2|0,0:0|3:0,0:0:0:0:
457,288,27093,1,8,0:0:0:0:
374,342,27434,6,0,P|334:328|261:325,1,110,2|8,3:2|0:0,0:0:0:0:
225,351,27945,2,0,P|236:297|215:227,1,110,0|0,0:0|3:0,0:0:0:0:
142,187,28627,2,0,P|130:133|141:80,1,110,2|0,3:2|3:0,0:0:0:0:
156,32,29138,2,0,L|101:8,2,55,8|0|2,0:0|0:0|3:2,0:0:0:0:
255,37,29820,1,8,0:0:0:0:
226,131,30161,6,0,P|311:126|341:121,1,110,4|8,0:0|0:0,0:0:0:0:
384,112,30673,1,0,0:0:0:0:
463,170,31013,1,4,0:0:0:0:
463,170,31184,1,4,0:0:0:0:
418,258,31525,6,0,P|345:254|309:247,1,110,4|8,3:2|0:0,0:0:0:0:
259,239,32036,1,0,0:0:0:0:
180,299,32377,1,4,0:0:0:0:
180,299,32548,1,4,0:0:0:0:
86,267,32888,6,0,L|83:155,1,110,4|8,3:2|0:0,0:0:0:0:
69,108,33400,2,0,P|126:125|193:108,1,110,2|0,0:0|3:0,0:0:0:0:
205,77,33911,1,6,0:0:0:0:
240,42,34082,2,0,P|301:29|351:41,1,110,8|0,0:0|3:0,0:0:0:0:
393,54,34593,1,0,3:0:0:0:
333,132,34934,1,2,0:0:0:0:
390,212,35275,1,2,0:0:0:0:
331,291,35616,5,4,3:2:0:0:
241,248,35957,2,0,L|231:316,1,55,8|0,0:0|0:0,0:0:0:0:
252,347,36298,2,0,P|219:325|132:328,1,110,2|8,3:2|0:0,0:0:0:0:
103,336,36809,1,0,0:0:0:0:
103,336,36979,6,0,P|115:264|98:228,1,110,2|8,3:2|0:0,0:0:0:0:
67,194,37491,1,0,0:0:0:0:
67,194,37661,2,0,L|8:208,2,55,2|0|10,3:2|3:0|0:0,0:0:0:0:
130,117,38343,6,0,P|207:135|252:132,1,110,2|8,3:2|0:0,0:0:0:0:
281,111,38854,2,0,P|273:163|302:223,1,110,0|0,0:0|3:0,0:0:0:0:
321,256,39366,1,8,0:0:0:0:
321,256,39536,2,0,P|282:245|193:253,1,110,2|0,3:2|3:0,0:0:0:0:
166,265,40048,1,8,0:0:0:0:
76,306,40388,1,2,3:2:0:0:
40,213,40729,1,10,0:0:0:0:
129,171,41070,6,0,P|196:169|242:154,1,110,4|8,3:2|0:0,0:0:0:0:
285,145,41582,1,0,0:0:0:0:
370,94,41923,1,4,0:0:0:0:
370,94,42093,1,4,0:0:0:0:
451,150,42434,6,0,P|451:195|442:272,1,110,4|8,3:2|0:0,0:0:0:0:
419,302,42945,1,0,0:0:0:0:
328,342,43286,1,4,0:0:0:0:
328,342,43457,1,4,0:0:0:0:
254,276,43798,6,0,L|133:267,1,110,4|4,3:2|3:2,0:0:0:0:
113,173,44479,2,0,L|234:164,1,110,4|4,3:2|3:2,0:0:0:0:
321,155,45161,2,0,P|325:223|338:278,1,110,4|0,0:0|0:0,0:0:0:0:
362,304,45673,1,4,3:2:0:0:
362,304,45843,2,0,L|435:300,2,55,0|0|0,0:0|0:0|3:0,0:0:0:0:
274,350,46525,5,4,3:2:0:0:
186,302,46866,2,0,P|151:302|74:288,1,110,2|2,0:0|0:0,0:0:0:0:
6,219,47548,1,0,3:0:0:0:
6,219,47718,2,0,P|23:148|11:101,1,110,2|0,3:2|0:0,0:0:0:0:
3,64,48229,2,0,P|45:74|120:62,1,110,2|2,0:0|0:0,0:0:0:0:
203,29,48911,2,0,L|208:95,1,55,0|0,3:0|0:0,0:0:0:0:
179,125,49252,6,0,P|226:107|297:124,1,110,2|0,3:2|3:0,0:0:0:0:
330,133,49763,1,0,3:0:0:0:
330,133,49934,2,0,P|329:197|338:252,1,110,2|0,3:2|3:0,0:0:0:0:
349,340,50616,5,6,3:2:0:0:
251,354,50957,1,0,0:0:0:0:
204,266,51298,1,2,0:0:0:0:
301,252,51638,1,4,0:0:0:0:
381,194,51979,6,0,P|372:112|297:121,1,165,4|2,3:2|0:0,0:0:0:0:
265,144,52661,1,0,3:0:0:0:
171,112,53002,2,0,L|159:55,1,55,10|0,0:0|0:0,0:0:0:0:
199,27,53343,6,0,P|110:51|81:123,1,165,2|0,3:2|0:0,0:0:0:0:
82,161,54025,2,0,L|19:151,2,55,0|2|8,3:0|0:0|0:0,0:0:0:0:
95,208,54536,2,0,P|167:183|223:189,1,110,4|0,0:0|3:0,0:0:0:0:
246,201,55048,1,2,3:2:0:0:
323,139,55388,1,2,3:2:0:0:
408,189,55729,1,0,3:0:0:0:
408,189,55900,6,0,L|406:304,1,110,2|0,3:2|0:0,0:0:0:0:
383,343,56411,1,2,0:0:0:0:
300,287,56752,2,0,L|302:227,2,55,2|0|0,0:0|0:0|0:0,0:0:0:0:
286,334,57263,2,0,P|237:309|178:315,1,110,4|0,0:0|0:0,0:0:0:0:
140,337,57775,1,2,3:2:0:0:
65,272,58116,1,2,3:2:0:0:
65,272,58286,2,0,L|77:212,1,55,0|0,0:0|0:0,0:0:0:0:
55,172,58627,6,0,P|131:196|178:183,1,110,2|0,3:2|0:0,0:0:0:0:
203,168,59138,1,0,0:0:0:0:
292,210,59479,1,4,0:0:0:0:
426,146,60161,6,0,P|442:202|428:273,1,110,4|8,3:2|0:0,0:0:0:0:
416,298,60673,1,0,0:0:0:0:
416,298,60843,2,0,P|384:287|292:292,1,110,2|8,3:2|0:0,0:0:0:0:
266,313,61354,1,0,0:0:0:0:
266,313,61525,6,0,P|283:258|266:190,1,110,2|8,3:2|0:0,0:0:0:0:
254,161,62036,1,2,0:0:0:0:
169,109,62377,2,0,L|177:40,2,55,0|8|0,0:0|0:0|0:0,0:0:0:0:
120,118,62888,6,0,P|128:188|125:239,1,110,2|8,3:2|0:0,0:0:0:0:
102,271,63400,1,0,0:0:0:0:
102,271,63570,2,0,P|167:258|229:271,1,110,2|8,3:2|0:0,0:0:0:0:
256,282,64082,1,4,3:2:0:0:
350,310,64423,5,0,3:0:0:0:
350,310,64593,2,0,L|346:189,1,110,8|2,0:0|0:0,0:0:0:0:
286,120,65275,1,8,3:2:0:0:
208,181,65616,6,0,P|144:172|98:142,1,110,4|8,3:2|0:0,0:0:0:0:
73,111,66127,1,0,3:0:0:0:
139,37,66468,1,4,3:2:0:0:
139,37,66638,1,4,3:2:0:0:
237,43,66979,6,0,P|301:82|314:132,1,110,2|8,3:2|0:0,0:0:0:0:
325,160,67491,1,0,3:0:0:0:
259,234,67832,1,4,3:2:0:0:
259,234,68002,1,4,3:2:0:0:
182,171,68343,6,0,L|65:184,1,110,2|8,3:2|0:0,0:0:0:0:
64,282,69025,2,0,L|181:295,1,110,2|8,3:2|0:0,0:0:0:0:
258,345,69707,5,2,3:2:0:0:
291,251,70048,1,4,0:0:0:0:
220,181,70388,1,0,3:0:0:0:
187,87,70729,1,4,0:0:0:0:
263,22,71070,6,0,P|336:28|379:7,1,110,4|8,3:2|0:0,0:0:0:0:
399,53,71582,1,0,0:0:0:0:
399,53,71752,2,0,L|392:175,1,110,0|8,3:0|0:0,0:0:0:0:
417,205,72263,1,0,0:0:0:0:
417,205,72434,6,0,P|373:190|295:199,1,110,2|8,3:2|0:0,0:0:0:0:
265,214,72945,1,2,0:0:0:0:
172,178,73286,2,0,L|182:118,2,55,0|8|0,0:0|0:0|0:0,0:0:0:0:
126,197,73798,6,0,P|142:251|130:326,1,110,2|8,0:0|0:0,0:0:0:0:
216,363,74479,2,0,P|286:335|341:341,1,110,0|8,3:0|0:0,0:0:0:0:
414,366,75161,2,0,P|410:291|398:249,1,110,2|8,3:2|0:0,0:0:0:0:
316,205,75843,2,0,P|259:224|208:264,1,110,2|8,3:2|0:0,0:0:0:0:
256,192,76525,12,4,77888,3:2:0:0:
400,246,79082,6,0,P|389:159|380:135,1,110,4|0,3:2|0:0,0:0:0:0:
358,94,79593,1,2,3:2:0:0:
279,153,79934,1,2,3:2:0:0:
191,85,80275,1,0,3:0:0:0:
191,85,80445,6,0,P|173:140|190:206,1,110,2|0,0:0|3:0,0:0:0:0:
203,235,80957,1,2,3:2:0:0:
290,189,81298,1,2,3:2:0:0:
356,261,81638,1,0,0:0:0:0:
436,203,81979,6,0,L|454:260,2,55,4|0|8,3:2|0:0|0:0,0:0:0:0:
480,180,82491,2,0,P|463:113|464:67,1,110,2|2,0:0|0:0,0:0:0:0:
484,27,83002,1,8,0:0:0:0:
484,27,83173,6,0,P|434:47|350:36,1,110,2|0,3:2|3:0,0:0:0:0:
330,32,83684,1,8,0:0:0:0:
239,71,84025,2,0,P|250:140|248:195,1,110,2|8,3:2|0:0,0:0:0:0:
184,255,84707,6,0,L|123:246,2,55,6|0|8,3:2|0:0|0:0,0:0:0:0:
207,298,85218,2,0,P|268:277|326:287,1,110,2|0,0:0|3:0,0:0:0:0:
357,302,85729,1,8,0:0:0:0:
357,302,85900,6,0,P|350:245|361:184,1,110,2|0,3:2|3:0,0:0:0:0:
379,148,86411,1,8,0:0:0:0:
354,51,86752,2,0,P|297:27|224:26,1,110,2|8,3:2|3:2,0:0:0:0:
157,61,87434,6,0,P|165:128|167:183,1,110,4|8,3:2|0:0,0:0:0:0:
138,211,87945,2,0,P|208:196|257:215,1,110,2|2,0:0|3:2,0:0:0:0:
288,227,88457,1,8,0:0:0:0:
288,227,88627,2,0,P|281:174|280:106,1,110,4|0,3:2|3:0,0:0:0:0:
354,52,89309,1,0,0:0:0:0:
354,52,89479,2,0,P|399:60|448:58,2,82.5,0|0|0,3:0|0:0|3:0,0:0:0:0:
311,26,90161,6,0,P|287:36|189:28,1,110,4|10,3:2|3:2,0:0:0:0:
155,25,90673,2,0,L|178:134,1,110,0|0,0:0|0:0,0:0:0:0:
98,191,91354,1,0,0:0:0:0:
98,191,91525,6,0,P|101:262|96:309,1,110,2|8,3:2|0:0,0:0:0:0:
65,338,92036,2,0,P|132:323|175:334,1,110,2|0,3:2|3:0,0:0:0:0:
263,369,92718,6,0,P|271:291|285:252,1,110,4|0,3:2|3:0,0:0:0:0:
264,214,93229,1,8,0:0:0:0:
330,140,93570,2,0,L|321:79,2,55,2|0|2,3:2|3:2|0:0,0:0:0:0:
374,163,94082,1,6,0:0:0:0:
256,192,94252,12,4,96809,3:2:0:0:
