osu file format v14

[General]
AudioFilename: audio.mp3
AudioLeadIn: 0
PreviewTime: 59999
Countdown: 0
SampleSet: Soft
StackLeniency: 0.8
Mode: 0
LetterboxInBreaks: 0
WidescreenStoryboard: 0

[Editor]
Bookmarks: 4942
DistanceSpacing: 1
BeatDivisor: 4
GridSize: 4
TimelineZoom: 1.7

[Metadata]
Title:Shuwarin*Drea~ming
TitleUnicode:しゅわりん☆どり~みん
Artist:Pastel*Palettes
ArtistUnicode:Pastel*Palettes
Creator:ailv
Version:Insane
Source:バンドリ!ガールズバンドパーティ!
Tags:girls band party hinsvar nitrous aliv anvil shuwa dreaming alvi lafayla bandori garupa バンドリ! ホシノコドウ Tofu1222
BeatmapID:1648323
BeatmapSetID:785222

[Difficulty]
HPDrainRate:5
CircleSize:4
OverallDifficulty:8
ApproachRate:9
SliderMultiplier:1.85
SliderTickRate:1

[Events]
//Background and Video events
0,0,"shuwa.jpg",0,0
//Break Periods
//Storyboard Layer 0 (Background)
//Storyboard Layer 1 (Fail)
//Storyboard Layer 2 (Pass)
//Storyboard Layer 3 (Foreground)
//Storyboard Sound Samples

[TimingPoints]
-1202,340.909090909091,4,2,1,30,1,0
161,-200,4,2,1,30,0,0
5616,-125,4,2,1,50,0,0
8173,-125,4,2,1,70,0,0
11070,-100,4,2,1,70,0,0
24707,-100,4,2,1,50,0,0
25048,-125,4,2,1,50,0,0
34082,-125,4,2,1,60,0,0
35616,-125,4,2,1,50,0,0
43798,-125,4,2,1,50,0,0
43968,-125,4,2,1,50,0,0
44138,-125,4,2,1,50,0,0
44309,-125,4,2,1,50,0,0
44479,-125,4,2,1,50,0,0
44650,-125,4,2,1,50,0,0
44820,-125,4,2,1,50,0,0
44991,-125,4,2,1,50,0,0
46525,-200,4,2,1,40,0,0
50616,-125,4,2,1,50,0,0
57263,-125,4,2,1,60,0,0
60161,-90.9090909090909,4,2,1,80,0,1
76525,-116.279069767442,4,2,1,60,0,1
77888,-100,4,2,1,60,0,0
79082,-100,4,2,1,70,0,0
94082,-200,4,2,1,40,0,0
96638,-200,4,2,1,60,0,0

[Colours]
Combo1 : 235,112,115
Combo2 : 255,157,206
Combo3 : 166,126,239

[HitObjects]
420,214,161,6,0,P|373:201|322:205,1,92.5,0|0,0:0|0:0,0:0:0:0:
273,259,673,1,2,0:0:0:0:
216,316,843,2,0,P|169:317|125:305,1,92.5,2|0,0:0|0:0,0:0:0:0:
52,186,1354,5,2,0:0:0:0:
92,124,1525,2,0,L|85:61,1,46.25,0|0,0:0|0:0,0:0:0:0:
185,17,1866,1,2,0:0:0:0:
210,89,2036,2,0,L|204:134,1,46.25,2|0,0:0|0:0,0:0:0:0:
297,207,2377,5,2,0:0:0:0:
371,180,2548,1,0,0:0:0:0:
311,130,2718,1,2,0:0:0:0:
369,263,2888,6,0,L|468:253,1,92.5,2|0,0:0|0:0,0:0:0:0:
334,357,3570,2,0,L|235:347,1,92.5,0|2,0:0|0:0,0:0:0:0:
103,224,4252,6,0,P|79:264|88:328,1,92.5,0|2,0:0|0:0,0:0:0:0:
192,377,4934,2,0,P|192:331|168:292,1,92.5,2|0,0:0|0:0,0:0:0:0:
0,189,5616,6,0,B|115:133|128:269|262:229|292:93|165:46|143:127,1,370,4|0,3:2|3:0,0:0:0:0:
149,111,6638,1,0,3:0:0:0:
260,41,6809,5,0,3:0:0:0:
281,66,6894,1,0,3:0:0:0:
295,93,6979,1,4,3:2:0:0:
476,201,8173,6,0,P|439:208|402:198,1,74,4|0,3:2|0:0,0:0:0:0:
325,133,8513,1,0,3:0:0:0:
281,220,8684,2,0,L|294:317,1,74,2|0,3:2|0:0,0:0:0:0:
332,120,9025,5,2,3:2:0:0:
179,290,9366,5,0,3:0:0:0:
95,236,9536,2,0,L|5:247,1,74,2|0,0:0|0:0,0:0:0:0:
95,120,9877,1,0,3:0:0:0:
171,179,10048,2,0,L|261:190,1,74,2|0,3:2|0:0,0:0:0:0:
250,30,10388,2,0,P|217:70|208:123,1,74,2|0,3:2|0:0,0:0:0:0:
445,288,10729,5,0,0:0:0:0:
477,255,10815,1,0,0:0:0:0:
490,211,10900,1,0,3:0:0:0:
483,166,10985,1,0,3:0:0:0:
455,129,11070,5,4,3:2:0:0:
304,205,11241,1,0,0:0:0:0:
413,293,11411,1,8,0:0:0:0:
374,113,11582,2,0,L|381:205,1,92.5,2|0,0:0|0:0,0:0:0:0:
280,340,11923,2,0,L|287:248,1,92.5,2|8,0:0|0:0,0:0:0:0:
140,135,12263,6,0,P|50:155|65:244,1,185,2|0,3:2|3:0,0:0:0:0:
234,189,12775,2,0,L|220:97,1,92.5,8|0,0:0|0:0,0:0:0:0:
345,30,13116,2,0,L|330:132,1,92.5,2|0,3:2|0:0,0:0:0:0:
456,209,13457,2,0,L|442:117,1,92.5,8|0,0:0|0:0,0:0:0:0:
324,240,13798,5,4,3:2:0:0:
491,322,13968,1,0,0:0:0:0:
428,211,14138,1,8,0:0:0:0:
383,384,14309,2,0,L|389:267,1,92.5,2|0,0:0|0:0,0:0:0:0:
286,136,14650,2,0,L|290:228,1,92.5,2|8,0:0|0:0,0:0:0:0:
115,363,14991,6,0,P|97:312|216:270,1,185,2|0,3:2|3:0,0:0:0:0:
380,349,15502,2,0,L|288:337,1,92.5,8|0,0:0|0:0,0:0:0:0:
115,363,15843,6,0,L|113:290,1,46.25,2|0,3:2|3:0,0:0:0:0:
205,195,16013,2,0,L|203:241,1,46.25,0|0,3:0|3:0,0:0:0:0:
99,158,16184,5,8,3:2:0:0:
119,116,16269,1,0,3:0:0:0:
154,88,16354,1,0,3:0:0:0:
199,77,16440,1,0,3:0:0:0:
244,85,16525,6,0,L|363:77,1,92.5,4|0,3:2|0:0,0:0:0:0:
453,11,16866,1,8,0:0:0:0:
506,146,17036,2,0,L|413:139,1,92.5,2|0,0:0|3:0,0:0:0:0:
255,225,17377,2,0,L|347:218,1,92.5,2|8,0:0|0:0,0:0:0:0:
497,346,17718,6,0,P|408:363|372:304,1,138.75,4|0,3:2|0:0,0:0:0:0:
362,322,18059,2,0,L|366:213,1,92.5,0|8,3:0|0:0,0:0:0:0:
301,130,18400,1,2,0:0:0:0:
186,275,18570,2,0,L|278:271,1,92.5,0|0,3:0|0:0,0:0:0:0:
122,349,18911,1,8,0:0:0:0:
161,185,19082,1,0,3:0:0:0:
12,169,19252,5,4,3:2:0:0:
132,201,19423,1,0,0:0:0:0:
71,12,19593,5,10,3:2:0:0:
28,153,19763,1,0,0:0:0:0:
186,94,19934,5,0,3:2:0:0:
180,8,20104,1,0,0:0:0:0:
270,153,20275,5,8,3:2:0:0:
278,53,20445,1,0,0:0:0:0:
429,33,20616,5,2,3:2:0:0:
305,66,20786,1,0,3:0:0:0:
442,200,20957,5,8,0:0:0:0:
462,62,21127,1,2,3:2:0:0:
330,180,21298,5,0,0:0:0:0:
345,300,21468,1,0,3:0:0:0:
214,143,21638,5,8,0:0:0:0:
234,348,21809,2,0,P|160:354|118:268,1,138.75,4|0,3:2|0:0,0:0:0:0:
127,273,22150,5,0,3:0:0:0:
28,344,22320,2,0,L|11:249,1,92.5,8|0,0:0|0:0,0:0:0:0:
133,101,22661,5,2,3:2:0:0:
177,93,22746,1,0,3:0:0:0:
219,112,22832,1,0,3:0:0:0:
242,151,22917,1,0,3:0:0:0:
239,197,23002,6,0,L|175:194,1,46.25,0|0,3:0|0:0,0:0:0:0:
7,110,23173,5,6,3:2:0:0:
112,9,23513,1,6,3:2:0:0:
212,116,23854,1,6,3:2:0:0:
104,216,24195,1,6,3:2:0:0:
406,329,24707,5,4,3:2:0:0:
402,341,25048,6,0,P|359:352|320:334,1,74,8|0,0:0|0:0,0:0:0:0:
266,260,25388,2,0,L|273:166,1,74,0|0,3:0|3:0,0:0:0:0:
333,88,25729,1,8,0:0:0:0:
222,93,25900,1,0,0:0:0:0:
361,188,26070,6,0,P|436:201|484:162,1,111,2|0,3:2|0:0,0:0:0:0:
482,168,26411,2,0,L|485:94,1,74,8|2,0:0|0:0,0:0:0:0:
379,25,26752,1,0,3:0:0:0:
331,102,26923,2,0,L|334:175,1,74,0|8,3:0|0:0,0:0:0:0:
273,269,27263,1,0,0:0:0:0:
171,190,27434,6,0,P|235:173|265:190,1,74,2|0,3:2|0:0,0:0:0:0:
163,287,27775,1,8,0:0:0:0:
71,230,27945,2,0,L|84:137,1,74,0|0,0:0|3:0,0:0:0:0:
163,287,28286,2,0,L|173:360,1,74,0|8,3:0|0:0,0:0:0:0:
315,316,28627,6,0,P|356:356|443:324,1,148,2|0,3:2|3:0,0:0:0:0:
491,253,29138,1,8,0:0:0:0:
491,253,29309,1,0,0:0:0:0:
417,157,29479,2,0,L|405:230,1,74,2|0,3:2|0:0,0:0:0:0:
298,148,29820,2,0,L|286:74,1,74,8|0,0:0|0:0,0:0:0:0:
143,37,30161,6,0,P|149:113|225:106,1,148,4|8,0:0|0:0,0:0:0:0:
125,206,30673,2,0,P|86:206|46:204,1,74,0|0,0:0|3:0,0:0:0:0:
198,351,31013,5,4,0:0:0:0:
84,322,31184,1,4,0:0:0:0:
272,272,31354,5,0,0:0:0:0:
353,315,31525,2,0,P|428:309|448:292,1,74,4|0,3:2|0:0,0:0:0:0:
489,198,31866,1,8,0:0:0:0:
373,162,32036,2,0,L|384:248,1,74,0|0,0:0|3:0,0:0:0:0:
507,88,32377,5,4,0:0:0:0:
498,211,32548,1,4,0:0:0:0:
387,141,32718,5,0,0:0:0:0:
285,177,32888,2,0,P|246:180|203:179,1,74,4|0,3:2|0:0,0:0:0:0:
124,84,33229,2,0,P|163:81|206:82,1,74,8|2,0:0|0:0,0:0:0:0:
63,184,33570,5,0,3:0:0:0:
44,36,33741,1,0,3:0:0:0:
200,106,33911,5,8,0:0:0:0:
198,120,33996,1,2,0:0:0:0:
197,136,34082,1,6,0:0:0:0:
188,355,34423,5,0,3:0:0:0:
178,222,34593,1,0,3:0:0:0:
330,274,34934,5,2,0:0:0:0:
197,375,35275,5,2,0:0:0:0:
168,205,35616,5,4,3:2:0:0:
178,222,35957,6,0,P|231:231|265:224,1,74,8|0,0:0|0:0,0:0:0:0:
318,142,36298,2,0,P|354:139|390:148,1,74,2|0,3:2|0:0,0:0:0:0:
458,240,36638,1,8,0:0:0:0:
480,142,36809,1,0,0:0:0:0:
350,238,36979,6,0,L|354:323,1,74,2|0,3:2|0:0,0:0:0:0:
223,370,37320,1,8,0:0:0:0:
174,295,37491,2,0,L|177:221,1,74,0|2,0:0|3:2,0:0:0:0:
80,123,37832,2,0,L|83:196,1,74,0|10,3:0|0:0,0:0:0:0:
177,128,38173,1,0,0:0:0:0:
99,48,38343,6,0,P|62:46|30:63,1,74,2|0,3:2|0:0,0:0:0:0:
83,196,38684,1,8,0:0:0:0:
177,128,38854,2,0,L|255:141,1,74,0|2,0:0|3:2,0:0:0:0:
83,196,39195,2,0,L|5:209,1,74,0|8,3:0|0:0,0:0:0:0:
157,330,39536,6,0,P|205:363|292:331,1,148,2|0,3:2|3:0,0:0:0:0:
343,250,40048,1,8,0:0:0:0:
343,250,40218,1,0,0:0:0:0:
238,206,40388,2,0,L|226:279,1,74,2|0,3:2|0:0,0:0:0:0:
378,361,40729,2,0,L|366:287,1,74,10|0,0:0|0:0,0:0:0:0:
420,107,41070,6,0,P|426:183|502:176,1,148,4|8,3:2|0:0,0:0:0:0:
442,21,41582,2,0,P|403:21|361:37,1,74,0|0,0:0|3:0,0:0:0:0:
197,100,41923,5,4,0:0:0:0:
321,118,42093,1,4,0:0:0:0:
215,18,42263,5,0,0:0:0:0:
120,169,42434,2,0,P|76:171|39:154,1,74,4|0,3:2|0:0,0:0:0:0:
114,36,42775,1,8,0:0:0:0:
210,128,42945,2,0,L|221:214,1,74,0|0,0:0|3:0,0:0:0:0:
346,151,43286,5,4,0:0:0:0:
362,14,43457,1,4,0:0:0:0:
482,104,43627,1,0,0:0:0:0:
440,232,43798,5,4,3:2:0:0:
450,113,43968,1,0,0:0:0:0:
343,287,44138,5,4,3:2:0:0:
329,164,44309,1,0,0:0:0:0:
219,338,44479,5,4,3:2:0:0:
362,317,44650,1,0,0:0:0:0:
165,183,44820,5,4,3:2:0:0:
186,326,44991,1,0,0:0:0:0:
243,210,45161,5,4,0:0:0:0:
91,159,45332,1,0,0:0:0:0:
91,159,45417,1,0,0:0:0:0:
91,159,45502,1,0,0:0:0:0:
219,61,45673,1,4,3:2:0:0:
111,247,45843,5,0,0:0:0:0:
77,66,46013,1,0,0:0:0:0:
244,265,46184,5,0,3:0:0:0:
208,99,46354,1,0,3:0:0:0:
374,154,46525,5,4,3:2:0:0:
370,175,46866,2,0,P|432:172|465:159,2,92.5,2|2|0,0:0|0:0|3:0,0:0:0:0:
300,107,47718,2,0,B|188:63|192:169|70:114,1,231.25,2|2,3:2|0:0,0:0:0:0:
84,302,48911,5,0,3:0:0:0:
154,340,49082,1,0,0:0:0:0:
215,293,49252,2,0,P|223:228|215:192,1,92.5,2|0,3:2|3:0,0:0:0:0:
94,113,49763,1,0,3:0:0:0:
61,186,49934,1,2,3:2:0:0:
69,198,50275,2,0,P|119:195|146:179,1,69.375,0|0,3:0|0:0,0:0:0:0:
202,135,50616,6,0,P|186:70|229:19,1,111,6|0,3:2|0:0,0:0:0:0:
227,22,50957,2,0,L|306:29,1,74,0|4,0:0|0:0,0:0:0:0:
419,27,51298,6,0,P|435:92|392:143,1,111,2|0,0:0|0:0,0:0:0:0:
394,140,51638,2,0,L|315:133,1,74,4|0,0:0|0:0,0:0:0:0:
266,248,51979,6,0,L|413:261,1,148,4|8,3:2|0:0,0:0:0:0:
449,381,52491,1,2,0:0:0:0:
320,376,52661,2,0,L|246:369,1,74,0|0,3:0|3:0,0:0:0:0:
184,253,53002,5,10,0:0:0:0:
204,384,53173,1,0,0:0:0:0:
85,319,53343,6,0,B|91:258|91:258|74:231|74:231|81:156,1,148,2|8,3:2|0:0,0:0:0:0:
79,176,53854,1,0,0:0:0:0:
179,135,54025,2,0,L|169:222,1,74,0|2,3:0|0:0,0:0:0:0:
223,53,54366,5,8,0:0:0:0:
98,81,54536,1,4,0:0:0:0:
295,236,54877,5,0,3:0:0:0:
170,208,55048,1,2,3:2:0:0:
371,119,55388,5,2,3:2:0:0:
371,119,55729,5,0,3:0:0:0:
246,147,55900,1,2,3:2:0:0:
443,302,56241,5,0,0:0:0:0:
318,274,56411,1,2,0:0:0:0:
318,274,56752,5,2,0:0:0:0:
380,372,56923,1,0,0:0:0:0:
480,310,57093,1,0,0:0:0:0:
419,208,57263,1,4,0:0:0:0:
425,197,57604,5,0,0:0:0:0:
384,344,57775,1,2,3:2:0:0:
283,253,57945,1,0,0:0:0:0:
441,204,58116,5,2,3:2:0:0:
402,350,58286,1,0,0:0:0:0:
232,187,58457,1,0,0:0:0:0:
268,357,58627,1,2,3:2:0:0:
273,369,58968,5,0,0:0:0:0:
423,196,59138,1,0,0:0:0:0:
417,179,59479,5,4,0:0:0:0:
101,161,59991,5,0,0:0:0:0:
216,262,60161,2,0,P|266:280|277:160,1,203.500006210327,4|8,3:2|0:0,0:0:0:0:
127,265,60673,1,0,0:0:0:0:
212,381,60843,2,0,L|426:356,1,203.500006210327,2|8,3:2|0:0,0:0:0:0:
512,212,61354,5,0,0:0:0:0:
347,180,61525,2,0,P|337:242|366:284,1,101.750003105164,2|0,3:2|0:0,0:0:0:0:
507,222,61866,1,8,0:0:0:0:
406,102,62036,2,0,L|290:90,1,101.750003105164,2|0,0:0|3:0,0:0:0:0:
141,50,62377,5,0,0:0:0:0:
208,192,62548,1,8,0:0:0:0:
307,67,62718,1,0,0:0:0:0:
115,175,62888,6,0,P|158:276|261:269,1,203.500006210327,2|8,3:2|0:0,0:0:0:0:
351,220,63400,1,0,0:0:0:0:
454,383,63570,2,0,L|441:270,1,101.750003105164,2|0,3:2|3:0,0:0:0:0:
269,205,63911,1,0,0:0:0:0:
441,97,64082,2,0,L|429:198,1,101.750003105164,4|0,3:2|0:0,0:0:0:0:
328,90,64423,5,0,3:0:0:0:
269,205,64593,2,0,L|149:198,1,101.750003105164,8|0,0:0|0:0,0:0:0:0:
85,48,64934,2,0,L|205:41,1,101.750003105164,2|0,0:0|3:0,0:0:0:0:
13,161,65275,1,8,3:2:0:0:
13,161,65360,1,0,0:2:0:0:
13,161,65445,1,0,0:2:0:0:
159,290,65616,6,0,P|181:251|156:187,1,101.750003105164,4|0,3:2|0:0,0:0:0:0:
9,253,65957,1,8,0:0:0:0:
103,372,66127,2,0,L|223:378,1,101.750003105164,0|2,3:0|0:0,0:0:0:0:
293,221,66468,5,4,3:2:0:0:
396,371,66638,2,0,L|401:247,1,101.750003105164,4|0,3:2|0:0,0:0:0:0:
395,93,66979,6,0,P|461:94|498:140,1,101.750003105164,2|0,3:2|0:0,0:0:0:0:
400,269,67320,1,8,0:0:0:0:
295,141,67491,2,0,L|289:35,1,101.750003105164,0|2,3:0|0:0,0:0:0:0:
147,176,67832,5,4,3:2:0:0:
163,17,68002,1,4,3:2:0:0:
10,153,68173,5,0,0:0:0:0:
122,275,68343,2,0,P|196:265|241:180,1,152.625004657746,2|0,3:2|0:0,0:0:0:0:
248,180,68684,2,0,L|230:64,1,101.750003105164,8|0,0:0|0:0,0:0:0:0:
403,16,69025,6,0,P|483:45|481:109,1,152.625004657746,2|0,3:2|0:0,0:0:0:0:
471,129,69366,2,0,L|356:119,1,101.750003105164,8|0,0:0|0:0,0:0:0:0:
251,277,69707,6,0,P|250:184|236:163,1,101.750003105164,2|0,3:2|0:0,0:0:0:0:
83,4,70048,2,0,P|69:52|79:101,1,101.750003105164,4|0,0:0|0:0,0:0:0:0:
167,229,70388,5,0,3:0:0:0:
167,229,70559,1,0,3:0:0:0:
174,59,70729,1,4,0:0:0:0:
314,159,70900,5,0,3:0:0:0:
314,159,70985,1,0,3:0:0:0:
314,159,71070,2,0,P|364:177|375:57,1,203.500006210327,4|8,3:2|0:0,0:0:0:0:
225,162,71582,1,0,0:0:0:0:
310,278,71752,2,0,L|524:253,1,203.500006210327,0|8,3:0|0:0,0:0:0:0:
348,384,72263,5,0,0:0:0:0:
217,275,72434,2,0,L|204:167,1,101.750003105164,2|0,3:2|0:0,0:0:0:0:
82,272,72775,1,8,0:0:0:0:
198,364,72945,2,0,P|269:350|293:302,1,101.750003105164,2|0,0:0|0:0,0:0:0:0:
398,156,73286,5,0,0:0:0:0:
248,250,73457,1,8,0:0:0:0:
403,347,73627,1,0,0:0:0:0:
392,142,73798,6,0,L|235:127,1,152.625004657746,2|0,0:0|0:0,0:0:0:0:
203,98,74138,2,0,P|198:38|222:1,1,101.750003105164,8|2,0:0|0:0,0:0:0:0:
0,157,74479,6,0,L|157:172,1,152.625004657746,0|0,3:0|0:0,0:0:0:0:
189,201,74820,2,0,P|194:261|170:298,1,101.750003105164,8|0,0:0|0:0,0:0:0:0:
350,384,75161,6,0,L|340:281,1,101.750003105164,2|0,3:2|0:0,0:0:0:0:
466,133,75502,2,0,L|456:235,1,101.750003105164,8|0,0:0|0:0,0:0:0:0:
292,219,75843,5,2,3:2:0:0:
292,219,75928,1,0,0:0:0:0:
292,219,76013,1,0,0:0:0:0:
321,23,76184,1,8,0:0:0:0:
465,133,76354,2,0,L|395:135,1,50.8750015525818,0|0,0:0|0:0,0:0:0:0:
192,202,76525,6,0,B|157:180|93:190|30:121|63:27|155:57|155:57|214:-13|300:38|270:139|236:145|200:181|217:222,1,556.850008496857,4|0,0:0|3:0,0:0:0:0:
214,212,77803,1,0,3:0:0:0:
214,212,77888,1,4,3:2:0:0:
350,252,79082,5,4,3:2:0:0:
137,98,79423,5,0,0:0:0:0:
262,70,79593,1,2,3:2:0:0:
88,223,79934,5,2,3:2:0:0:
82,236,80275,5,0,3:0:0:0:
110,361,80445,1,2,0:0:0:0:
275,152,80786,5,0,3:0:0:0:
247,277,80957,1,2,3:2:0:0:
257,294,81298,5,2,3:2:0:0:
446,363,81638,5,0,0:0:0:0:
481,334,81724,1,0,0:0:0:0:
495,291,81809,1,0,3:0:0:0:
480,248,81894,1,0,3:0:0:0:
444,221,81979,5,4,3:2:0:0:
289,281,82150,1,0,0:0:0:0:
410,375,82320,1,8,0:0:0:0:
361,197,82491,2,0,L|370:314,1,92.5,2|0,0:0|0:0,0:0:0:0:
243,383,82832,2,0,L|250:290,1,92.5,2|8,0:0|0:0,0:0:0:0:
151,146,83173,6,0,P|86:118|36:214,1,185,2|0,3:2|3:0,0:0:0:0:
161,229,83684,2,0,P|218:196|232:157,1,92.5,8|0,0:0|0:0,0:0:0:0:
279,27,84025,2,0,P|279:92|305:124,1,92.5,2|0,3:2|0:0,0:0:0:0:
394,230,84366,2,0,P|336:197|296:204,1,92.5,8|0,0:0|0:0,0:0:0:0:
161,334,84707,5,6,3:2:0:0:
324,289,84877,1,0,0:0:0:0:
196,180,85048,1,8,0:0:0:0:
172,349,85218,2,0,L|274:362,1,92.5,2|0,0:0|0:0,0:0:0:0:
117,232,85559,2,0,L|15:245,1,92.5,0|8,3:0|0:0,0:0:0:0:
205,140,85900,6,0,P|282:127|267:33,1,185,2|0,3:2|3:0,0:0:0:0:
102,112,86411,2,0,L|115:214,1,92.5,8|0,0:0|0:0,0:0:0:0:
260,299,86752,6,0,L|209:292,1,46.25,2|0,3:2|3:0,0:0:0:0:
70,363,86923,2,0,L|121:356,1,46.25,0|0,3:0|3:0,0:0:0:0:
325,376,87093,5,8,3:2:0:0:
354,341,87178,1,0,3:0:0:0:
363,296,87263,1,0,3:0:0:0:
349,253,87349,1,0,3:0:0:0:
314,222,87434,6,0,L|203:207,1,92.5,4|0,3:2|0:0,0:0:0:0:
152,144,87775,1,8,0:0:0:0:
46,246,87945,2,0,L|60:135,1,92.5,2|0,0:0|3:0,0:0:0:0:
177,39,88286,2,0,L|188:130,1,92.5,2|8,3:2|0:0,0:0:0:0:
314,222,88627,6,0,P|371:258|439:220,1,138.75,4|0,3:2|0:0,0:0:0:0:
448,212,88968,2,0,L|442:112,1,92.5,0|8,3:0|0:0,0:0:0:0:
354,12,89309,1,0,0:0:0:0:
260,150,89479,2,0,L|360:144,1,92.5,0|0,3:0|0:0,0:0:0:0:
205,63,89820,1,8,0:0:0:0:
159,201,89991,1,0,3:0:0:0:
10,185,90161,5,4,3:2:0:0:
130,217,90332,1,0,0:0:0:0:
28,336,90502,5,10,3:2:0:0:
14,214,90673,1,0,0:0:0:0:
153,184,90843,5,0,3:0:0:0:
140,321,91013,1,0,0:0:0:0:
267,158,91184,5,8,3:2:0:0:
255,277,91354,1,0,0:0:0:0:
393,286,91525,5,2,3:2:0:0:
260,297,91695,1,0,0:0:0:0:
404,150,91866,5,8,0:0:0:0:
412,299,92036,1,2,3:2:0:0:
302,96,92207,5,0,3:0:0:0:
407,114,92377,1,0,3:0:0:0:
213,188,92548,5,8,0:0:0:0:
232,364,92718,2,0,P|158:370|116:284,1,138.75,4|0,3:2|0:0,0:0:0:0:
126,288,93059,5,0,3:0:0:0:
306,267,93229,2,0,L|201:272,1,92.5,8|0,0:0|0:0,0:0:0:0:
90,196,93570,5,2,3:2:0:0:
74,165,93655,1,0,3:0:0:0:
72,130,93741,1,0,3:0:0:0:
82,97,93826,1,0,3:0:0:0:
103,70,93911,6,0,L|149:67,1,46.25,0|0,3:0|0:0,0:0:0:0:
402,65,94082,6,0,B|342:89|280:55|280:55|331:183|362:353|167:364|100:224|205:129|284:205,1,601.25,6|2,0:0|0:0,0:0:0:0:
394,290,96638,5,4,3:2:0:0:
394,290,96724,1,0,0:0:0:0:
394,290,96809,1,4,3:2:0:0:
