osu file format v14

[General]
AudioFilename: audio.mp3
AudioLeadIn: 0
PreviewTime: 66586
Countdown: 0
SampleSet: Soft
StackLeniency: 0.4
Mode: 0
LetterboxInBreaks: 0
WidescreenStoryboard: 0

[Editor]
Bookmarks: 240,15009,29778,51932,66702,81471,96240,110894
DistanceSpacing: 1
BeatDivisor: 4
GridSize: 4
TimelineZoom: 2.1

[Metadata]
Title:Sekai wa Koi ni Ochiteiru
TitleUnicode:世界は恋に落ちている
Artist:Pastel*Palettes
ArtistUnicode:Pastel*Palettes
Creator:lit120
Version:Normal
Source:バンドリ!ガールズバンドパーティ!
Tags:丸山彩 Maruyama Aya 大和麻弥 Yamato Maya 若宮イヴ Wakamiya Eve 白鷺千聖 Shirasagi Chisato 氷川日菜 Hikawa Hina パスパレ Paspale パステルパレット ぱすてるぱれっと Anime Game Girls Band Party ガルパ! Garupa Bandori アオハライド ao-haru-ride HoneyWorks -Hakurei- strickluke Gero
BeatmapID:1688745
BeatmapSetID:804459

[Difficulty]
HPDrainRate:5
CircleSize:3.5
OverallDifficulty:5
ApproachRate:5
SliderMultiplier:1.2
SliderTickRate:1

[Events]
//Background and Video events
0,0,"bg.jpg",0,0
//Break Periods
//Storyboard Layer 0 (Background)
//Storyboard Layer 1 (Fail)
//Storyboard Layer 2 (Pass)
//Storyboard Layer 3 (Foreground)
//Storyboard Sound Samples

[TimingPoints]
240.53488372093,461.538461538462,4,2,0,50,1,0
13625,-100,4,2,0,55,0,0
14086,-100,4,2,0,60,0,0
14548,-100,4,2,0,65,0,0
15009,-100,4,2,0,70,0,0
29778,-100,4,2,0,60,0,0
66702,-100,4,2,0,80,0,1
96240,-100,4,2,0,70,0,0

[Colours]
Combo1 : 237,197,103
Combo2 : 241,154,179
Combo3 : 146,163,194
Combo4 : 9,206,132

[HitObjects]
75,184,240,6,0,L|67:297,2,89.9999999999999
52,128,1163,2,0,P|126:144|173:117,1,120
201,79,1855,1,0,0:0:0:0:
201,79,2086,2,0,L|331:80,1,120
428,133,3009,2,0,P|427:50|436:28,2,90
454,186,3932,6,0,P|390:188|349:240,1,120
396,338,4855,2,0,L|246:328,1,120
226,295,5548,1,0,0:0:0:0:
226,295,5778,2,0,P|222:359|201:388,2,90
189,246,6702,2,0,L|190:121,1,120
219,73,7394,1,0,0:0:0:0:
219,73,7625,6,0,P|152:77|103:47,1,120
25,139,8548,2,0,L|25:279,1,120
88,360,9471,2,0,P|136:326|194:313,1,120
254,309,10163,1,0,0:0:0:0:
254,309,10394,2,0,L|376:310,1,120
430,329,11086,1,0,0:0:0:0:
430,329,11317,6,0,P|411:233|421:211,1,120
431,157,12009,1,0,0:0:0:0:
431,157,12240,2,0,L|427:82,2,60
324,212,13163,1,0,0:0:0:0:
238,127,13625,1,0,0:0:0:0:
131,182,14086,1,0,0:0:0:0:
150,300,14548,2,0,L|209:309,1,60
268,318,15009,6,0,P|335:330|385:315,1,120
409,260,15702,2,0,L|401:102,1,120
387,82,16394,1,0,0:0:0:0:
284,20,16855,2,0,P|230:63|165:66,1,120
120,73,17548,2,0,P|163:127|166:192,1,120
173,237,18240,1,0,0:0:0:0:
129,348,18702,6,0,L|258:335,1,120
307,343,19394,2,0,P|294:267|319:205,1,120
342,179,20086,1,0,0:0:0:0:
453,223,20548,2,0,L|446:101,1,120
412,53,21240,2,0,P|339:85|282:69,1,120
246,54,21932,2,0,L|171:55,1,60
127,38,22394,6,0,P|155:104|146:163,1,120
136,209,23086,2,0,P|202:181|261:190,1,120
308,199,23778,1,0,0:0:0:0:
379,295,24240,2,0,P|313:323|254:314,1,120
211,293,24932,2,0,L|70:303,1,120
33,320,25625,1,0,0:0:0:0:
80,210,26086,6,0,P|82:132|65:88,1,120
33,43,26778,2,0,L|176:51,1,120
210,66,27471,1,0,0:0:0:0:
323,27,27932,2,0,P|311:94|331:160,1,120
368,182,28625,2,0,P|379:240|367:298,1,120
313,324,29317,2,0,L|244:324,1,60
193,329,29778,6,0,P|205:270|193:212,1,120
97,139,30702,2,0,L|83:203,1,60
28,221,31163,2,0,L|42:285,1,60
76,328,31625,2,0,P|134:340|193:329,1,120
276,242,32548,2,0,P|334:230|392:242,1,120
442,275,33240,1,0,0:0:0:0:
442,275,33471,6,0,L|438:129,1,120
371,55,34394,1,0,0:0:0:0:
371,55,34625,2,0,P|318:89|232:82,1,120
197,79,35317,2,0,L|201:153,1,60
257,171,35778,2,0,L|253:245,1,60
198,266,36240,2,0,L|202:340,2,60
109,185,37163,6,0,P|77:237|96:307,1,120
201,326,38086,2,0,L|348:311,1,120
380,314,38778,1,0,0:0:0:0:
380,314,39009,2,0,P|357:250|382:183,1,120
426,95,39932,2,0,L|356:102,1,60
312,128,40394,2,0,L|242:121,1,60
200,91,40855,6,0,L|130:98,2,60
251,199,41778,2,0,P|254:279|223:331,1,120
140,384,42702,1,0,0:0:0:0:
70,285,43163,1,0,0:0:0:0:
168,217,43625,1,0,0:0:0:0:
237,313,44086,2,0,L|314:312,1,60
353,330,44548,6,0,P|341:272|353:214,1,120
401,178,45240,2,0,P|413:119|400:61,1,120
352,25,45932,1,0,0:0:0:0:
260,103,46394,2,0,P|190:107|145:72,1,120
103,43,47086,2,0,L|96:179,1,120
95,222,47778,1,0,0:0:0:0:
163,320,48240,6,0,P|238:287|298:301,1,120
330,312,48932,1,0,0:0:0:0:
330,312,49163,2,0,L|472:304,1,120
492,262,49855,1,0,0:0:0:0:
492,262,50086,2,0,P|499:177|476:120,1,120
397,67,51009,2,0,L|332:77,1,60
286,107,51471,2,0,L|221:97,1,60
173,70,51932,5,0,0:0:0:0:
78,144,52394,1,0,0:0:0:0:
190,190,52855,1,0,0:0:0:0:
95,264,53317,2,0,L|105:341,1,60
132,375,53778,2,0,P|202:342|271:353,1,120
299,364,54471,1,0,0:0:0:0:
299,364,54702,2,0,P|358:361|410:332,1,120
439,216,55625,6,0,L|436:87,1,120
398,49,56317,1,0,0:0:0:0:
398,49,56548,2,0,P|336:81|258:69,1,120
169,53,57471,2,0,L|164:112,1,60
160,172,57932,1,0,0:0:0:0:
280,162,58394,2,0,L|284:221,1,60
288,282,58855,2,0,L|292:341,1,60
242,376,59317,6,0,P|174:333|117:343,1,120
81,358,60009,2,0,L|84:219,1,120
94,178,60702,1,0,0:0:0:0:
176,91,61163,2,0,L|174:21,2,60
214,137,61855,2,0,P|291:141|355:102,1,120
376,87,62548,2,0,L|446:91,1,60
492,71,63009,6,0,P|471:129|492:209,1,120
510,301,63932,2,0,P|452:280|372:301,1,120
280,319,64855,2,0,P|301:261|280:181,1,120
248,162,65548,1,0,0:0:0:0:
248,162,65778,2,0,L|252:60,2,90
197,194,66702,6,0,P|128:194|86:161,1,120
40,129,67394,1,0,0:0:0:0:
40,129,67625,2,0,L|39:289,1,120
98,353,68548,2,0,P|157:318|244:331,1,120
264,335,69240,1,0,0:0:0:0:
264,335,69471,2,0,L|376:337,2,90
251,277,70394,6,0,P|246:218|264:161,1,120
308,120,71086,1,0,0:0:0:0:
308,120,71317,2,0,L|405:131,2,90
250,103,72240,2,0,P|183:92|124:119,1,120
105,160,72932,1,0,0:0:0:0:
105,160,73163,2,0,L|111:231,1,60
159,253,73625,2,0,L|153:324,1,60
119,361,74086,6,0,P|196:343|262:366,1,120
350,381,75009,2,0,L|347:240,1,120
318,208,75702,1,0,0:0:0:0:
318,208,75932,2,0,L|315:95,2,90
287,260,76855,1,0,0:0:0:0:
192,187,77317,1,0,0:0:0:0:
97,261,77778,6,0,P|74:208|86:128,1,120
170,68,78702,2,0,L|313:70,1,120
400,23,79625,1,0,0:0:0:0:
478,113,80086,1,0,0:0:0:0:
416,214,80548,1,0,0:0:0:0:
299,187,81009,2,0,L|298:271,1,60
317,304,81471,6,0,P|250:283|192:303,1,120
91,339,82394,2,0,L|97:268,1,60
143,242,82855,2,0,L|137:171,1,60
103,132,83317,2,0,P|172:147|258:111,1,120
334,103,84240,2,0,P|319:172|355:258,1,120
440,172,85163,6,0,P|455:103|419:17,1,120
389,20,85855,1,0,0:0:0:0:
389,20,86086,2,0,L|237:24,1,120
212,43,86778,1,0,0:0:0:0:
212,43,87009,2,0,P|143:58|57:22,1,120
13,134,87932,1,0,0:0:0:0:
19,253,88394,1,0,0:0:0:0:
108,334,88855,6,0,P|183:328|226:293,1,120
255,255,89548,1,0,0:0:0:0:
255,255,89778,2,0,L|326:253,1,60
370,276,90240,2,0,L|441:274,1,60
480,240,90702,2,0,P|491:190|459:106,1,120
365,70,91625,2,0,L|226:73,1,120
130,35,92548,5,0,0:0:0:0:
58,132,93009,1,0,0:0:0:0:
129,231,93471,1,0,0:0:0:0:
245,194,93932,2,0,L|248:272,1,60
232,312,94394,2,0,P|308:292|387:322,2,120
121,359,95778,2,0,L|115:284,1,60
148,247,96240,6,0,P|85:242|51:172,1,120
72,142,96932,2,0,L|200:127,1,120
251,127,97625,1,0,0:0:0:0:
341,205,98086,2,0,P|357:278|327:343,1,120
315,372,98778,2,0,L|442:353,1,120
484,322,99471,1,0,0:0:0:0:
438,210,99932,6,0,P|424:152|440:95,1,120
472,43,100625,2,0,P|414:56|357:40,1,120
305,9,101317,1,0,0:0:0:0:
197,62,101778,2,0,L|195:194,1,120
214,239,102471,2,0,P|129:215|72:249,1,120
57,264,103163,2,0,L|58:336,1,60
44,382,103625,6,0,P|134:352|192:366,1,120
215,370,104317,2,0,L|344:359,1,120
393,346,105009,1,0,0:0:0:0:
394,225,105471,2,0,L|274:235,1,120
214,239,106163,2,0,P|247:165|232:102,1,120
216,74,106855,1,0,0:0:0:0:
101,38,107317,6,0,L|86:177,1,120
63,211,108009,2,0,P|124:240|122:337,1,120
154,344,108702,1,0,0:0:0:0:
270,314,109163,2,0,P|341:317|380:348,1,120
432,371,109855,2,0,L|442:233,1,120
460,194,110548,2,0,P|400:187|382:163,1,90
