osu file format v14

[General]
AudioFilename: audio.mp3
AudioLeadIn: 0
PreviewTime: 67308
Countdown: 0
SampleSet: Soft
StackLeniency: 0.4
Mode: 0
LetterboxInBreaks: 0
WidescreenStoryboard: 0

[Editor]
Bookmarks: 847,15616,30385,52539,67308,82077,96847,111616,133770,148539,163308,176231,191000,205770,220539,235308,250077,264847,279616,294385,309039
DistanceSpacing: 1.8
BeatDivisor: 4
GridSize: 32
TimelineZoom: 2.3

[Metadata]
Title:Sekai wa Koi ni Ochiteiru
TitleUnicode:世界は恋に落ちている
Artist:Pastel*Palettes
ArtistUnicode:Pastel*Palettes
Creator:lit120
Version:Insane
Source:バンドリ! ガールズバンドパーティ!
Tags:chico with honeyworks Ao Haru Ride アオハライド Blue Spring cover collection volume 2 marathon full version bandori video game anime pop jpop j-pop japanese BanG Dream! Girls Band Party! PasuPare パスパレ Paspale パステルパレット ぱすてるぱれっと 丸山彩 Maruyama Aya 大和麻弥 Yamato Maya 若宮イヴ Wakamiya Eve 白鷺千聖 Shirasagi Chisato 氷川日菜 Hikawa Hina 前島亜美 Maeshima Ami 中上育美 Nakagami Ikumi 秦佐和子 Hata Sawako 上坂すみれ Uesaka Sumire 小澤亜李 Ozawa Ari -Hakurei- Shizuku- Kazato_Asa Shikibe_Mayu alternator
BeatmapID:2227050
BeatmapSetID:1063684

[Difficulty]
HPDrainRate:5.5
CircleSize:4.3
OverallDifficulty:8
ApproachRate:8.3
SliderMultiplier:1.79999990463257
SliderTickRate:1

[Events]
//Background and Video events
0,0,"i love aya mikan iljaaz and left.jpg",0,0
//Break Periods
//Storyboard Layer 0 (Background)
//Storyboard Layer 1 (Fail)
//Storyboard Layer 2 (Pass)
//Storyboard Layer 3 (Foreground)
//Storyboard Layer 4 (Overlay)
//Storyboard Sound Samples

[TimingPoints]
847,461.538461538462,4,2,1,50,1,0
847,-133.333333333333,4,2,1,50,0,0
14231,-111.111111111111,4,2,1,60,0,0
14693,-95.2380952380952,4,2,1,70,0,0
15154,-83.3333333333333,4,2,1,80,0,0
15270,-133.333333333333,4,2,1,5,0,0
15385,-83.3333333333333,4,2,1,80,0,0
15616,-57.1428571428571,4,2,1,80,0,0
16077,-83.3333333333333,4,2,1,80,0,0
17347,-83.3333333333333,4,2,1,5,0,0
17462,-83.3333333333333,4,2,1,80,0,0
20347,-83.3333333333333,4,2,1,5,0,0
20462,-83.3333333333333,4,2,1,80,0,0
21039,-83.3333333333333,4,2,1,5,0,0
21154,-83.3333333333333,4,2,1,80,0,0
22193,-83.3333333333333,4,2,1,5,0,0
22308,-83.3333333333333,4,2,1,80,0,0
23000,-57.1428571428571,4,2,1,80,0,0
23462,-83.3333333333333,4,2,1,80,0,0
30385,-100,4,2,1,65,0,0
30500,-66.6666666666667,4,2,1,5,0,0
30616,-100,4,2,1,65,0,0
32347,-100,4,2,1,5,0,0
32462,-100,4,2,1,65,0,0
46423,-100,4,2,1,5,0,0
46539,-100,4,2,1,65,0,0
48270,-100,4,2,1,5,0,0
48385,-100,4,2,1,65,0,0
51731,-100,4,2,1,5,0,0
51847,-100,4,2,1,65,0,0
55654,-100,4,2,1,5,0,0
55770,-100,4,2,1,65,0,0
59923,-66.6666666666667,4,2,1,65,0,0
60270,-100,4,2,1,5,0,0
60385,-66.6666666666667,4,2,1,65,0,0
60962,-100,4,2,1,5,0,0
61077,-66.6666666666667,4,2,1,65,0,0
62462,-100,4,2,1,65,0,0
63616,-133.333333333333,4,2,1,65,0,0
64654,-133.333333333333,4,2,1,5,0,0
64770,-133.333333333333,4,2,1,65,0,0
65347,-133.333333333333,4,2,1,5,0,0
65462,-133.333333333333,4,2,1,65,0,0
66385,-76.9230769230769,4,2,1,65,0,0
66500,-66.6666666666667,4,2,1,5,0,0
66731,-76.9230769230769,4,2,1,65,0,0
66847,-66.6666666666667,4,2,1,5,0,0
67077,-76.9230769230769,4,2,1,65,0,0
67193,-66.6666666666667,4,2,1,5,0,0
67308,-57.1428571428571,4,2,1,80,0,1
67770,-83.3333333333333,4,2,1,80,0,1
74693,-57.1428571428571,4,2,1,80,0,1
75154,-83.3333333333333,4,2,1,80,0,1
80347,-66.6666666666667,4,2,1,5,0,1
80462,-83.3333333333333,4,2,1,80,0,1
82077,-83.3333333333333,4,2,1,80,0,1
83347,-83.3333333333333,4,2,1,5,0,1
83462,-83.3333333333333,4,2,1,80,0,1
95000,-100,4,2,1,60,0,0
96847,-57.1428571428571,4,2,1,80,0,0
97308,-83.3333333333333,4,2,1,80,0,0
98577,-83.3333333333333,4,2,1,5,0,0
98693,-83.3333333333333,4,2,1,80,0,0
104231,-57.1428571428571,4,2,1,80,0,0
104693,-83.3333333333333,4,2,1,80,0,0
111616,-83.3333333333333,4,2,1,65,0,0
111731,-100,4,2,1,5,0,0
111847,-83.3333333333333,4,2,1,65,0,0
111962,-100,4,2,1,5,0,0
113462,-83.3333333333333,4,2,1,65,0,0
113577,-100,4,2,1,5,0,0
113693,-83.3333333333333,4,2,1,65,0,0
113808,-100,4,2,1,5,0,0
115308,-100,4,2,1,65,0,0
117154,-133.333333333333,4,2,1,65,0,0
117616,-133.333333333333,4,2,1,10,0,0
118077,-133.333333333333,4,2,1,30,0,0
118539,-100,4,2,1,65,0,0
127654,-100,4,2,1,5,0,0
127770,-100,4,2,1,65,0,0
129500,-100,4,2,1,5,0,0
129616,-100,4,2,1,65,0,0
131347,-100,4,2,1,5,0,0
131462,-100,4,2,1,65,0,0
132039,-100,4,2,1,5,0,0
132154,-100,4,2,1,65,0,0
136885,-100,4,2,1,5,0,0
137000,-100,4,2,1,65,0,0
141154,-66.6666666666667,4,2,1,65,0,0
141500,-100,4,2,1,5,0,0
141616,-66.6666666666667,4,2,1,65,0,0
142193,-66.6666666666667,4,2,1,5,0,0
142308,-66.6666666666667,4,2,1,65,0,0
143347,-66.6666666666667,4,2,1,5,0,0
143462,-66.6666666666667,4,2,1,65,0,0
143577,-66.6666666666667,4,2,1,5,0,0
143693,-100,4,2,1,65,0,0
144847,-133.333333333333,4,2,1,65,0,0
148077,-50,4,2,1,65,0,0
148423,-33.3333333333333,4,2,1,5,0,0
148539,-57.1428571428571,4,2,1,80,0,1
149000,-83.3333333333333,4,2,1,80,0,1
155923,-57.1428571428571,4,2,1,80,0,1
156385,-83.3333333333333,4,2,1,80,0,1
161577,-83.3333333333333,4,2,1,5,0,1
161693,-83.3333333333333,4,2,1,80,0,1
176231,-166.666666666667,4,2,1,50,0,0
205770,-133.333333333333,4,2,1,65,0,0
217770,-133.333333333333,4,2,1,5,0,0
219616,-133.333333333333,4,2,1,60,0,0
220077,-400,4,2,1,60,0,0
220423,-133.333333333333,4,2,1,5,0,0
220539,-57.1428571428571,4,2,1,80,0,0
221000,-83.3333333333333,4,2,1,80,0,0
231616,-57.1428571428571,4,2,1,80,0,0
232077,-83.3333333333333,4,2,1,80,0,0
235308,-100,4,2,1,65,0,0
242693,-66.6666666666667,4,2,1,65,0,0
243039,-100,4,2,1,5,0,0
243154,-66.6666666666667,4,2,1,65,0,0
243731,-100,4,2,1,5,0,0
243847,-66.6666666666667,4,2,1,65,0,0
245231,-100,4,2,1,65,0,0
246385,-133.333333333333,4,2,1,65,0,0
249154,-76.9230769230769,4,2,1,65,0,0
249270,-76.9230769230769,4,2,1,5,0,0
249500,-76.9230769230769,4,2,1,65,0,0
249616,-76.9230769230769,4,2,1,5,0,0
249847,-76.9230769230769,4,2,1,65,0,0
249962,-133.333333333333,4,2,1,5,0,0
250077,-133.333333333333,4,2,1,55,0,0
252731,-133.333333333333,4,2,1,5,0,0
252847,-133.333333333333,4,2,1,55,0,0
256423,-133.333333333333,4,2,1,5,0,0
256539,-133.333333333333,4,2,1,55,0,0
257462,-133.333333333333,4,2,1,65,0,0
260116,-133.333333333333,4,2,1,5,0,0
260231,-133.333333333333,4,2,1,65,0,0
261962,-133.333333333333,4,2,1,5,0,0
262077,-133.333333333333,4,2,1,65,0,0
262885,-133.333333333333,4,2,1,5,0,0
263000,-133.333333333333,4,2,1,65,0,0
263462,-111.111111111111,4,2,1,65,0,0
263923,-95.2380952380952,4,2,1,65,0,0
264385,-83.3333333333333,4,2,1,65,0,0
264847,-57.1428571428571,4,2,1,80,0,1
265308,-83.3333333333333,4,2,1,80,0,1
272231,-57.1428571428571,4,2,1,80,0,1
272693,-83.3333333333333,4,2,1,80,0,1
292539,-100,4,2,1,60,0,0
294385,-57.1428571428571,4,2,1,80,0,0
294847,-83.3333333333333,4,2,1,80,0,0
299116,-83.3333333333333,4,2,1,5,0,0
299231,-83.3333333333333,4,2,1,80,0,0
301770,-57.1428571428571,4,2,1,80,0,0
302231,-83.3333333333333,4,2,1,80,0,0
304654,-83.3333333333333,4,2,1,5,0,0
304770,-83.3333333333333,4,2,1,80,0,0

[Colours]
Combo1 : 243,135,186
Combo2 : 238,125,129
Combo3 : 243,196,137
Combo4 : 223,153,238

[HitObjects]
96,248,847,6,0,P|163:235|230:231,1,134.999997997284,2|0,0:0|0:0,0:0:0:0:
299,274,1539,1,0,0:0:0:0:
299,274,1654,1,0,0:0:0:0:
299,274,1770,2,0,P|333:275|373:268,1,67.499998998642,0|0,0:0|0:0,0:0:0:0:
445,145,2231,2,0,P|428:174|416:206,1,67.499998998642,2|0,0:0|0:0,0:0:0:0:
318,80,2693,6,0,P|335:109|347:141,2,67.499998998642,2|0|0,0:0|0:0|0:0,0:0:0:0:
254,29,3385,1,0,0:0:0:0:
164,110,3616,2,0,L|172:186,1,67.499998998642,0|0,0:0|0:0,0:0:0:0:
231,232,4077,2,0,L|223:308,1,67.499998998642,0|0,0:0|0:0,0:0:0:0:
239,336,4423,1,0,0:0:0:0:
239,336,4539,6,0,P|204:317|96:318,1,134.999997997284,2|0,0:0|0:0,0:0:0:0:
51,368,5231,1,0,0:0:0:0:
9,227,5462,2,0,P|23:257|33:289,1,67.499998998642,2|0,0:0|0:0,0:0:0:0:
126,186,5923,1,2,0:0:0:0:
47,148,6154,1,2,0:0:0:0:
47,148,6270,1,2,0:0:0:0:
47,148,6385,6,0,P|112:152|163:110,1,134.999997997284,2|0,0:0|0:0,0:0:0:0:
226,11,7077,1,2,0:0:0:0:
226,11,7193,1,2,0:0:0:0:
226,11,7308,2,0,P|230:45|238:78,1,67.499998998642,2|2,0:0|0:0,0:0:0:0:
271,101,7654,1,2,0:0:0:0:
271,101,7770,2,0,P|266:134|259:167,1,67.499998998642,2|2,0:0|0:0,0:0:0:0:
119,256,8231,6,0,P|150:242|182:232,1,67.499998998642,2|0,3:2|0:0,0:0:0:0:
329,311,8693,1,0,3:2:0:0:
383,250,8923,2,0,L|377:163,1,67.499998998642,0|0,0:0|3:2,0:0:0:0:
462,265,9385,1,0,0:0:0:0:
330,311,9616,2,0,P|302:291|277:268,1,67.499998998642,2|0,3:2|0:0,0:0:0:0:
119,256,10077,5,2,3:2:0:0:
174,315,10308,1,2,0:0:0:0:
174,315,10423,1,2,0:0:0:0:
174,315,10539,1,2,3:2:0:0:
198,238,10770,2,0,L|191:164,1,67.499998998642,2|0,0:0|3:2,0:0:0:0:
64,197,11231,2,0,L|71:123,1,67.499998998642,2|0,0:0|3:2,0:0:0:0:
166,45,11693,1,2,0:0:0:0:
166,45,11808,1,2,0:0:0:0:
166,45,11923,6,0,P|226:80|317:72,1,134.999997997284,2|0,3:2|3:2,0:0:0:0:
419,10,12616,2,0,P|387:20|361:41,2,67.499998998642,2|0|0,0:0|3:2|0:0,0:0:0:0:
360,121,13308,2,0,P|364:154|357:187,1,67.499998998642,2|0,3:2|0:0,0:0:0:0:
233,251,13770,6,0,B|255:252|255:252|274:241|274:241|297:242,1,67.499998998642,2|0,3:2|0:0,0:0:0:0:
436,132,14231,6,0,B|409:133|409:133|386:120|386:120|360:121,1,80.999993236542,2|0,3:2|0:0,0:0:0:0:
166,45,14693,6,0,B|197:45|197:45|223:30|223:30|255:31,1,94.499992109299,2|0,3:2|0:0,0:0:0:0:
436,133,15154,6,0,L|432:186,1,53.999995491028,2|0,1:2|0:0,0:0:0:0:
393,283,15385,1,0,1:2:0:0:
395,310,15500,1,0,1:2:0:0:
397,338,15616,6,0,B|265:374|301:263|172:314,1,236.24998973608,6|0,3:2|3:2,0:0:0:0:
117,361,16077,5,0,1:2:0:0:
33,261,16308,1,2,3:2:0:0:
39,229,16423,2,0,B|51:174|27:122|27:122|50:147|89:151,1,161.999986473084,0|2,1:2|3:2,0:0:0:0:
214,224,17000,1,2,1:2:0:0:
246,220,17116,1,2,3:2:0:0:
275,207,17231,2,0,P|280:180|275:147,1,53.999995491028,2|0,0:0|0:0,0:0:0:0:
177,48,17462,6,0,B|249:81|249:81|353:55,1,161.999986473084,2|2,3:2|3:2,0:0:0:0:
390,24,17923,1,0,1:2:0:0:
446,186,18154,1,2,3:2:0:0:
450,218,18270,1,0,1:2:0:0:
454,249,18385,2,0,L|447:364,1,107.999990982056,0|0,3:2|3:2,0:0:0:0:
342,225,18847,1,2,1:2:0:0:
311,218,18962,1,2,0:0:0:0:
278,217,19077,1,2,0:0:0:0:
246,220,19193,1,2,0:0:0:0:
215,229,19308,6,0,P|150:244|93:237,1,107.999990982056,2|0,3:2|0:0,0:0:0:0:
47,206,19654,1,2,3:2:0:0:
47,206,19770,1,0,1:2:0:0:
2,351,20000,1,2,3:2:0:0:
34,356,20116,2,0,L|146:351,1,107.999990982056,0|0,1:2|0:0,0:0:0:0:
210,335,20462,1,2,3:2:0:0:
311,218,20693,1,2,1:2:0:0:
343,221,20808,1,2,3:2:0:0:
375,224,20923,2,0,L|441:220,1,53.999995491028,2|0,0:0|0:0,0:0:0:0:
292,109,21154,6,0,P|224:150|202:226,1,161.999986473084,2|2,3:2|3:2,0:0:0:0:
219,294,21616,1,0,1:2:0:0:
34,356,21847,1,2,3:2:0:0:
23,326,21962,1,0,1:2:0:0:
25,293,22077,2,0,L|29:237,1,53.999995491028,0|0,3:2|0:0,0:0:0:0:
131,104,22308,1,0,1:2:0:0:
134,136,22423,1,0,1:2:0:0:
138,168,22539,5,0,1:2:0:0:
175,134,22654,1,8,0:3:0:0:
220,112,22770,1,8,0:3:0:0:
270,103,22885,1,8,0:3:0:0:
320,109,23000,6,0,B|403:133|472:103|472:103|451:103|433:96|413:85|401:56,1,236.24998973608,6|0,3:2|3:2,0:0:0:0:
469,30,23462,5,0,1:2:0:0:
510,183,23693,1,2,3:2:0:0:
509,215,23808,2,0,B|496:328|496:328|456:289,1,161.999986473084,0|2,1:2|3:2,0:0:0:0:
335,189,24385,2,0,L|389:196,1,53.999995491028,2|2,1:2|3:2,0:0:0:0:
230,316,24616,2,0,L|283:309,1,53.999995491028,2|0,0:0|0:0,0:0:0:0:
158,174,24847,6,0,B|104:167|104:167|47:203,1,107.999990982056,2|0,3:2|0:0,0:0:0:0:
30,260,25193,1,2,3:2:0:0:
30,260,25308,1,0,1:2:0:0:
247,182,25539,1,2,3:2:0:0:
256,151,25654,1,0,1:2:0:0:
266,120,25770,2,0,L|261:4,1,107.999990982056,0|0,3:2|3:2,0:0:0:0:
158,174,26231,1,2,1:2:0:0:
161,206,26347,1,2,0:0:0:0:
175,235,26462,1,2,0:0:0:0:
198,257,26577,1,2,0:0:0:0:
228,269,26693,6,0,L|359:259,1,107.999990982056,2|0,3:2|0:0,0:0:0:0:
398,229,27039,1,2,3:2:0:0:
398,229,27154,1,0,1:2:0:0:
507,109,27385,1,2,3:2:0:0:
490,81,27500,2,0,B|438:52|438:52|337:63,1,161.999986473084,0|2,1:2|3:2,0:0:0:0:
398,229,28077,2,0,L|464:225,1,53.999995491028,2|2,1:2|3:2,0:0:0:0:
256,151,28308,2,0,L|322:155,1,53.999995491028,2|0,0:0|0:0,0:0:0:0:
173,298,28539,6,0,B|118:307|118:307|68:284,1,107.999990982056,2|0,3:2|0:0,0:0:0:0:
36,223,28885,1,2,3:2:0:0:
36,223,29000,1,0,1:2:0:0:
80,17,29231,1,2,3:2:0:0:
95,47,29347,1,2,1:2:0:0:
110,77,29462,2,0,L|109:140,1,53.999995491028,2|2,3:2|0:0,0:0:0:0:
214,224,29693,5,2,1:2:0:0:
267,223,29808,1,2,1:2:0:0:
315,198,29923,1,8,0:3:0:0:
347,155,30039,1,2,1:2:0:0:
379,112,30154,1,4,0:3:0:0:
427,87,30270,1,4,0:3:0:0:
480,86,30385,6,0,P|496:117|496:148,1,44.9999976158143,6|0,3:2|0:0,0:0:0:0:
427,230,30616,1,2,3:2:0:0:
408,250,30731,2,0,P|368:254|347:250,1,44.9999976158143,2|0,0:0|1:2,0:0:0:0:
268,113,30962,2,0,P|283:130|294:150,1,44.9999976158143,2|0,0:0|0:0,0:0:0:0:
219,303,31193,1,2,0:0:0:0:
239,262,31308,5,2,3:2:0:0:
310,365,31539,1,2,0:0:0:0:
116,271,31770,1,2,1:2:0:0:
294,150,32000,1,2,0:0:0:0:
487,243,32231,6,0,L|492:198,1,44.9999976158143,2|0,3:2|0:0,0:0:0:0:
437,100,32462,1,2,3:2:0:0:
417,80,32577,1,2,3:2:0:0:
393,65,32693,2,0,L|274:68,1,89.9999952316285,0|2,1:2|0:0,0:0:0:0:
238,87,33039,1,2,0:0:0:0:
225,100,33154,5,2,3:2:0:0:
133,28,33385,1,2,0:0:0:0:
210,217,33616,1,2,1:2:0:0:
320,173,33847,1,2,0:0:0:0:
116,145,34077,5,2,3:2:0:0:
100,261,34308,1,2,3:2:0:0:
320,173,34539,2,0,P|371:170|429:178,1,89.9999952316285,2|2,1:2|0:0,0:0:0:0:
462,216,34885,1,2,0:0:0:0:
471,231,35000,1,2,3:2:0:0:
343,327,35231,2,0,P|298:331|254:327,1,89.9999952316285,2|0,0:0|1:2,0:0:0:0:
193,270,35693,1,2,0:0:0:0:
16,375,35923,5,2,3:2:0:0:
175,352,36154,1,2,3:2:0:0:
76,226,36385,1,2,1:2:0:0:
89,317,36616,2,0,L|95:362,1,44.9999976158143,2|2,0:0|0:0,0:0:0:0:
188,239,36847,5,2,3:2:0:0:
229,229,36962,1,2,0:0:0:0:
271,229,37077,1,2,3:2:0:0:
312,237,37193,1,2,0:0:0:0:
351,254,37308,5,2,1:2:0:0:
342,230,37423,1,2,0:0:0:0:
338,205,37539,1,2,0:0:0:0:
339,180,37654,1,2,0:0:0:0:
344,155,37770,6,0,L|351:83,1,44.9999976158143,2|0,3:2|0:0,0:0:0:0:
450,247,38000,1,2,3:2:0:0:
464,223,38116,2,0,L|457:151,1,44.9999976158143,2|0,0:0|1:2,0:0:0:0:
351,338,38347,2,0,B|305:318|305:318|242:318,1,89.9999952316285,2|0,0:0|0:0,0:0:0:0:
201,340,38693,5,2,3:2:0:0:
271,229,38923,1,2,0:0:0:0:
160,159,39154,1,2,1:2:0:0:
94,275,39385,2,0,L|101:331,1,44.9999976158143,2|2,0:0|0:0,0:0:0:0:
271,229,39616,6,0,L|264:173,1,44.9999976158143,2|0,3:2|0:0,0:0:0:0:
195,26,39847,1,2,3:2:0:0:
176,46,39962,1,2,3:2:0:0:
161,69,40077,2,0,L|160:159,1,89.9999952316285,0|2,1:2|0:0,0:0:0:0:
175,224,40423,1,2,0:0:0:0:
186,248,40539,5,2,3:2:0:0:
278,173,40770,1,2,0:0:0:0:
205,365,41000,1,2,1:2:0:0:
77,205,41231,1,2,0:0:0:0:
296,290,41462,6,0,P|368:282|398:273,1,89.9999952316285,2|0,3:2|3:2,0:0:0:0:
436,232,41808,1,0,3:2:0:0:
447,207,41923,1,0,1:2:0:0:
344,76,42154,2,0,L|339:121,1,44.9999976158143,2|0,0:0|0:0,0:0:0:0:
277,173,42385,2,0,P|232:171|189:161,1,89.9999952316285,0|0,3:2|0:0,0:0:0:0:
89,291,42847,2,0,P|134:288|178:279,1,89.9999952316285,2|0,1:2|0:0,0:0:0:0:
42,126,43308,6,0,L|36:231,1,89.9999952316285,2|0,3:2|3:2,0:0:0:0:
183,71,43770,2,0,L|189:161,1,89.9999952316285,2|0,1:2|0:0,0:0:0:0:
328,306,44231,2,0,P|287:286|245:273,1,89.9999952316285,2|0,3:2|3:2,0:0:0:0:
178,279,44577,1,2,0:0:0:0:
154,291,44693,2,0,L|38:284,1,89.9999952316285,2|2,1:2|0:0,0:0:0:0:
189,161,45154,6,0,P|252:193|376:183,1,179.999990463257,6|0,3:2|1:2,0:0:0:0:
458,126,45847,1,2,0:0:0:0:
321,45,46077,2,0,B|244:31|244:31|171:55,1,134.999992847443,0|0,3:2|0:0,0:0:0:0:
112,121,46539,2,0,P|167:88|212:40,1,89.9999952316285,2|0,1:2|0:0,0:0:0:0:
2,17,47000,6,0,P|26:104|34:194,1,179.999990463257,2|0,3:2|1:2,0:0:0:0:
71,305,47693,1,2,0:0:0:0:
251,249,47923,2,0,P|321:242|400:253,1,134.999992847443,0|0,3:2|0:0,0:0:0:0:
459,332,48385,2,0,P|426:300|404:261,1,89.9999952316285,2|0,1:2|0:0,0:0:0:0:
427,111,48847,5,2,3:2:0:0:
506,212,49077,1,0,3:2:0:0:
330,350,49308,1,0,1:2:0:0:
251,249,49539,1,2,0:0:0:0:
247,222,49654,1,2,0:0:0:0:
243,195,49770,2,0,B|256:134|231:77|231:77|251:107|303:116,1,179.999990463257,2|0,3:2|1:2,0:0:0:0:
261,322,50462,1,2,0:0:0:0:
234,328,50577,1,2,0:0:0:0:
206,328,50693,6,0,L|96:328,1,89.9999952316285,2|0,3:2|3:2,0:0:0:0:
53,301,51039,1,2,3:2:0:0:
53,301,51154,1,0,1:2:0:0:
145,201,51385,1,2,0:0:0:0:
171,195,51500,1,2,0:0:0:0:
198,196,51616,2,0,L|243:195,1,44.9999976158143,2|0,3:2|0:0,0:0:0:0:
300,78,51847,1,0,1:2:0:0:
262,53,51962,1,0,1:2:0:0:
224,28,52077,5,8,0:3:0:0:
197,29,52193,1,8,0:3:0:0:
170,30,52308,1,8,0:3:0:0:
143,31,52423,1,4,0:3:0:0:
117,32,52539,5,6,3:2:0:0:
75,155,52770,1,2,3:2:0:0:
198,197,53000,1,2,1:2:0:0:
239,74,53231,1,2,0:0:0:0:
115,237,53462,5,2,3:2:0:0:
324,171,53693,1,2,0:0:0:0:
158,115,53923,1,2,1:2:0:0:
281,48,54154,1,2,0:0:0:0:
238,279,54385,5,2,3:2:0:0:
115,237,54616,1,2,3:2:0:0:
241,131,54847,1,2,1:2:0:0:
361,321,55077,1,2,0:0:0:0:
136,329,55308,2,0,P|61:314|22:250,1,134.999992847443,2|0,3:2|0:0,0:0:0:0:
105,147,55770,2,0,L|115:237,1,89.9999952316285,0|0,1:2|0:0,0:0:0:0:
250,379,56231,5,2,3:2:0:0:
301,265,56462,1,2,3:2:0:0:
186,214,56693,1,2,1:2:0:0:
136,329,56923,1,2,0:0:0:0:
269,182,57154,5,2,3:2:0:0:
76,141,57385,1,2,0:0:0:0:
218,297,57616,1,2,1:2:0:0:
356,195,57847,1,2,0:0:0:0:
214,39,58077,5,2,3:2:0:0:
186,169,58308,2,0,L|186:214,1,44.9999976158143,2|2,3:2|0:0,0:0:0:0:
76,141,58539,2,0,B|32:151|32:151|2:186,1,89.9999952316285,2|2,1:2|0:0,0:0:0:0:
3,253,58885,1,2,0:0:0:0:
15,277,59000,5,2,3:2:0:0:
132,331,59231,2,0,L|132:286,1,44.9999976158143,2|2,3:2|0:0,0:0:0:0:
271,182,59462,1,2,1:2:0:0:
310,177,59577,1,0,1:2:0:0:
349,178,59693,1,8,0:3:0:0:
387,186,59808,1,4,0:3:0:0:
424,199,59923,6,0,B|418:343|418:343|396:310|358:287,1,202.499996995926,6|0,1:2|0:0,0:0:0:0:
312,248,60385,1,0,3:2:0:0:
472,70,60616,2,0,B|355:38|394:136|273:96,1,202.499996995926,6|0,1:2|0:0,0:0:0:0:
222,46,61077,1,0,3:2:0:0:
76,141,61308,1,2,1:2:0:0:
77,167,61423,1,0,1:2:0:0:
79,194,61539,1,8,0:3:0:0:
81,221,61654,1,4,0:3:0:0:
83,248,61770,5,2,3:2:0:0:
239,182,62000,2,0,L|172:188,1,67.499998998642,4|0,1:2|0:0,0:0:0:0:
349,310,62231,2,0,L|281:304,1,67.499998998642,4|0,1:2|0:0,0:0:0:0:
395,116,62462,5,2,3:2:0:0:
404,141,62577,2,0,L|409:208,1,44.9999976158143,0|0,1:2|3:2,0:0:0:0:
279,113,62808,1,0,1:2:0:0:
282,75,62923,1,0,1:2:0:0:
285,38,63039,1,0,1:2:0:0:
288,0,63154,5,8,0:3:0:0:
258,34,63270,1,8,0:3:0:0:
218,54,63385,1,4,0:3:0:0:
174,56,63500,1,4,0:3:0:0:
132,40,63616,6,0,P|88:39|44:48,1,67.499998998642,6|2,3:2|0:0,0:0:0:0:
136,142,64077,2,0,P|170:144|204:140,1,67.499998998642,2|2,0:3|0:0,0:0:0:0:
307,53,64539,2,0,P|293:63|282:75,1,33.749999499321,2|0,0:0|0:0,0:0:0:0:
295,226,64770,1,2,0:0:0:0:
304,207,64885,2,0,P|302:190|298:173,1,33.749999499321,2|2,0:0|0:3,0:0:0:0:
161,111,65116,1,2,0:0:0:0:
172,128,65231,2,0,P|187:135|204:140,1,33.749999499321,2|0,0:0|0:0,0:0:0:0:
286,245,65462,6,0,P|223:224|151:219,1,134.999997997284,2|2,0:0|0:3,0:0:0:0:
73,262,66154,1,0,3:2:0:0:
65,280,66270,1,0,3:2:0:0:
58,299,66385,6,0,L|63:357,1,58.4999942226413,2|0,1:2|0:0,0:0:0:0:
65,280,66731,6,0,L|70:338,1,58.4999942226413,2|0,1:2|0:0,0:0:0:0:
73,262,67077,6,0,L|78:320,1,58.4999942226413,2|0,1:2|0:0,0:0:0:0:
20,182,67308,6,0,B|139:124|124:249|243:198,1,236.24998973608,6|2,3:2|3:2,0:0:0:0:
299,149,67770,5,0,1:2:0:0:
412,246,68000,1,2,3:2:0:0:
418,215,68116,2,0,L|416:153,1,53.999995491028,0|2,1:2|0:0,0:0:0:0:
313,223,68347,1,0,1:2:0:0:
307,254,68462,2,0,L|309:316,1,53.999995491028,0|2,3:2|0:0,0:0:0:0:
181,352,68693,2,0,B|116:359|116:359|78:340,1,107.999990982056,0|2,1:2|0:0,0:0:0:0:
20,182,69154,6,0,L|27:63,1,107.999990982056,2|0,3:2|0:0,0:0:0:0:
59,11,69500,1,2,3:2:0:0:
59,11,69616,1,0,1:2:0:0:
190,56,69847,2,0,L|186:109,1,53.999995491028,2|0,3:2|1:2,0:0:0:0:
131,175,70077,1,2,1:2:0:0:
132,201,70193,1,0,1:2:0:0:
134,229,70308,2,0,L|137:282,1,53.999995491028,0|2,3:2|0:0,0:0:0:0:
330,228,70539,2,0,B|285:212|285:212|226:222,1,107.999990982056,0|2,1:2|0:0,0:0:0:0:
371,318,71000,6,0,P|421:263|398:156,1,161.999986473084,2|2,3:2|3:2,0:0:0:0:
358,138,71462,1,0,1:2:0:0:
226,222,71693,1,2,3:2:0:0:
227,248,71808,1,0,1:2:0:0:
229,275,71923,1,2,1:2:0:0:
230,302,72039,1,0,1:2:0:0:
232,330,72154,2,0,L|235:383,1,53.999995491028,0|2,3:2|0:0,0:0:0:0:
330,228,72385,1,0,1:2:0:0:
228,130,72616,1,2,0:0:0:0:
130,232,72847,6,0,B|76:243|76:243|14:221,1,107.999990982056,2|0,3:2|0:0,0:0:0:0:
7,157,73193,1,2,3:2:0:0:
7,157,73308,1,0,1:2:0:0:
130,35,73539,2,0,L|133:88,1,53.999995491028,2|0,1:2|1:2,0:0:0:0:
228,130,73770,5,2,1:2:0:0:
264,137,73885,1,8,0:3:0:0:
300,132,74000,1,0,1:2:0:0:
332,114,74116,1,0,1:2:0:0:
356,85,74231,5,0,1:2:0:0:
334,134,74347,1,4,0:3:0:0:
326,188,74462,1,4,0:3:0:0:
332,241,74577,1,4,0:3:0:0:
351,291,74693,6,0,B|411:274|436:215|436:215|385:173|326:188,1,236.24998973608,6|2,3:2|3:2,0:0:0:0:
293,250,75154,5,0,1:2:0:0:
167,351,75385,1,2,3:2:0:0:
145,327,75500,2,0,L|148:267,1,53.999995491028,0|2,1:2|0:0,0:0:0:0:
234,214,75731,1,0,1:2:0:0:
256,190,75847,2,0,L|253:130,1,53.999995491028,0|2,3:2|0:0,0:0:0:0:
164,16,76077,1,0,1:2:0:0:
104,109,76308,1,2,0:0:0:0:
313,43,76539,6,0,B|371:37|371:37|431:52,1,107.999990982056,2|0,3:2|0:0,0:0:0:0:
462,105,76885,1,2,3:2:0:0:
462,105,77000,1,0,1:2:0:0:
359,201,77231,2,0,L|357:148,1,53.999995491028,2|0,3:2|1:2,0:0:0:0:
495,242,77462,1,2,1:2:0:0:
493,268,77577,1,0,1:2:0:0:
492,296,77693,2,0,L|489:349,1,53.999995491028,0|0,3:2|0:0,0:0:0:0:
296,303,77923,2,0,B|338:283|338:283|398:290,1,107.999990982056,2|0,1:2|0:0,0:0:0:0:
253,136,78385,6,0,B|211:156|211:156|150:148,1,107.999990982056,2|0,3:2|0:0,0:0:0:0:
91,108,78731,1,0,3:2:0:0:
91,108,78847,1,2,1:2:0:0:
48,253,79077,1,0,3:2:0:0:
49,279,79193,1,0,1:2:0:0:
51,307,79308,2,0,L|53:360,1,53.999995491028,2|0,1:2|1:2,0:0:0:0:
182,246,79539,2,0,L|179:299,1,53.999995491028,0|0,3:2|0:0,0:0:0:0:
298,357,79770,2,0,B|358:364|358:364|400:344,1,107.999990982056,2|0,1:2|0:0,0:0:0:0:
443,204,80231,6,0,L|435:278,1,53.999995491028,6|0,3:2|0:0,0:0:0:0:
298,357,80462,1,0,1:2:0:0:
294,323,80577,1,0,1:2:0:0:
291,290,80693,6,0,L|283:216,1,53.999995491028,6|0,3:2|1:2,0:0:0:0:
197,90,80923,1,0,1:2:0:0:
193,124,81039,1,0,1:2:0:0:
190,157,81154,6,0,L|182:231,1,53.999995491028,6|0,3:2|0:0,0:0:0:0:
45,309,81385,1,0,1:2:0:0:
41,275,81500,1,0,3:2:0:0:
38,243,81616,6,0,L|32:189,1,53.999995491028,2|0,1:2|1:2,0:0:0:0:
115,40,81847,1,4,0:3:0:0:
111,73,81962,1,4,0:3:0:0:
107,107,82077,5,6,3:2:0:0:
33,189,82308,1,2,0:0:0:0:
119,7,82539,1,2,1:2:0:0:
234,172,82770,1,2,0:0:0:0:
232,198,82885,1,0,1:2:0:0:
231,226,83000,6,0,L|228:279,1,53.999995491028,2|0,3:2|1:2,0:0:0:0:
109,132,83231,2,0,L|112:185,1,53.999995491028,2|0,0:0|0:0,0:0:0:0:
251,73,83462,1,2,1:2:0:0:
318,160,83693,1,2,0:0:0:0:
347,158,83808,1,2,0:0:0:0:
375,156,83923,5,2,3:2:0:0:
443,74,84154,1,2,0:0:0:0:
413,256,84385,1,2,1:2:0:0:
231,226,84616,1,0,1:2:0:0:
204,220,84731,1,0,1:2:0:0:
177,219,84847,1,2,3:2:0:0:
150,222,84962,1,0,1:2:0:0:
126,230,85077,2,0,L|122:284,1,53.999995491028,0|0,3:2|0:0,0:0:0:0:
23,149,85308,2,0,L|27:203,1,53.999995491028,0|0,1:2|0:0,0:0:0:0:
157,77,85539,1,0,1:2:0:0:
155,103,85654,1,0,1:2:0:0:
153,130,85770,5,2,3:2:0:0:
54,46,86000,1,2,0:0:0:0:
126,230,86231,1,2,1:2:0:0:
250,76,86462,2,0,L|246:22,1,53.999995491028,2|0,0:0|1:2,0:0:0:0:
347,158,86693,5,2,3:2:0:0:
345,184,86808,1,0,1:2:0:0:
343,211,86923,1,0,1:2:0:0:
213,293,87154,2,0,B|264:269|264:269|346:280,1,107.999990982056,2|2,1:2|0:0,0:0:0:0:
383,297,87500,1,2,0:0:0:0:
400,324,87616,6,0,L|392:383,1,53.999995491028,2|0,3:2|0:0,0:0:0:0:
282,243,87847,1,2,0:0:0:0:
265,270,87962,2,0,L|273:329,1,53.999995491028,2|0,0:0|1:2,0:0:0:0:
397,189,88193,1,2,0:0:0:0:
414,216,88308,2,0,L|407:270,1,53.999995491028,2|0,0:0|1:2,0:0:0:0:
268,135,88539,1,2,3:2:0:0:
250,162,88654,2,0,L|257:215,1,53.999995491028,2|0,1:2|0:0,0:0:0:0:
411,81,88885,1,2,0:0:0:0:
428,108,89000,2,0,L|420:161,1,53.999995491028,2|0,1:2|0:0,0:0:0:0:
254,27,89231,1,2,0:0:0:0:
227,30,89347,1,2,0:0:0:0:
200,34,89462,5,2,3:2:0:0:
114,141,89693,1,2,0:0:0:0:
250,162,89923,1,2,1:2:0:0:
93,277,90154,1,2,0:0:0:0:
66,274,90270,1,0,1:2:0:0:
39,271,90385,6,0,L|18:217,1,53.999995491028,2|0,3:2|1:2,0:0:0:0:
144,211,90616,2,0,L|164:161,1,53.999995491028,2|0,3:2|0:0,0:0:0:0:
248,271,90847,1,2,1:2:0:0:
345,158,91077,1,2,0:0:0:0:
349,184,91193,1,2,0:0:0:0:
353,211,91308,5,2,3:2:0:0:
249,151,91539,2,0,L|257:98,1,53.999995491028,2|0,0:0|0:0,0:0:0:0:
457,44,91770,2,0,B|405:60|405:60|353:51,1,107.999990982056,2|0,1:2|0:0,0:0:0:0:
289,19,92116,1,0,1:2:0:0:
260,3,92231,6,0,L|151:22,1,107.999990982056,2|0,3:2|0:0,0:0:0:0:
88,167,92693,1,0,1:2:0:0:
90,194,92808,1,0,1:2:0:0:
91,221,92923,1,8,0:3:0:0:
93,248,93039,1,4,0:3:0:0:
96,275,93154,6,0,L|100:342,1,53.999995491028,2|0,1:2|0:0,0:0:0:0:
189,167,93385,1,2,1:2:0:0:
191,141,93500,1,0,1:2:0:0:
194,114,93616,6,0,L|198:46,1,53.999995491028,2|0,1:2|0:0,0:0:0:0:
280,214,93847,1,8,0:3:0:0:
282,240,93962,1,8,0:3:0:0:
285,267,94077,6,0,L|289:334,1,53.999995491028,2|0,1:2|0:0,0:0:0:0:
377,175,94308,1,4,0:3:0:0:
379,149,94423,1,4,0:3:0:0:
382,122,94539,6,0,L|386:54,1,53.999995491028,2|0,1:2|0:0,0:0:0:0:
468,207,94770,2,0,L|472:274,1,53.999995491028,4|4,0:3|0:3,0:0:0:0:
379,363,95000,5,6,1:2:0:0:
364,338,95116,2,0,P|306:343|231:348,1,89.9999952316285,2|2,0:0|0:0,0:0:0:0:
211,294,95462,2,0,P|153:289|78:284,1,89.9999952316285,2|2,0:0|0:0,0:0:0:0:
49,324,95808,1,2,0:0:0:0:
11,181,96039,1,2,0:0:0:0:
11,181,96154,2,0,L|72:192,1,44.9999976158143,2|0,0:0|0:0,0:0:0:0:
189,181,96385,5,2,0:0:0:0:
187,158,96500,1,2,0:0:0:0:
185,136,96616,1,2,0:0:0:0:
184,113,96731,1,2,0:0:0:0:
148,80,96847,6,0,B|268:142|251:11|372:71,1,236.24998973608,6|0,3:2|3:2,0:0:0:0:
416,127,97308,5,0,1:2:0:0:
476,272,97539,1,2,3:2:0:0:
451,293,97654,2,0,P|339:279|281:285,1,161.999986473084,0|2,1:2|3:2,0:0:0:0:
121,356,98231,1,2,1:2:0:0:
142,331,98347,1,2,3:2:0:0:
156,301,98462,2,0,L|155:234,1,53.999995491028,2|0,0:0|0:0,0:0:0:0:
61,48,98693,6,0,B|41:106|41:106|57:180,1,107.999990982056,2|0,3:2|0:0,0:0:0:0:
75,217,99039,1,2,3:2:0:0:
75,217,99154,1,0,1:2:0:0:
293,165,99385,1,2,3:2:0:0:
273,140,99501,1,0,1:2:0:0:
253,114,99616,2,0,L|145:108,1,107.999990982056,0|0,3:2|3:2,0:0:0:0:
297,27,100077,1,2,1:2:0:0:
319,50,100193,1,2,0:0:0:0:
345,69,100308,1,2,0:0:0:0:
374,84,100423,1,2,0:0:0:0:
405,93,100539,6,0,P|450:114|492:222,1,161.999986473084,2|2,3:2|3:2,0:0:0:0:
478,280,101000,1,0,1:2:0:0:
334,357,101231,1,2,3:2:0:0:
320,327,101347,1,0,1:2:0:0:
306,297,101462,2,0,L|313:190,1,107.999990982056,0|2,3:2|3:2,0:0:0:0:
235,71,101923,2,0,L|181:74,1,53.999995491028,2|2,1:2|3:2,0:0:0:0:
63,146,102154,2,0,L|116:149,1,53.999995491028,2|0,0:0|0:0,0:0:0:0:
194,268,102385,6,0,B|187:375|187:375|148:335,1,161.999986473084,2|2,3:2|3:2,0:0:0:0:
112,262,102847,1,0,1:2:0:0:
252,163,103077,1,2,3:2:0:0:
282,176,103193,1,0,1:2:0:0:
313,190,103308,2,0,L|366:186,1,53.999995491028,0|0,3:2|0:0,0:0:0:0:
503,71,103539,1,0,1:2:0:0:
473,84,103655,1,0,1:2:0:0:
442,98,103770,5,0,1:2:0:0:
398,72,103885,1,8,0:3:0:0:
351,56,104000,1,8,0:3:0:0:
301,50,104116,1,8,0:3:0:0:
251,55,104231,6,0,B|174:85|105:51|105:51|146:79|136:131,1,236.24998973608,6|0,3:2|3:2,0:0:0:0:
92,177,104693,5,0,1:2:0:0:
10,342,104923,1,2,3:2:0:0:
5,311,105038,1,0,1:2:0:0:
0,279,105154,1,0,3:2:0:0:
101,371,105385,1,2,3:2:0:0:
194,270,105616,2,0,L|184:207,1,53.999995491028,2|0,1:2|3:2,0:0:0:0:
92,177,105847,2,0,L|100:123,1,53.999995491028,2|0,0:0|0:0,0:0:0:0:
185,76,106077,6,0,B|261:67|261:67|347:90,1,161.999986473084,2|2,3:2|3:2,0:0:0:0:
398,133,106539,1,0,1:2:0:0:
498,23,106770,1,2,3:2:0:0:
506,54,106885,2,0,P|505:134|502:219,1,161.999986473084,0|0,1:2|3:2,0:0:0:0:
389,310,107462,1,2,1:2:0:0:
356,306,107577,1,2,0:0:0:0:
324,303,107693,1,2,0:0:0:0:
292,299,107808,1,2,0:0:0:0:
260,296,107923,6,0,L|147:301,1,107.999990982056,2|0,3:2|0:0,0:0:0:0:
89,335,108270,1,2,3:2:0:0:
89,335,108385,1,0,1:2:0:0:
7,179,108616,1,2,3:2:0:0:
15,147,108731,1,0,1:2:0:0:
24,115,108847,2,0,B|75:98|75:98|147:112,1,107.999990982056,0|2,3:2|3:2,0:0:0:0:
290,192,109308,1,2,1:2:0:0:
322,186,109423,1,2,3:2:0:0:
355,180,109539,2,0,L|408:170,1,53.999995491028,2|0,0:0|0:0,0:0:0:0:
255,63,109770,6,0,L|308:72,1,53.999995491028,2|0,3:2|0:0,0:0:0:0:
183,210,110000,2,0,L|237:201,1,53.999995491028,4|2,1:2|0:0,0:0:0:0:
83,32,110231,2,0,L|136:41,1,53.999995491028,4|0,1:2|0:0,0:0:0:0:
12,241,110462,5,2,3:2:0:0:
38,236,110577,1,2,1:2:0:0:
65,232,110693,2,0,L|83:181,1,53.999995491028,2|2,1:2|0:0,0:0:0:0:
136,41,110923,5,2,1:2:0:0:
183,65,111039,1,2,1:2:0:0:
210,111,111154,1,2,1:2:0:0:
211,164,111270,1,2,1:2:0:0:
183,210,111385,1,2,1:2:0:0:
156,256,111500,1,2,1:2:0:0:
157,310,111616,6,0,L|165:378,1,53.999995491028,2|0,1:2|0:0,0:0:0:0:
329,210,111847,2,0,L|335:156,1,53.999995491028,2|2,1:2|0:0,0:0:0:0:
355,310,113462,6,0,L|347:378,1,53.999995491028,2|0,1:2|0:0,0:0:0:0:
183,210,113693,2,0,L|176:156,1,53.999995491028,2|2,1:2|0:0,0:0:0:0:
176,156,115308,5,6,3:2:0:0:
253,244,115539,1,2,3:2:0:0:
215,47,115770,1,2,1:2:0:0:
64,179,116000,1,2,3:2:0:0:
66,201,116116,1,2,1:2:0:0:
69,223,116231,2,0,L|79:312,1,89.9999952316285,2|2,3:2|3:2,0:0:0:0:
297,255,116693,1,0,1:2:0:0:
275,247,116808,1,0,1:2:0:0:
253,244,116923,1,8,0:3:0:0:
231,245,117039,1,8,0:3:0:0:
209,249,117154,6,0,B|179:310|179:310|198:374,1,134.999997997284,0|0,1:2|0:0,0:0:0:0:
199,374,118077,6,0,L|247:364,2,33.749999499321,2|2|2,0:0|0:0|0:0,0:0:0:0:
79,312,118539,1,2,3:2:0:0:
203,195,118770,1,0,1:2:0:0:
206,222,118885,1,0,1:2:0:0:
209,249,119000,6,0,L|205:293,1,44.9999976158143,6|0,3:2|0:0,0:0:0:0:
83,145,119231,1,2,3:2:0:0:
80,172,119347,2,0,L|83:216,1,44.9999976158143,2|0,0:0|1:2,0:0:0:0:
271,99,119577,1,2,0:0:0:0:
274,126,119693,2,0,L|270:181,1,44.9999976158143,2|0,0:0|0:0,0:0:0:0:
149,23,119923,5,2,3:2:0:0:
83,145,120154,1,2,0:0:0:0:
205,293,120385,1,2,1:2:0:0:
270,170,120616,2,0,L|274:126,1,44.9999976158143,2|0,0:0|0:0,0:0:0:0:
83,216,120847,6,0,L|86:260,1,44.9999976158143,2|0,3:2|0:0,0:0:0:0:
201,337,121077,1,2,3:2:0:0:
203,315,121193,1,2,3:2:0:0:
205,293,121308,1,0,1:2:0:0:
345,192,121539,1,2,0:0:0:0:
347,214,121654,1,2,0:0:0:0:
349,236,121770,5,2,3:2:0:0:
233,145,122000,1,2,0:0:0:0:
440,121,122231,1,2,1:2:0:0:
324,30,122462,1,2,0:0:0:0:
246,248,122693,5,2,3:2:0:0:
133,113,122923,1,2,3:2:0:0:
131,135,123039,1,2,3:2:0:0:
129,157,123154,1,2,1:2:0:0:
35,230,123385,2,0,L|38:274,1,44.9999976158143,2|0,0:0|0:0,0:0:0:0:
68,357,123616,2,0,B|110:373|110:373|155:365,1,89.9999952316285,2|0,3:2|0:0,0:0:0:0:
215,334,123962,1,2,0:0:0:0:
240,324,124077,2,0,L|358:333,1,89.9999952316285,0|2,1:2|0:0,0:0:0:0:
448,209,124539,6,0,L|359:216,1,89.9999952316285,2|0,3:2|3:2,0:0:0:0:
115,159,125000,2,0,L|205:166,1,89.9999952316285,2|0,1:2|0:0,0:0:0:0:
323,44,125462,2,0,L|234:51,1,89.9999952316285,2|0,3:2|3:2,0:0:0:0:
167,63,125808,1,2,3:2:0:0:
142,73,125923,2,0,L|97:69,1,44.9999976158143,2|0,1:2|1:2,0:0:0:0:
0,172,126154,2,0,L|44:168,1,44.9999976158143,2|0,1:2|1:2,0:0:0:0:
193,270,126385,6,0,P|95:251|24:303,1,179.999990463257,6|0,3:2|1:2,0:0:0:0:
124,365,127077,1,2,0:0:0:0:
310,283,127308,2,0,B|321:213|321:213|298:125,1,134.999992847443,0|0,3:2|0:0,0:0:0:0:
207,105,127770,2,0,P|246:128|292:139,1,89.9999952316285,2|0,1:2|0:0,0:0:0:0:
486,62,128231,6,0,P|431:99|398:217,1,179.999990463257,2|0,3:2|1:2,0:0:0:0:
423,318,128923,1,2,0:0:0:0:
251,254,129154,2,0,B|178:246|178:246|88:275,1,134.999992847443,0|0,3:2|0:0,0:0:0:0:
41,341,129616,2,0,P|79:316|106:280,1,89.9999952316285,2|0,1:2|0:0,0:0:0:0:
164,45,130077,5,2,3:2:0:0:
17,133,130308,2,0,L|21:180,1,44.9999976158143,0|0,3:2|0:0,0:0:0:0:
106,281,130539,2,0,L|113:191,1,89.9999952316285,0|2,1:2|0:0,0:0:0:0:
245,102,131000,1,2,3:2:0:0:
247,124,131116,1,2,0:0:0:0:
249,147,131231,2,0,L|252:191,1,44.9999976158143,2|0,0:0|0:0,0:0:0:0:
338,295,131462,1,2,1:2:0:0:
308,278,131577,1,2,0:0:0:0:
275,270,131693,1,2,0:0:0:0:
242,271,131808,1,2,0:0:0:0:
210,282,131923,6,0,L|206:329,1,44.9999976158143,2|0,3:2|0:0,0:0:0:0:
99,191,132154,2,0,L|106:281,1,89.9999952316285,2|0,3:2|1:2,0:0:0:0:
252,191,132616,2,0,L|259:101,1,89.9999952316285,2|2,0:0|3:2,0:0:0:0:
85,11,133077,1,2,1:2:0:0:
88,55,133193,1,0,1:2:0:0:
91,100,133308,5,8,0:3:0:0:
110,80,133423,1,8,0:3:0:0:
131,64,133539,1,8,0:3:0:0:
156,53,133654,1,8,0:3:0:0:
182,46,133770,5,6,3:2:0:0:
284,114,134000,1,2,3:2:0:0:
201,259,134231,1,2,1:2:0:0:
99,191,134462,1,2,0:0:0:0:
194,382,134693,5,2,3:2:0:0:
312,205,134923,1,2,0:0:0:0:
91,314,135154,1,2,1:2:0:0:
209,136,135385,1,2,0:0:0:0:
303,327,135616,5,2,3:2:0:0:
434,213,135847,1,2,3:2:0:0:
209,136,136077,1,2,1:2:0:0:
339,21,136308,1,2,0:0:0:0:
257,232,136539,2,0,B|177:242|177:242|114:215,1,134.999992847443,2|0,3:2|0:0,0:0:0:0:
41,137,137000,2,0,P|78:161|106:196,1,89.9999952316285,0|0,1:2|0:0,0:0:0:0:
208,374,137462,5,2,3:2:0:0:
315,303,137693,1,2,3:2:0:0:
107,196,137923,1,2,1:2:0:0:
214,124,138154,1,2,0:0:0:0:
208,374,138385,5,2,3:2:0:0:
2,268,138616,1,2,0:0:0:0:
196,213,138847,1,2,1:2:0:0:
124,106,139077,1,2,0:0:0:0:
141,329,139308,5,2,3:2:0:0:
325,204,139539,2,0,L|328:263,1,44.9999976158143,2|2,3:2|0:0,0:0:0:0:
380,339,139770,2,0,B|333:325|333:325|284:334,1,89.9999952316285,2|2,1:2|0:0,0:0:0:0:
230,358,140116,1,2,0:0:0:0:
208,374,140231,5,2,3:2:0:0:
117,260,140462,2,0,L|119:215,1,44.9999976158143,2|2,3:2|0:0,0:0:0:0:
237,118,140693,1,2,1:2:0:0:
199,129,140808,1,0,1:2:0:0:
160,135,140923,1,8,0:3:0:0:
120,135,141039,1,4,0:3:0:0:
81,129,141154,6,0,B|105:81|155:63|155:63|206:74|237:118,1,202.499996995926,6|0,1:2|0:0,0:0:0:0:
278,187,141616,1,0,3:2:0:0:
510,283,141847,2,0,B|402:305|433:217|319:256,1,202.499996995926,6|0,1:2|0:0,0:0:0:0:
278,325,142308,1,0,3:2:0:0:
116,243,142539,1,2,1:2:0:0:
117,216,142654,1,8,0:3:0:0:
118,189,142770,1,8,0:3:0:0:
119,162,142885,1,4,0:3:0:0:
120,135,143000,5,2,3:2:0:0:
229,10,143231,2,0,L|231:91,1,67.499998998642,4|0,1:2|0:0,0:0:0:0:
319,256,143462,2,0,L|317:188,1,67.499998998642,4|0,1:2|0:0,0:0:0:0:
428,131,143693,5,2,3:2:0:0:
456,154,143808,1,0,1:2:0:0:
474,187,143923,1,0,1:2:0:0:
480,223,144039,1,0,1:2:0:0:
472,260,144154,1,0,1:2:0:0:
452,291,144270,1,0,1:2:0:0:
422,313,144385,6,0,L|371:308,1,44.9999976158143,8|8,0:3|0:3,0:0:0:0:
319,256,144616,2,0,L|267:261,1,44.9999976158143,4|4,0:3|0:3,0:0:0:0:
168,330,144847,6,0,P|117:332|82:326,1,67.499998998642,6|2,3:2|0:0,0:0:0:0:
134,187,145308,2,0,P|168:185|202:188,1,67.499998998642,2|2,0:3|0:0,0:0:0:0:
319,256,145770,2,0,L|315:214,1,33.749999499321,2|0,0:0|0:0,0:0:0:0:
202,188,146000,1,2,0:0:0:0:
204,167,146116,2,0,L|208:125,1,33.749999499321,2|2,0:0|0:3,0:0:0:0:
300,137,146347,1,2,0:0:0:0:
298,116,146462,2,0,L|294:74,1,33.749999499321,2|0,0:0|0:0,0:0:0:0:
225,27,146693,6,0,B|154:17|154:17|82:39,1,134.999997997284,2|2,0:0|0:3,0:0:0:0:
40,113,147385,1,0,3:2:0:0:
36,132,147500,1,0,3:2:0:0:
32,152,147616,5,0,1:2:0:0:
78,135,147731,1,8,0:3:0:0:
126,141,147847,1,4,0:3:0:0:
168,168,147962,1,4,0:3:0:0:
192,211,148077,6,0,P|254:261|359:134,1,269.999985694885,8|0,1:0|0:0,0:0:0:0:
317,44,148539,6,0,B|278:0|278:0|234:90|275:170,1,236.24998973608,6|2,3:2|3:2,0:0:0:0:
337,237,149000,5,0,1:2:0:0:
454,129,149231,1,2,3:2:0:0:
455,155,149347,1,0,1:2:0:0:
457,182,149462,1,2,1:2:0:0:
458,209,149577,1,0,1:2:0:0:
460,236,149693,2,0,L|463:289,1,53.999995491028,0|2,3:2|0:0,0:0:0:0:
354,372,149923,2,0,B|301:381|301:381|240:355,1,107.999990982056,0|2,1:2|0:0,0:0:0:0:
110,224,150385,6,0,L|217:210,1,107.999990982056,2|0,3:2|0:0,0:0:0:0:
275,170,150731,1,2,3:2:0:0:
275,170,150847,1,0,1:2:0:0:
210,16,151077,1,2,3:2:0:0:
195,45,151193,2,0,L|192:99,1,53.999995491028,0|2,1:2|0:0,0:0:0:0:
92,141,151423,1,0,1:2:0:0:
106,170,151539,2,0,L|110:224,1,53.999995491028,0|2,3:2|0:0,0:0:0:0:
175,309,151770,1,0,1:2:0:0:
275,170,152000,1,2,0:0:0:0:
447,337,152231,6,0,B|394:346|394:346|345:325,1,107.999990982056,2|0,3:2|0:0,0:0:0:0:
298,271,152577,1,2,3:2:0:0:
298,271,152693,1,0,1:2:0:0:
459,235,152923,2,0,L|453:162,1,53.999995491028,2|0,3:2|1:2,0:0:0:0:
374,32,153154,1,2,1:2:0:0:
372,59,153270,1,0,1:2:0:0:
370,85,153385,2,0,L|366:139,1,53.999995491028,0|2,3:2|0:0,0:0:0:0:
175,90,153616,2,0,B|224:69|224:69|277:78,1,107.999990982056,0|2,1:2|0:0,0:0:0:0:
236,222,154077,6,0,B|154:240|154:240|83:203,1,161.999986473084,2|2,3:2|3:2,0:0:0:0:
51,141,154539,1,0,1:2:0:0:
171,36,154770,2,0,L|175:90,1,53.999995491028,2|0,1:2|1:2,0:0:0:0:
236,222,155000,5,2,1:2:0:0:
245,257,155116,1,8,0:3:0:0:
247,293,155231,1,0,1:2:0:0:
240,330,155347,1,0,1:2:0:0:
226,363,155462,5,0,1:2:0:0:
260,322,155577,1,4,0:3:0:0:
308,298,155693,1,4,0:3:0:0:
362,294,155808,1,4,0:3:0:0:
412,313,155923,6,0,P|476:318|442:199,1,236.24998973608,6|2,3:2|3:2,0:0:0:0:
371,192,156385,5,0,1:2:0:0:
245,257,156616,1,2,3:2:0:0:
226,230,156731,2,0,L|229:173,1,53.999995491028,0|2,1:2|0:0,0:0:0:0:
291,32,156962,1,0,1:2:0:0:
309,58,157077,2,0,L|307:112,1,53.999995491028,0|2,3:2|0:0,0:0:0:0:
131,114,157308,2,0,B|182:95|182:95|235:105,1,107.999990982056,0|2,1:2|0:0,0:0:0:0:
121,219,157770,6,0,B|68:228|68:228|17:209,1,107.999990982056,2|0,3:2|0:0,0:0:0:0:
4,140,158116,1,2,3:2:0:0:
4,140,158231,1,0,1:2:0:0:
128,60,158462,2,0,L|131:114,1,53.999995491028,2|0,3:2|1:2,0:0:0:0:
228,176,158693,1,2,1:2:0:0:
227,203,158808,1,0,1:2:0:0:
226,230,158923,2,0,L|223:283,1,53.999995491028,0|0,3:2|0:0,0:0:0:0:
60,364,159154,2,0,B|111:345|111:345|163:354,1,107.999990982056,2|0,1:2|0:0,0:0:0:0:
395,248,159616,6,0,B|344:267|344:267|291:257,1,107.999990982056,2|0,3:2|0:0,0:0:0:0:
226,230,159962,1,0,3:2:0:0:
226,230,160077,1,2,1:2:0:0:
330,55,160308,1,0,3:2:0:0:
331,81,160423,1,0,1:2:0:0:
332,108,160539,2,0,L|335:162,1,53.999995491028,2|0,1:2|1:2,0:0:0:0:
395,248,160770,2,0,L|392:302,1,53.999995491028,0|0,3:2|0:0,0:0:0:0:
305,372,161000,1,2,1:2:0:0:
226,230,161231,1,0,0:0:0:0:
83,333,161462,6,0,L|137:336,1,53.999995491028,6|0,3:2|0:0,0:0:0:0:
280,227,161693,1,0,1:2:0:0:
254,228,161808,1,0,1:2:0:0:
226,230,161923,6,0,L|172:233,1,53.999995491028,6|8,3:2|0:3,0:0:0:0:
0,143,162154,1,0,1:2:0:0:
26,144,162269,1,0,1:2:0:0:
54,146,162384,6,0,L|108:149,1,53.999995491028,6|0,3:2|0:0,0:0:0:0:
309,40,162616,1,0,1:2:0:0:
283,41,162731,1,0,3:2:0:0:
255,43,162847,6,0,L|201:46,1,53.999995491028,2|0,1:2|1:2,0:0:0:0:
329,162,163077,1,4,0:3:0:0:
330,135,163193,1,4,0:3:0:0:
331,108,163308,5,6,3:2:0:0:
226,230,163539,1,2,0:0:0:0:
452,213,163770,1,2,1:2:0:0:
347,335,164000,1,2,0:0:0:0:
320,333,164116,1,0,1:2:0:0:
293,332,164231,6,0,L|239:329,1,53.999995491028,2|0,3:2|1:2,0:0:0:0:
172,227,164462,2,0,L|226:230,1,53.999995491028,2|0,0:0|0:0,0:0:0:0:
329,162,164693,1,2,1:2:0:0:
208,57,164923,1,2,0:0:0:0:
209,83,165039,1,2,0:0:0:0:
210,109,165154,5,2,3:2:0:0:
314,34,165385,1,2,0:0:0:0:
389,218,165616,1,2,1:2:0:0:
493,143,165847,1,0,0:0:0:0:
494,169,165962,1,0,1:2:0:0:
495,196,166077,1,2,3:2:0:0:
496,223,166193,1,0,1:2:0:0:
497,251,166308,2,0,L|494:305,1,53.999995491028,2|0,1:2|0:0,0:0:0:0:
391,382,166539,2,0,L|388:328,1,53.999995491028,0|0,1:2|0:0,0:0:0:0:
300,209,166770,1,2,0:0:0:0:
298,235,166885,1,2,0:0:0:0:
297,262,167000,5,2,3:2:0:0:
388,328,167231,1,2,0:0:0:0:
493,143,167462,1,2,1:2:0:0:
402,77,167693,2,0,L|348:80,1,53.999995491028,2|0,0:0|1:2,0:0:0:0:
247,179,167923,5,2,3:2:0:0:
273,180,168039,1,0,1:2:0:0:
300,181,168154,1,0,3:2:0:0:
212,43,168385,2,0,B|162:35|162:35|98:57,1,107.999990982056,2|2,1:2|0:0,0:0:0:0:
55,101,168731,1,2,0:0:0:0:
41,130,168847,6,0,L|44:195,1,53.999995491028,2|0,3:2|0:0,0:0:0:0:
136,297,169077,1,2,0:0:0:0:
121,267,169193,2,0,L|124:214,1,53.999995491028,2|0,0:0|1:2,0:0:0:0:
198,72,169423,1,2,0:0:0:0:
184,101,169539,2,0,L|187:166,1,53.999995491028,2|0,0:0|1:2,0:0:0:0:
279,268,169770,1,2,3:2:0:0:
264,238,169885,2,0,L|266:184,1,53.999995491028,2|0,1:2|0:0,0:0:0:0:
341,43,170116,1,2,0:0:0:0:
327,72,170231,2,0,L|330:137,1,53.999995491028,2|0,1:2|0:0,0:0:0:0:
421,238,170462,1,2,0:0:0:0:
422,211,170577,1,2,0:0:0:0:
423,184,170693,5,2,3:2:0:0:
327,72,170923,1,2,0:0:0:0:
279,268,171154,1,2,1:2:0:0:
376,381,171385,1,2,0:0:0:0:
402,379,171500,1,0,1:2:0:0:
429,378,171616,6,0,L|431:324,1,53.999995491028,2|0,3:2|1:2,0:0:0:0:
352,199,171847,2,0,L|350:253,1,53.999995491028,2|0,3:2|0:0,0:0:0:0:
280,383,172077,1,2,1:2:0:0:
200,257,172308,1,2,0:0:0:0:
201,230,172423,1,2,0:0:0:0:
203,203,172539,5,2,3:2:0:0:
273,103,172770,2,0,L|275:157,1,53.999995491028,2|0,0:0|0:0,0:0:0:0:
53,136,173000,2,0,B|105:149|105:149|157:131,1,107.999990982056,2|0,1:2|0:0,0:0:0:0:
188,67,173347,1,0,1:2:0:0:
174,37,173462,6,0,B|122:24|122:24|70:42,1,107.999990982056,2|0,3:2|0:0,0:0:0:0:
273,103,173923,1,0,1:2:0:0:
299,102,174039,1,0,1:2:0:0:
326,101,174154,1,8,0:3:0:0:
353,100,174270,1,4,0:3:0:0:
380,99,174385,6,0,L|434:97,1,53.999995491028,2|0,1:2|0:0,0:0:0:0:
232,175,174616,1,2,1:2:0:0:
205,174,174732,1,0,1:2:0:0:
178,173,174847,6,0,L|124:171,1,53.999995491028,2|0,1:2|0:0,0:0:0:0:
310,234,175077,1,8,0:3:0:0:
337,233,175193,1,8,0:3:0:0:
364,232,175308,6,0,L|418:230,1,53.999995491028,2|0,1:2|0:0,0:0:0:0:
248,308,175539,1,4,0:3:0:0:
221,307,175655,1,4,0:3:0:0:
194,306,175770,6,0,L|140:304,1,53.999995491028,2|0,1:2|0:0,0:0:0:0:
294,367,176000,2,0,L|348:365,1,53.999995491028,4|4,0:3|0:3,0:0:0:0:
417,230,176231,6,0,P|417:203|414:176,2,53.999995491028,6|0|0,1:2|0:0|0:0,0:0:0:0:
345,144,176923,2,0,P|398:136|434:97,1,107.999990982056,0|0,0:0|0:0,0:0:0:0:
387,36,177616,2,0,L|321:45,1,53.999995491028,0|0,0:0|0:0,0:0:0:0:
197,103,178077,6,0,P|223:105|250:103,2,53.999995491028,2|0|0,0:0|0:0|0:0,0:0:0:0:
136,57,178770,1,0,0:0:0:0:
136,57,179231,1,0,0:0:0:0:
101,164,179462,2,0,L|105:238,1,53.999995491028,0|0,0:0|0:0,0:0:0:0:
109,322,179923,5,2,0:0:0:0:
53,272,180154,1,0,0:0:0:0:
103,217,180385,1,0,0:0:0:0:
261,259,180616,2,0,B|219:279|219:279|159:267,1,107.999990982056,0|0,0:0|0:0,0:0:0:0:
101,164,181308,2,0,B|161:176,1,53.999995491028,0|0,0:0|0:0,0:0:0:0:
261,50,181770,6,0,B|251:103,2,53.999995491028,2|0|0,0:0|0:0|0:0,0:0:0:0:
347,150,182462,2,0,B|329:153,2,17.9999984970093,0|0|0,0:0|0:0|0:0,0:0:0:0:
347,150,182923,1,0,0:0:0:0:
392,89,183154,1,0,0:0:0:0:
422,158,183385,1,0,0:0:0:0:
387,271,183616,6,0,B|377:219,2,53.999995491028,2|0|0,0:0|0:0|0:0,0:0:0:0:
325,351,184308,2,0,P|274:331|221:326,1,107.999990982056,0|0,0:0|0:0,0:0:0:0:
101,376,185000,2,0,P|126:368|151:356,1,53.999995491028,0|0,0:0|0:0,0:0:0:0:
170,227,185462,6,0,B|160:280,2,53.999995491028,2|0|0,0:0|0:0|0:0,0:0:0:0:
143,156,186154,1,0,0:0:0:0:
143,156,186616,1,0,0:0:0:0:
104,32,186847,2,0,B|115:85,1,53.999995491028,0|0,0:0|0:0,0:0:0:0:
242,103,187308,6,0,B|217:95|217:95|189:96,1,53.999995491028,2|0,0:0|0:0,0:0:0:0:
143,156,187770,1,0,0:0:0:0:
44,209,188000,2,0,B|69:217|69:217|96:216,1,53.999995491028,0|2,0:0|0:0,0:0:0:0:
143,156,188462,1,0,0:0:0:0:
248,259,188693,2,0,L|195:255,1,53.999995491028,0|0,0:0|0:0,0:0:0:0:
247,154,189154,6,0,L|300:149,1,53.999995491028,0|0,0:0|0:0,0:0:0:0:
376,143,189616,1,0,0:0:0:0:
432,26,189847,2,0,L|408:74,1,53.999995491028,0|2,0:0|0:0,0:0:0:0:
376,143,190308,1,0,0:0:0:0:
450,250,190539,2,0,L|419:205,1,53.999995491028,0|0,0:0|0:0,0:0:0:0:
291,252,191000,6,0,B|318:262|318:262|342:258,1,53.999995491028,2|0,0:0|0:0,0:0:0:0:
419,205,191462,1,0,0:0:0:0:
301,150,191693,2,0,L|193:158,1,107.999990982056,0|0,0:0|0:0,0:0:0:0:
82,94,192385,2,0,B|108:97|108:97|130:115,1,53.999995491028,0|0,0:0|0:0,0:0:0:0:
116,243,192847,6,0,L|123:190,2,53.999995491028,2|0|0,0:0|0:0|0:0,0:0:0:0:
206,345,193539,1,0,0:0:0:0:
206,345,194000,1,0,0:0:0:0:
269,303,194231,1,0,0:0:0:0:
206,345,194462,1,0,0:0:0:0:
116,243,194693,6,0,L|123:190,1,53.999995491028,2|0,0:0|0:0,0:0:0:0:
130,115,195154,1,0,0:0:0:0:
232,208,195385,2,0,B|300:215|300:215|349:184,1,107.999990982056,0|0,0:0|0:0,0:0:0:0:
380,134,196077,1,0,0:0:0:0:
380,134,196308,1,0,0:0:0:0:
314,34,196539,6,0,L|321:88,2,53.999995491028,2|0|0,0:0|0:0|0:0,0:0:0:0:
233,106,197231,1,0,0:0:0:0:
231,119,197346,1,0,0:0:0:0:
229,132,197461,1,0,0:0:0:0:
232,208,197693,1,0,0:0:0:0:
161,167,197923,1,0,0:0:0:0:
164,91,198154,1,0,0:0:0:0:
97,208,198385,6,0,L|104:262,1,53.999995491028,2|0,0:0|0:0,0:0:0:0:
72,330,198847,1,0,0:0:0:0:
72,330,199077,2,0,P|129:300|197:317,1,107.999990982056,0|0,0:0|0:0,0:0:0:0:
273,373,199770,2,0,P|246:369|222:359,1,53.999995491028,0|0,0:0|0:0,0:0:0:0:
312,287,200231,6,0,P|336:276|363:272,1,53.999995491028,2|0,0:0|0:0,0:0:0:0:
273,200,200693,1,0,0:0:0:0:
221,358,200923,1,0,0:0:0:0:
221,358,201385,1,0,0:0:0:0:
170,303,201616,1,0,0:0:0:0:
221,358,201847,1,0,0:0:0:0:
119,248,202077,6,0,L|126:194,1,53.999995491028,2|0,0:0|0:0,0:0:0:0:
182,143,202539,1,0,0:0:0:0:
245,38,202770,2,0,L|238:92,1,53.999995491028,0|2,0:0|0:0,0:0:0:0:
182,143,203231,1,0,0:0:0:0:
77,80,203462,2,0,L|131:87,1,53.999995491028,0|0,0:0|0:0,0:0:0:0:
287,206,203923,6,0,L|233:199,1,53.999995491028,0|0,0:0|0:0,0:0:0:0:
320,125,204385,1,0,0:0:0:0:
320,125,204616,2,0,L|374:117,1,53.999995491028,0|2,0:0|0:0,0:0:0:0:
432,165,205077,1,0,0:0:0:0:
480,108,205308,1,0,0:0:0:0:
422,60,205539,1,0,0:0:0:0:
384,224,205770,6,0,L|398:332,1,67.499998998642,2|0,3:2|0:0,0:0:0:0:
320,125,206231,2,0,L|328:58,1,67.499998998642,0|2,3:2|0:0,0:0:0:0:
187,199,206693,2,0,P|220:208|253:204,1,67.499998998642,0|0,3:2|0:0,0:0:0:0:
174,86,207154,2,0,P|140:81|108:90,1,67.499998998642,0|0,3:2|0:0,0:0:0:0:
5,207,207616,6,0,P|25:180|34:147,1,67.499998998642,2|0,3:2|0:0,0:0:0:0:
149,280,208077,2,0,P|128:253|119:220,1,67.499998998642,0|2,3:2|0:0,0:0:0:0:
245,137,208539,2,0,L|254:204,1,67.499998998642,0|0,3:2|0:0,0:0:0:0:
140,346,209000,2,0,L|149:280,1,67.499998998642,0|2,3:2|0:0,0:0:0:0:
193,273,209347,1,2,0:0:0:0:
193,273,209462,6,0,P|226:268|258:277,1,67.499998998642,2|0,3:2|0:0,0:0:0:0:
374,367,209923,2,0,P|340:371|308:362,1,67.499998998642,0|2,3:2|0:0,0:0:0:0:
348,211,210385,2,0,L|357:278,1,67.499998998642,0|0,3:2|0:0,0:0:0:0:
262,137,210847,2,0,L|254:204,1,67.499998998642,2|2,3:2|0:0,0:0:0:0:
336,52,211308,6,0,P|365:67|399:70,1,67.499998998642,2|0,3:2|0:0,0:0:0:0:
262,137,211770,1,0,3:2:0:0:
213,64,212000,1,2,0:0:0:0:
215,47,212116,1,2,0:0:0:0:
217,30,212231,1,2,3:2:0:0:
148,124,212462,1,2,0:0:0:0:
102,16,212693,1,2,3:2:0:0:
146,141,212923,2,0,L|141:174,1,33.749999499321,2|2,0:0|0:0,0:0:0:0:
8,247,213154,6,0,P|40:235|74:236,1,67.499998998642,2|0,3:2|0:0,0:0:0:0:
204,315,213616,2,0,P|178:294|162:265,1,67.499998998642,0|2,3:2|0:0,0:0:0:0:
263,137,214077,2,0,L|271:203,1,67.499998998642,0|0,3:2|0:0,0:0:0:0:
391,203,214539,2,0,L|383:270,1,67.499998998642,2|0,3:2|0:0,0:0:0:0:
381,317,214885,1,0,0:0:0:0:
381,317,215000,6,0,P|414:322|446:314,1,67.499998998642,2|0,3:2|0:0,0:0:0:0:
496,148,215462,2,0,L|504:214,1,67.499998998642,0|2,3:2|0:0,0:0:0:0:
345,132,215923,1,0,3:2:0:0:
384,59,216154,1,2,0:0:0:0:
391,203,216385,1,2,3:2:0:0:
263,137,216616,2,0,L|197:145,1,33.749999499321,2|0,0:0|0:0,0:0:0:0:
177,206,216847,6,0,P|176:239|183:272,1,67.499998998642,2|2,3:2|0:0,0:0:0:0:
270,368,217308,1,2,3:2:0:0:
396,304,217539,2,0,B|376:289|376:289|334:290,1,67.499998998642,2|0,0:0|0:0,0:0:0:0:
334,290,219616,6,0,L|342:232,1,33.749999499321,2|2,0:0|0:0,0:0:0:0:
328,250,220077,6,0,L|324:284,1,33.749999499321,2|0,0:0|0:0,0:0:0:0:
266,326,220539,6,0,B|398:290|362:401|491:350,1,236.24998973608,6|2,3:2|3:2,0:0:0:0:
510,286,221000,5,0,1:2:0:0:
410,161,221231,1,2,3:2:0:0:
398,191,221347,2,0,L|401:256,1,53.999995491028,0|0,1:2|0:0,0:0:0:0:
500,148,221577,1,0,1:2:0:0:
512,118,221693,2,0,L|509:53,1,53.999995491028,0|0,3:2|0:0,0:0:0:0:
385,6,221923,1,0,1:2:0:0:
307,76,222154,1,2,0:0:0:0:
308,102,222270,1,2,0:0:0:0:
309,129,222385,6,0,P|256:134|208:110,1,107.999990982056,2|0,3:2|0:0,0:0:0:0:
176,48,222731,1,2,3:2:0:0:
176,48,222847,1,0,1:2:0:0:
94,136,223077,2,0,L|96:189,1,53.999995491028,2|0,3:2|1:2,0:0:0:0:
192,207,223308,1,2,1:2:0:0:
190,233,223423,1,0,1:2:0:0:
190,261,223539,2,0,L|187:314,1,53.999995491028,0|2,3:2|0:0,0:0:0:0:
8,287,223770,2,0,B|37:264|37:264|108:272,1,107.999990982056,0|2,1:2|0:0,0:0:0:0:
266,356,224231,6,0,P|339:331|358:256,1,161.999986473084,2|2,3:2|3:2,0:0:0:0:
339,188,224693,1,0,1:2:0:0:
209,111,224923,1,2,3:2:0:0:
211,137,225039,1,0,1:2:0:0:
211,165,225154,2,0,L|213:218,1,53.999995491028,0|0,1:2|1:2,0:0:0:0:
320,120,225385,2,0,L|322:66,1,53.999995491028,2|0,3:2|0:0,0:0:0:0:
426,237,225616,1,0,1:2:0:0:
512,165,225847,6,0,B|462:146|462:146|409:161,1,107.999990982056,2|0,0:0|3:2,0:0:0:0:
328,247,226308,1,2,0:0:0:0:
329,273,226423,1,0,3:2:0:0:
330,300,226539,1,0,1:2:0:0:
213,219,226770,2,0,L|215:165,1,53.999995491028,2|0,3:2|1:2,0:0:0:0:
322,66,227000,5,0,1:2:0:0:
272,87,227116,1,8,0:3:0:0:
219,95,227231,1,0,1:2:0:0:
165,91,227347,1,0,1:2:0:0:
114,74,227462,5,0,1:2:0:0:
87,79,227577,1,8,0:3:0:0:
64,92,227693,1,4,0:3:0:0:
46,112,227808,1,4,0:3:0:0:
37,137,227923,6,0,L|39:190,1,53.999995491028,6|2,3:2|0:0,0:0:0:0:
140,308,228154,1,2,0:0:0:0:
141,281,228270,1,0,3:2:0:0:
142,254,228385,1,0,1:2:0:0:
268,162,228616,2,0,L|215:165,1,53.999995491028,2|2,3:2|1:2,0:0:0:0:
114,75,228847,2,0,L|167:77,1,53.999995491028,2|0,1:2|1:2,0:0:0:0:
259,16,229077,1,2,3:2:0:0:
260,43,229193,1,2,3:2:0:0:
260,68,229308,2,0,P|313:76|362:54,1,107.999990982056,0|2,1:2|0:0,0:0:0:0:
512,2,229770,6,0,P|485:0|458:3,1,53.999995491028,6|0,1:2|0:0,0:0:0:0:
487,210,230000,1,2,1:2:0:0:
488,183,230116,1,0,1:2:0:0:
482,157,230231,2,0,P|471:132|453:111,1,53.999995491028,6|0,1:2|1:2,0:0:0:0:
289,239,230462,1,2,1:2:0:0:
313,226,230577,1,0,1:2:0:0:
332,208,230693,2,0,P|347:186|356:160,1,53.999995491028,4|0,1:2|0:0,0:0:0:0:
164,81,230923,1,2,1:2:0:0:
187,96,231039,1,0,1:2:0:0:
212,103,231154,2,0,P|238:105|265:101,1,53.999995491028,8|8,0:3|0:3,0:0:0:0:
386,6,231385,2,0,P|370:28|362:54,1,53.999995491028,4|4,0:3|0:3,0:0:0:0:
385,206,231616,6,0,B|444:323|375:363|322:370|290:292,1,236.24998973608,6|0,3:2|3:2,0:0:0:0:
289,239,232077,5,0,1:2:0:0:
212,103,232308,1,0,3:2:0:0:
187,96,232423,1,0,1:2:0:0:
161,101,232539,2,0,P|134:105|107:102,1,53.999995491028,2|0,1:2|1:2,0:0:0:0:
37,236,232770,2,0,P|48:211|64:190,1,53.999995491028,0|2,3:2|0:0,0:0:0:0:
16,2,233000,2,0,L|9:109,1,107.999990982056,0|2,1:2|0:0,0:0:0:0:
165,236,233462,6,0,L|162:183,1,53.999995491028,6|0,1:2|0:0,0:0:0:0:
268,61,233693,1,0,3:2:0:0:
280,92,233808,2,0,L|277:145,1,53.999995491028,6|0,1:2|3:2,0:0:0:0:
117,18,234039,1,0,3:2:0:0:
105,49,234154,2,0,L|108:102,1,53.999995491028,6|0,1:2|0:0,0:0:0:0:
212,261,234385,6,0,P|190:245|165:236,1,53.999995491028,6|0,1:2|0:0,0:0:0:0:
5,329,234616,1,0,3:2:0:0:
37,329,234731,2,0,P|61:317|82:300,1,53.999995491028,6|0,1:2|0:0,0:0:0:0:
82,116,234962,1,0,3:2:0:0:
66,144,235077,2,0,P|63:170|67:197,1,53.999995491028,6|2,1:2|1:2,0:0:0:0:
187,55,235308,5,6,3:2:0:0:
84,23,235539,1,2,3:2:0:0:
211,161,235770,1,2,1:2:0:0:
290,87,236000,1,4,0:3:0:0:
288,64,236116,1,4,0:3:0:0:
286,42,236231,5,4,0:3:0:0:
113,169,236462,1,4,0:3:0:0:
264,231,236693,1,2,1:2:0:0:
139,313,236923,1,4,0:3:0:0:
238,375,237154,5,2,3:2:0:0:
264,231,237385,1,2,3:2:0:0:
94,349,237616,1,2,1:2:0:0:
120,205,237847,1,4,0:3:0:0:
123,182,237962,1,4,0:3:0:0:
127,160,238077,2,0,P|129:115|123:70,1,89.9999952316285,4|4,0:3|0:3,0:0:0:0:
303,7,238539,2,0,P|300:51|306:96,1,89.9999952316285,2|4,1:2|0:3,0:0:0:0:
375,325,239000,5,2,3:2:0:0:
264,231,239231,1,2,3:2:0:0:
477,128,239462,1,2,1:2:0:0:
366,222,239693,1,4,0:3:0:0:
364,199,239808,1,4,0:3:0:0:
362,177,239923,5,4,0:3:0:0:
481,261,240154,1,4,0:3:0:0:
273,333,240385,2,0,P|228:328|184:319,1,89.9999952316285,2|4,1:2|0:3,0:0:0:0:
255,128,240847,5,2,3:2:0:0:
264,231,241077,1,0,3:2:0:0:
113,99,241308,1,2,1:2:0:0:
104,202,241539,1,4,0:3:0:0:
102,224,241654,1,4,0:3:0:0:
100,246,241770,2,0,P|49:257|5:237,1,89.9999952316285,4|4,0:3|0:3,0:0:0:0:
113,99,242231,1,2,1:2:0:0:
151,93,242347,1,0,1:2:0:0:
191,95,242462,1,8,0:3:0:0:
228,106,242577,1,4,0:3:0:0:
262,126,242693,6,0,P|363:137|394:38,1,202.499996995926,6|0,1:2|0:0,0:0:0:0:
320,69,243154,1,0,3:2:0:0:
477,243,243385,2,0,B|459:296|405:307|405:307|368:266|385:213,1,202.499996995926,6|0,1:2|0:0,0:0:0:0:
456,149,243847,1,0,3:2:0:0:
317,16,244077,1,2,1:2:0:0:
318,42,244193,1,0,1:2:0:0:
320,69,244308,1,8,0:3:0:0:
322,96,244423,1,4,0:3:0:0:
324,123,244539,5,2,3:2:0:0:
262,224,244770,2,0,L|329:219,1,67.499998998642,4|0,1:2|0:0,0:0:0:0:
159,70,245000,2,0,L|227:75,1,67.499998998642,4|0,1:2|0:0,0:0:0:0:
97,276,245231,5,2,3:2:0:0:
60,277,245347,1,0,1:2:0:0:
26,262,245462,1,0,1:2:0:0:
3,234,245577,1,0,1:2:0:0:
0,197,245693,1,0,1:2:0:0:
5,162,245808,1,0,1:2:0:0:
31,135,245923,6,0,L|98:139,1,44.9999976158143,8|8,0:3|0:3,0:0:0:0:
177,173,246154,2,0,L|244:168,1,44.9999976158143,4|4,0:3|0:3,0:0:0:0:
320,69,246385,5,6,3:2:0:0:
224,41,246616,1,2,0:0:0:0:
225,58,246731,1,2,0:0:0:0:
227,75,246847,1,2,0:3:0:0:
301,222,247077,1,2,0:0:0:0:
387,180,247308,2,0,B|419:175|419:175|466:185,1,67.499998998642,2|2,0:0|0:0,0:0:0:0:
386,71,247770,2,0,B|354:76|354:76|320:69,1,67.499998998642,2|2,0:3|0:0,0:0:0:0:
176,172,248231,6,0,P|241:191|301:223,1,134.999997997284,2|2,0:0|0:3,0:0:0:0:
280,315,248923,1,0,3:2:0:0:
265,328,249039,1,0,3:2:0:0:
248,340,249154,6,0,L|190:331,1,58.4999942226413,2|0,1:2|0:0,0:0:0:0:
265,328,249500,6,0,L|207:319,1,58.4999942226413,2|0,1:2|0:0,0:0:0:0:
280,315,249847,6,0,L|222:306,1,58.4999942226413,2|0,1:2|0:0,0:0:0:0:
69,331,250077,6,0,P|124:278|10:154,1,269.999995994568,2|0,0:0|0:0,0:0:0:0:
28,150,251462,2,0,P|60:158|94:154,1,67.499998998642,2|0,0:0|0:0,0:0:0:0:
194,64,251923,2,0,B|159:44|159:44|170:139,1,134.999997997284,2|0,0:0|0:0,0:0:0:0:
242,230,252616,2,0,B|247:182,1,33.749999499321,2|0,0:0|0:0,0:0:0:0:
258,236,252847,2,0,P|296:217|399:218,1,134.999997997284,2|0,0:0|0:0,0:0:0:0:
509,340,253770,6,0,B|363:273|403:415|256:353,1,269.999995994568,2|0,0:0|0:0,0:0:0:0:
256,353,255154,2,0,P|207:343|151:349,1,67.499998998642,2|0,0:0|0:0,0:0:0:0:
87,267,255616,2,0,B|122:287|122:287|111:192,1,134.999997997284,2|0,0:0|0:0,0:0:0:0:
36,88,256308,2,0,B|41:40,1,33.749999499321,2|0,0:0|0:0,0:0:0:0:
52,94,256539,2,0,B|116:107|116:107|193:76,1,134.999997997284,2|0,0:0|0:0,0:0:0:0:
393,52,257462,6,0,L|385:138,1,67.499998998642,2|0,3:2|0:0,0:0:0:0:
457,179,257923,2,0,L|378:215,1,67.499998998642,0|0,3:2|0:0,0:0:0:0:
379,297,258385,2,0,L|308:247,1,67.499998998642,0|0,3:2|0:0,0:0:0:0:
237,288,258847,2,0,L|244:202,1,67.499998998642,2|0,3:2|0:0,0:0:0:0:
173,160,259308,6,0,P|248:168|297:105,1,134.999997997284,2|0,3:2|3:2,0:0:0:0:
227,85,260000,2,0,L|223:44,1,33.749999499321,2|0,0:0|0:0,0:0:0:0:
218,93,260231,2,0,P|139:82|67:84,1,134.999997997284,2|0,3:2|3:2,0:0:0:0:
16,148,260923,1,0,0:0:0:0:
16,148,261039,1,0,0:0:0:0:
16,148,261154,6,0,P|56:181|77:276,1,134.999997997284,2|0,3:2|3:2,0:0:0:0:
52,349,261847,2,0,L|53:386,1,33.749999499321,2|0,0:0|0:0,0:0:0:0:
68,342,262077,2,0,B|141:314|120:378|196:355,1,134.999997997284,2|0,3:2|3:2,0:0:0:0:
363,203,262770,2,0,L|362:240,1,33.749999499321,2|0,0:0|0:0,0:0:0:0:
347,196,263000,6,0,B|325:197|325:197|306:186|306:186|283:187,1,67.499998998642,2|0,3:2|0:0,0:0:0:0:
196,356,263462,6,0,B|194:329|194:329|207:307|207:307|206:279,1,80.999993236542,0|2,3:2|0:0,0:0:0:0:
25,190,263923,6,0,B|56:189|56:189|82:204|82:204|115:203,1,94.499992109299,2|0,3:2|0:0,0:0:0:0:
195,56,264385,6,0,L|191:110,1,53.999995491028,0|0,1:2|0:0,0:0:0:0:
347,196,264616,1,0,1:2:0:0:
373,193,264731,1,0,1:2:0:0:
400,191,264847,6,0,B|422:153|421:122|421:122|469:189|434:297,1,236.24998973608,6|2,3:2|3:2,0:0:0:0:
391,336,265308,5,0,1:2:0:0:
248,261,265539,1,2,3:2:0:0:
221,263,265654,1,0,1:2:0:0:
194,266,265770,2,0,L|140:271,1,53.999995491028,2|0,1:2|1:2,0:0:0:0:
25,190,266000,2,0,L|78:195,1,53.999995491028,0|2,3:2|0:0,0:0:0:0:
235,91,266231,2,0,P|198:130|175:179,1,107.999990982056,0|2,1:2|0:0,0:0:0:0:
2,59,266693,6,0,B|54:80|54:80|103:64,1,107.999990982056,2|0,3:2|0:0,0:0:0:0:
155,17,267039,1,2,3:2:0:0:
155,17,267154,1,0,1:2:0:0:
313,106,267385,1,2,3:2:0:0:
311,132,267500,1,0,1:2:0:0:
310,159,267616,1,2,1:2:0:0:
309,186,267731,1,0,1:2:0:0:
308,213,267847,2,0,L|304:289,1,53.999995491028,0|2,3:2|0:0,0:0:0:0:
175,179,268077,1,0,1:2:0:0:
250,353,268308,1,2,0:0:0:0:
424,278,268539,6,0,B|417:168|417:168|363:125,1,161.999986473084,2|2,3:2|3:2,0:0:0:0:
313,106,269000,1,0,1:2:0:0:
175,179,269231,1,2,3:2:0:0:
159,207,269347,2,0,L|162:283,1,53.999995491028,0|2,1:2|0:0,0:0:0:0:
61,152,269577,1,0,1:2:0:0:
45,124,269693,2,0,L|48:47,1,53.999995491028,0|2,3:2|0:0,0:0:0:0:
204,13,269923,1,0,1:2:0:0:
142,88,270154,1,2,0:0:0:0:
251,225,270385,6,0,B|305:230|305:230|361:195,1,107.999990982056,2|0,3:2|0:0,0:0:0:0:
376,135,270731,1,2,3:2:0:0:
376,135,270847,1,0,1:2:0:0:
258,71,271077,2,0,L|261:147,1,53.999995491028,2|0,3:2|1:2,0:0:0:0:
241,324,271308,5,2,1:2:0:0:
208,306,271423,1,8,0:3:0:0:
173,294,271539,1,0,1:2:0:0:
137,288,271654,1,0,1:2:0:0:
101,288,271770,5,0,1:2:0:0:
128,242,271885,1,4,0:3:0:0:
143,189,272000,1,4,0:3:0:0:
143,136,272116,1,4,0:3:0:0:
131,84,272231,6,0,B|69:93|37:149|37:149|82:196|143:189,1,236.24998973608,6|2,3:2|3:2,0:0:0:0:
183,131,272693,5,0,1:2:0:0:
306,14,272923,1,2,3:2:0:0:
307,40,273039,1,0,1:2:0:0:
309,68,273154,2,0,L|313:140,1,53.999995491028,2|0,1:2|1:2,0:0:0:0:
411,172,273385,2,0,L|407:244,1,53.999995491028,0|2,3:2|0:0,0:0:0:0:
228,314,273616,2,0,B|279:290|279:290|330:295,1,107.999990982056,0|2,1:2|0:0,0:0:0:0:
194,184,274077,6,0,B|142:189|142:189|91:165,1,107.999990982056,2|0,3:2|0:0,0:0:0:0:
56,104,274423,1,2,3:2:0:0:
56,104,274539,1,0,1:2:0:0:
0,241,274770,2,0,L|4:313,1,53.999995491028,2|0,3:2|1:2,0:0:0:0:
122,370,275000,1,2,1:2:0:0:
123,343,275116,1,0,1:2:0:0:
124,316,275231,2,0,L|127:263,1,53.999995491028,0|0,3:2|0:0,0:0:0:0:
273,182,275462,2,0,L|279:290,1,107.999990982056,2|0,1:2|0:0,0:0:0:0:
193,105,275923,6,0,P|279:144|362:106,1,161.999986473084,2|0,3:2|3:2,0:0:0:0:
382,68,276385,1,2,1:2:0:0:
474,195,276616,1,0,3:2:0:0:
447,194,276731,1,0,1:2:0:0:
421,192,276847,2,0,L|368:190,1,53.999995491028,2|0,1:2|1:2,0:0:0:0:
225,292,277077,2,0,L|279:290,1,53.999995491028,0|0,3:2|0:0,0:0:0:0:
439,382,277308,1,2,1:2:0:0:
352,265,277539,1,0,0:0:0:0:
149,306,277770,6,0,L|151:359,1,53.999995491028,6|0,3:2|0:0,0:0:0:0:
279,290,278000,1,0,1:2:0:0:
277,263,278116,1,0,1:2:0:0:
276,236,278231,6,0,L|273:182,1,53.999995491028,6|0,3:2|1:2,0:0:0:0:
82,136,278462,1,0,1:2:0:0:
84,163,278577,1,0,1:2:0:0:
85,190,278693,6,0,L|87:243,1,53.999995491028,6|0,3:2|0:0,0:0:0:0:
212,120,278923,1,0,1:2:0:0:
210,93,279039,1,0,1:2:0:0:
209,66,279154,6,0,L|206:12,1,53.999995491028,8|0,0:3|1:2,0:0:0:0:
356,108,279385,1,4,0:3:0:0:
357,134,279500,1,4,0:3:0:0:
358,161,279616,5,6,3:2:0:0:
402,39,279847,1,2,0:0:0:0:
273,182,280077,1,2,1:2:0:0:
416,310,280308,1,2,0:0:0:0:
417,283,280423,1,0,1:2:0:0:
418,256,280539,6,0,L|420:202,1,53.999995491028,2|0,3:2|1:2,0:0:0:0:
278,290,280770,2,0,L|281:344,1,53.999995491028,2|0,3:2|0:0,0:0:0:0:
165,187,281000,1,2,1:2:0:0:
61,300,281231,1,2,0:0:0:0:
87,301,281347,1,2,0:0:0:0:
114,302,281462,5,2,3:2:0:0:
221,238,281693,1,2,0:0:0:0:
20,151,281923,1,2,1:2:0:0:
127,87,282154,1,0,1:0:0:0:
153,83,282270,1,0,1:2:0:0:
180,82,282385,1,2,3:2:0:0:
207,84,282500,1,0,1:2:0:0:
234,89,282616,2,0,L|236:143,1,53.999995491028,0|0,3:2|0:0,0:0:0:0:
358,207,282847,2,0,L|360:153,1,53.999995491028,0|0,1:2|0:0,0:0:0:0:
221,238,283077,1,2,0:0:0:0:
221,264,283193,1,2,0:0:0:0:
222,291,283308,5,2,3:2:0:0:
317,365,283539,1,2,0:0:0:0:
360,153,283770,1,2,1:2:0:0:
455,227,284000,2,0,L|451:299,1,53.999995491028,2|0,0:0|1:2,0:0:0:0:
360,153,284231,5,2,3:2:0:0:
358,126,284347,1,0,1:2:0:0:
357,99,284462,1,0,1:2:0:0:
221,238,284693,2,0,B|166:241|166:241|103:208,1,107.999990982056,2|2,1:2|0:0,0:0:0:0:
78,158,285039,1,2,0:0:0:0:
81,125,285154,6,0,L|83:71,1,53.999995491028,2|0,3:2|0:0,0:0:0:0:
181,16,285385,1,2,0:0:0:0:
184,49,285500,2,0,L|186:102,1,53.999995491028,2|0,0:0|1:2,0:0:0:0:
254,241,285731,1,2,0:0:0:0:
257,208,285847,2,0,L|259:154,1,53.999995491028,2|0,0:0|1:2,0:0:0:0:
357,99,286077,1,2,3:2:0:0:
360,132,286193,2,0,L|362:185,1,53.999995491028,2|0,1:2|0:0,0:0:0:0:
430,324,286423,1,2,0:0:0:0:
433,291,286539,2,0,L|435:237,1,53.999995491028,2|0,1:2|0:0,0:0:0:0:
308,323,286770,1,2,0:0:0:0:
309,349,286885,1,2,0:0:0:0:
310,376,287000,5,2,3:2:0:0:
430,324,287231,1,2,0:0:0:0:
256,207,287462,1,2,1:2:0:0:
136,259,287693,1,2,0:0:0:0:
110,258,287808,1,0,1:2:0:0:
83,257,287923,6,0,L|29:254,1,53.999995491028,2|0,3:2|1:2,0:0:0:0:
150,129,288154,2,0,L|96:131,1,53.999995491028,2|0,3:2|0:0,0:0:0:0:
222,293,288385,1,2,1:2:0:0:
289,93,288616,1,2,0:0:0:0:
287,66,288731,1,2,0:0:0:0:
286,39,288847,5,2,3:2:0:0:
375,128,289077,2,0,L|373:182,1,53.999995491028,2|0,0:0|0:0,0:0:0:0:
154,225,289308,2,0,B|201:200|201:200|256:207,1,107.999990982056,2|0,1:2|0:0,0:0:0:0:
309,253,289654,1,0,1:2:0:0:
333,274,289770,6,0,B|388:281|388:281|434:255,1,107.999990982056,2|0,3:2|0:0,0:0:0:0:
381,20,290231,1,0,1:2:0:0:
380,47,290347,1,0,1:2:0:0:
378,74,290462,1,8,0:3:0:0:
377,101,290577,1,4,0:3:0:0:
375,128,290693,6,0,L|373:182,1,53.999995491028,2|0,1:2|0:0,0:0:0:0:
314,361,290923,1,2,1:2:0:0:
313,334,291039,1,0,1:2:0:0:
311,307,291154,6,0,L|309:253,1,53.999995491028,2|0,1:2|0:0,0:0:0:0:
244,80,291385,1,8,0:3:0:0:
243,107,291500,1,8,0:3:0:0:
241,134,291616,6,0,L|239:188,1,53.999995491028,2|0,1:2|0:0,0:0:0:0:
180,355,291847,1,4,0:3:0:0:
179,328,291962,1,4,0:3:0:0:
177,301,292077,6,0,L|175:247,1,53.999995491028,2|0,1:2|0:0,0:0:0:0:
107,128,292308,2,0,L|105:182,1,53.999995491028,4|4,0:3|0:3,0:0:0:0:
244,80,292539,5,6,1:2:0:0:
269,72,292654,2,0,P|330:81|394:87,1,89.9999952316285,2|2,0:0|0:0,0:0:0:0:
436,63,293000,2,0,P|427:124|421:188,1,89.9999952316285,2|2,0:0|0:0,0:0:0:0:
445,230,293347,1,2,0:0:0:0:
299,183,293577,1,2,0:0:0:0:
299,183,293693,2,0,L|306:252,1,44.9999976158143,2|0,0:0|0:0,0:0:0:0:
288,366,293923,5,2,0:0:0:0:
310,364,294039,1,2,0:0:0:0:
332,363,294154,1,2,0:0:0:0:
355,361,294270,1,2,0:0:0:0:
398,380,294385,6,0,B|339:263|408:223|461:216|493:294,1,236.24998973608,6|0,3:2|3:2,0:0:0:0:
484,348,294847,5,0,1:2:0:0:
301,284,295077,1,2,3:2:0:0:
270,273,295193,2,0,B|211:252|162:272|162:272|180:245|182:202,1,161.999986473084,0|2,1:2|3:2,0:0:0:0:
110,54,295770,1,2,1:2:0:0:
109,87,295885,1,2,3:2:0:0:
107,119,296000,2,0,L|116:216,1,53.999995491028,2|0,0:0|0:0,0:0:0:0:
229,56,296231,6,0,B|283:43|283:43|359:70,1,107.999990982056,2|0,3:2|0:0,0:0:0:0:
377,114,296577,1,2,3:2:0:0:
377,114,296693,1,0,1:2:0:0:
332,295,296923,1,2,3:2:0:0:
301,284,297039,1,0,1:2:0:0:
270,273,297154,2,0,L|261:165,1,107.999990982056,0|0,1:2|3:2,0:0:0:0:
53,204,297616,1,2,1:2:0:0:
79,221,297731,1,2,0:0:0:0:
110,231,297847,1,2,0:0:0:0:
142,232,297962,1,2,0:0:0:0:
173,226,298077,6,0,P|111:237|109:339,1,161.999986473084,2|2,3:2|3:2,0:0:0:0:
140,378,298539,1,0,1:2:0:0:
270,273,298770,1,2,3:2:0:0:
301,284,298885,2,0,L|433:277,1,107.999990982056,0|0,1:2|0:0,0:0:0:0:
476,259,299231,1,2,3:2:0:0:
365,70,299462,1,2,1:2:0:0:
359,102,299577,1,2,3:2:0:0:
354,134,299693,2,0,L|350:188,1,53.999995491028,2|0,0:0|0:0,0:0:0:0:
127,124,299923,6,0,B|178:101|178:101|229:111,1,107.999990982056,2|0,3:2|0:0,0:0:0:0:
275,165,300270,1,2,3:2:0:0:
275,165,300385,1,0,1:2:0:0:
129,253,300616,1,2,3:2:0:0:
96,254,300731,1,0,1:2:0:0:
63,254,300847,2,0,L|-2:243,1,53.999995491028,0|0,3:2|0:0,0:0:0:0:
149,360,301077,1,0,1:2:0:0:
182,361,301193,1,0,1:2:0:0:
215,361,301308,5,0,1:2:0:0:
241,319,301423,1,8,0:3:0:0:
282,290,301539,1,4,0:3:0:0:
331,280,301654,1,4,0:3:0:0:
380,289,301770,6,0,B|428:303|446:356|446:356|486:288|455:224,1,236.24998973608,6|0,3:2|3:2,0:0:0:0:
412,167,302231,5,0,1:2:0:0:
313,62,302462,1,2,3:2:0:0:
286,79,302577,2,0,B|205:98|205:98|111:70,1,161.999986473084,0|2,1:2|3:2,0:0:0:0:
22,199,303154,2,0,L|30:145,1,53.999995491028,2|2,1:2|3:2,0:0:0:0:
160,269,303385,2,0,L|151:215,1,53.999995491028,2|0,0:0|0:0,0:0:0:0:
0,340,303616,6,0,B|47:311|47:311|144:336,1,107.999990982056,2|0,3:2|0:0,0:0:0:0:
161,355,303962,1,2,3:2:0:0:
161,355,304077,1,0,1:2:0:0:
287,268,304308,1,2,3:2:0:0:
293,236,304423,2,0,L|286:116,1,107.999990982056,0|0,1:2|0:0,0:0:0:0:
282,57,304770,1,0,3:2:0:0:
383,176,305000,1,2,1:2:0:0:
392,207,305116,1,2,0:0:0:0:
397,239,305231,1,2,0:0:0:0:
397,272,305347,1,2,0:0:0:0:
394,304,305462,6,0,B|312:348|312:348|201:323,1,161.999986473084,2|2,3:2|3:2,0:0:0:0:
182,302,305923,1,0,1:2:0:0:
67,159,306154,1,2,3:2:0:0:
99,165,306269,1,0,1:2:0:0:
132,169,306385,2,0,L|239:157,1,107.999990982056,0|2,1:2|3:2,0:0:0:0:
393,58,306847,1,2,1:2:0:0:
389,90,306962,1,2,3:2:0:0:
386,122,307077,2,0,L|383:176,1,53.999995491028,2|0,0:0|0:0,0:0:0:0:
250,240,307308,6,0,L|246:186,1,53.999995491028,2|0,3:2|0:0,0:0:0:0:
424,258,307539,2,0,L|420:311,1,53.999995491028,4|0,1:2|0:0,0:0:0:0:
212,376,307770,2,0,L|208:322,1,53.999995491028,6|0,1:2|0:0,0:0:0:0:
67,159,308000,1,2,3:2:0:0:
71,191,308115,1,0,1:2:0:0:
73,223,308231,6,0,L|76:276,1,53.999995491028,2|0,1:2|0:0,0:0:0:0:
246,186,308462,2,0,L|249:132,1,53.999995491028,2|0,1:2|3:2,0:0:0:0:
135,29,308693,1,2,1:2:0:0:
113,70,308808,1,2,1:2:0:0:
154,91,308923,1,2,1:2:0:0:
176,50,309039,1,2,1:2:0:0:
