osu file format v14

[General]
AudioFilename: audio.mp3
AudioLeadIn: 0
PreviewTime: 66586
Countdown: 0
SampleSet: Soft
StackLeniency: 0.4
Mode: 0
LetterboxInBreaks: 0
WidescreenStoryboard: 0

[Editor]
Bookmarks: 240,15009,29778,51932,66702,81471,96240,110894
DistanceSpacing: 1
BeatDivisor: 4
GridSize: 4
TimelineZoom: 1

[Metadata]
Title:Sekai wa Koi ni Ochiteiru
TitleUnicode:世界は恋に落ちている
Artist:Pastel*Palettes
ArtistUnicode:Pastel*Palettes
Creator:lit120
Version:First Love
Source:バンドリ!ガールズバンドパーティ!
Tags:丸山彩 Maruyama Aya 大和麻弥 Yamato Maya 若宮イヴ Wakamiya Eve 白鷺千聖 Shirasagi Chisato 氷川日菜 Hikawa Hina パスパレ Paspale パステルパレット ぱすてるぱれっと Anime Game Girls Band Party ガルパ! Garupa Bandori アオハライド ao-haru-ride HoneyWorks -Hakurei- strickluke Gero
BeatmapID:1688743
BeatmapSetID:804459

[Difficulty]
HPDrainRate:6
CircleSize:4.3
OverallDifficulty:8
ApproachRate:8.2
SliderMultiplier:1.8
SliderTickRate:1

[Events]
//Background and Video events
0,0,"bg.jpg",0,0
//Break Periods
//Storyboard Layer 0 (Background)
//Storyboard Layer 1 (Fail)
//Storyboard Layer 2 (Pass)
//Storyboard Layer 3 (Foreground)
//Storyboard Sound Samples

[TimingPoints]
240,461.538461538462,4,2,0,50,1,0
240,-133.333333333333,4,2,0,50,0,0
13625,-133.333333333333,4,2,0,55,0,0
14086,-133.333333333333,4,2,0,60,0,0
14548,-133.333333333333,4,2,0,65,0,0
15009,-86.9565217391304,4,2,0,70,0,0
29778,-100,4,2,0,60,0,0
66702,-86.9565217391304,4,2,0,80,0,1
96240,-86.9565217391304,4,2,0,70,0,0

[Colours]
Combo1 : 237,197,103
Combo2 : 241,154,179
Combo3 : 146,163,194
Combo4 : 9,206,132

[HitObjects]
96,175,240,6,0,L|93:281,2,101.250003862381
157,103,1163,2,0,P|206:103|227:111,1,67.5000025749208
253,145,1509,1,0,0:0:0:0:
252,144,1624,2,0,P|286:147|318:138,1,67.5000025749208
404,84,2086,6,0,L|410:197,1,101.250003862381
346,311,2778,1,0,0:0:0:0:
275,247,3009,2,0,P|233:249|177:268,1,101.250003862381
138,295,3470,2,0,P|97:300|67:291,1,67.5000025749208
25,89,3932,6,0,P|42:136|46:187,1,101.250003862381
122,68,4624,1,0,0:0:0:0:
197,125,4855,2,0,P|248:121|295:104,1,101.250003862381
333,76,5316,1,0,0:0:0:0:
414,181,5547,1,0,0:0:0:0:
414,181,5663,1,0,0:0:0:0:
414,181,5778,6,0,P|364:184|317:202,1,101.250003862381
279,230,6240,1,0,0:0:0:0:
189,352,6470,1,0,0:0:0:0:
189,352,6586,1,0,0:0:0:0:
189,352,6701,2,0,P|182:300|190:271,1,67.5000025749208
203,245,7047,1,0,0:0:0:0:
203,245,7163,2,0,P|206:211|198:178,1,67.5000025749208
27,124,7624,6,0,P|74:144|123:137,1,101.250003862381
163,109,8086,1,0,0:0:0:0:
86,50,8316,1,0,0:0:0:0:
15,220,8547,2,0,L|17:304,1,67.5000025749208
125,204,9009,2,0,L|124:137,1,67.5000025749208
209,312,9470,5,0,0:0:0:0:
261,185,9701,1,0,0:0:0:0:
261,185,9816,1,0,0:0:0:0:
261,185,9932,1,0,0:0:0:0:
113,300,10163,1,0,0:0:0:0:
287,371,10393,2,0,P|295:338|289:305,1,67.5000025749208
188,176,10855,2,0,P|180:209|187:242,1,67.5000025749208
339,83,11316,6,0,P|273:94|212:66,1,135.000005149842
80,107,12009,2,0,P|113:101|145:109,1,67.5000025749208
261,185,12470,1,0,0:0:0:0:
336,16,12701,2,0,L|339:84,1,67.5000025749208
259,250,13163,6,0,P|253:217|261:185,1,67.5000025749208
396,52,13624,2,0,P|371:74|339:83,1,67.5000025749208
157,31,14086,2,0,P|188:42|213:66,1,67.5000025749208
384,190,14547,1,0,0:0:0:0:
88,238,14778,1,0,0:0:0:0:
88,238,14893,1,0,0:0:0:0:
88,238,15009,6,0,P|144:201|262:225,1,155.250002961159
275,228,15470,1,0,0:0:0:0:
121,379,15701,1,0,0:0:0:0:
121,379,15816,1,0,0:0:0:0:
121,379,15932,1,0,0:0:0:0:
88,238,16163,1,0,0:0:0:0:
308,369,16393,1,0,0:0:0:0:
308,369,16509,1,0,0:0:0:0:
308,369,16624,1,0,0:0:0:0:
312,114,16855,6,0,P|246:99|145:163,1,155.250002961159
133,170,17316,1,0,0:0:0:0:
384,190,17547,1,0,0:0:0:0:
384,190,17663,1,0,0:0:0:0:
384,190,17778,1,0,0:0:0:0:
248,306,18009,1,0,0:0:0:0:
194,52,18240,1,0,0:0:0:0:
226,73,18355,1,0,0:0:0:0:
247,105,18470,1,0,0:0:0:0:
251,144,18586,1,0,0:0:0:0:
238,180,18701,6,0,P|174:218|104:190,1,155.250002961159
84,142,19163,1,0,0:0:0:0:
200,335,19393,1,0,0:0:0:0:
200,335,19509,1,0,0:0:0:0:
200,335,19624,1,0,0:0:0:0:
238,180,19855,1,0,0:0:0:0:
46,297,20086,1,0,0:0:0:0:
46,297,20201,1,0,0:0:0:0:
46,297,20316,1,0,0:0:0:0:
296,276,20547,6,0,P|344:217|335:122,1,155.250002961159
315,99,21009,1,0,0:0:0:0:
143,239,21240,1,0,0:0:0:0:
143,239,21355,1,0,0:0:0:0:
143,239,21470,1,0,0:0:0:0:
107,20,21701,1,0,0:0:0:0:
137,49,21816,1,0,0:0:0:0:
159,83,21931,1,0,0:0:0:0:
170,122,22047,1,0,0:0:0:0:
171,163,22162,1,0,0:0:0:0:
162,203,22277,1,0,0:0:0:0:
143,239,22393,6,0,P|247:204|294:217,1,155.250002961159
338,240,22855,1,0,0:0:0:0:
167,383,23086,1,0,0:0:0:0:
167,383,23201,1,0,0:0:0:0:
167,383,23316,1,0,0:0:0:0:
380,327,23547,1,0,0:0:0:0:
143,239,23778,1,0,0:0:0:0:
143,239,23893,1,0,0:0:0:0:
143,239,24009,1,0,0:0:0:0:
404,182,24240,6,0,P|338:206|228:168,1,155.250002961159
213,160,24701,1,0,0:0:0:0:
111,43,24932,1,0,0:0:0:0:
111,43,25047,1,0,0:0:0:0:
111,43,25163,1,0,0:0:0:0:
61,189,25393,1,0,0:0:0:0:
220,50,25624,1,0,0:0:0:0:
258,43,25739,1,0,0:0:0:0:
297,44,25854,1,0,0:0:0:0:
335,51,25970,1,0,0:0:0:0:
371,66,26086,6,0,P|380:151|376:232,1,155.250002961159
