osu file format v14

[General]
AudioFilename: audio.mp3
AudioLeadIn: 0
PreviewTime: 61774
Countdown: 0
SampleSet: Soft
StackLeniency: 0.7
Mode: 3
LetterboxInBreaks: 0
SpecialStyle: 0
WidescreenStoryboard: 1

[Editor]
DistanceSpacing: 0.1
BeatDivisor: 4
GridSize: 4
TimelineZoom: 1.6

[Metadata]
Title:Q&A Recital!
TitleUnicode:Q&A リサイタル!
Artist:Pastel*Palettes
ArtistUnicode:Pastel*Palettes
Creator:_Asha
Version:Nabi's Hard
Source:バンドリ!ガールズバンドパーティ!
Tags:Anime Japanese op opening となりの怪物くん My little Monster Tonari no Kaibutsu-kun 戸松遥 Haruka Tomatsu Video Game cover BanG Dream! Girls Band Party! Garupa Bandori! ガルパ! PasuPare パスパレ Paspale パステルパレット ぱすてるぱれっと 丸山彩 Maruyama Aya 大和麻弥 Yamato Maya 若宮イヴ Wakamiya Eve 白鷺千聖 Shirasagi Chisato 氷川日菜 Hikawa Hina 前島亜美 Maeshima Ami 中上育美 Nakagami Ikumi 秦佐和子 Hata Sawako 上坂すみれ Uesaka Sumire 小澤亜李 Ozawa Ari Nabi-
BeatmapID:2880014
BeatmapSetID:1395277

[Difficulty]
HPDrainRate:8
CircleSize:4
OverallDifficulty:8
ApproachRate:5
SliderMultiplier:1.4
SliderTickRate:1

[Events]
//Background and Video events
0,0,"BG.png",0,0
//Break Periods
//Storyboard Layer 0 (Background)
//Storyboard Layer 1 (Fail)
//Storyboard Layer 2 (Pass)
//Storyboard Layer 3 (Foreground)
//Storyboard Layer 4 (Overlay)
//Storyboard Sound Samples
Sample,58807,0,"soft-hitnormal02.wav",30

[TimingPoints]
-533,329.67032967033,4,2,1,60,1,0
62763,-100,4,2,1,60,0,1
73148,-100,4,2,1,60,0,0
73313,-100,4,2,1,60,0,1
86499,-100,4,2,1,60,0,0

[HitObjects]
320,192,1774,5,0,0:0:0:70:tom02.wav
192,192,1774,1,8,0:0:0:0:
448,192,2104,1,4,0:0:0:0:
64,192,2104,1,2,0:0:0:0:
320,192,2104,1,0,0:0:0:0:
448,192,2434,1,8,0:0:0:0:
192,192,2434,1,0,0:0:0:30:soft-hitnormal02.wav
320,192,2598,1,0,0:0:0:0:
64,192,2763,1,8,0:0:0:0:
320,192,2763,1,0,0:0:0:30:soft-hitnormal02.wav
192,192,2928,1,2,0:0:0:0:
64,192,2928,1,0,0:0:0:0:
320,192,3093,1,8,0:0:0:0:
448,192,3093,1,0,0:0:0:30:soft-hitnormal02.wav
192,192,3258,1,2,0:0:0:0:
448,192,3258,1,0,0:0:0:0:
64,192,3423,1,8,0:0:0:0:
320,192,3423,1,0,0:0:0:30:soft-hitnormal02.wav
192,192,3587,1,0,0:0:0:0:
64,192,3752,1,8,0:0:0:0:
448,192,3752,1,0,0:0:0:30:soft-hitnormal02.wav
320,192,3917,1,0,0:0:0:0:
192,192,4082,1,8,0:0:0:0:
448,192,4082,1,0,0:0:0:30:soft-hitnormal02.wav
448,192,4247,1,2,0:0:0:0:
320,192,4247,1,0,0:0:0:0:
64,192,4412,1,8,0:0:0:0:
192,192,4412,1,0,0:0:0:30:soft-hitnormal02.wav
64,192,4576,1,2,0:0:0:0:
320,192,4576,1,0,0:0:0:0:
448,192,4741,1,10,0:0:0:0:
192,192,4741,1,0,0:0:0:30:soft-hitnormal02.wav
320,192,4906,1,0,0:0:0:0:
448,192,5071,1,8,0:0:0:0:
64,192,5071,1,0,0:0:0:30:soft-hitnormal02.wav
192,192,5236,1,0,0:0:0:0:
64,192,5401,1,8,0:0:0:0:
320,192,5401,1,0,0:0:0:30:soft-hitnormal02.wav
320,192,5565,1,2,0:0:0:0:
448,192,5565,1,0,0:0:0:0:
64,192,5730,1,8,0:0:0:0:
192,192,5730,1,0,0:0:0:30:soft-hitnormal02.wav
192,192,5895,1,2,0:0:0:0:
320,192,5895,1,0,0:0:0:0:
64,192,6060,1,8,0:0:0:0:
448,192,6060,1,0,0:0:0:30:soft-hitnormal02.wav
64,192,6225,1,2,0:0:0:0:
192,192,6225,1,0,0:0:0:0:
320,192,6390,1,8,0:0:0:0:
448,192,6390,1,0,0:0:0:30:soft-hitnormal02.wav
192,192,6554,1,2,0:0:0:0:
64,192,6554,1,0,0:0:0:0:
64,192,6719,1,8,0:0:0:0:
448,192,6719,1,0,0:0:0:30:soft-hitnormal02.wav
192,192,6884,1,2,0:0:0:0:
320,192,6884,1,0,0:0:0:0:
448,192,7049,1,8,0:0:0:0:
320,192,7049,1,4,0:0:0:0:
64,192,7049,1,0,0:0:0:0:
192,192,7214,1,2,0:0:0:0:
448,192,7214,1,0,0:0:0:0:
320,192,7379,1,2,0:0:0:0:
64,192,7379,1,4,0:0:0:0:
192,192,7379,128,8,7708:0:0:0:0:
448,192,7708,1,8,0:0:0:0:
64,192,7708,1,0,0:0:0:30:soft-hitnormal02.wav
320,192,7873,1,0,0:0:0:0:
64,192,8038,1,8,0:0:0:0:
320,192,8038,1,0,0:0:0:30:soft-hitnormal02.wav
192,192,8203,1,2,0:0:0:0:
64,192,8203,1,0,0:0:0:0:
448,192,8368,1,8,0:0:0:0:
320,192,8368,1,0,0:0:0:30:soft-hitnormal02.wav
64,192,8532,1,2,0:0:0:0:
448,192,8532,1,0,0:0:0:0:
320,192,8697,1,8,0:0:0:0:
192,192,8697,1,0,0:0:0:30:soft-hitnormal02.wav
448,192,8862,1,0,0:0:0:0:
64,192,9027,1,8,0:0:0:0:
192,192,9027,1,0,0:0:0:30:soft-hitnormal02.wav
64,192,9192,1,0,0:0:0:0:
448,192,9357,1,8,0:0:0:0:
320,192,9357,1,0,0:0:0:30:soft-hitnormal02.wav
192,192,9521,1,2,0:0:0:0:
320,192,9521,1,0,0:0:0:0:
64,192,9686,1,8,0:0:0:0:
448,192,9686,1,0,0:0:0:30:soft-hitnormal02.wav
64,192,9851,1,2,0:0:0:0:
192,192,9851,1,0,0:0:0:0:
448,192,10016,1,10,0:0:0:0:
320,192,10016,1,0,0:0:0:30:soft-hitnormal02.wav
192,192,10181,1,0,0:0:0:0:
448,192,10346,1,8,0:0:0:0:
64,192,10346,1,0,0:0:0:30:soft-hitnormal02.wav
320,192,10510,1,0,0:0:0:0:
64,192,10675,1,8,0:0:0:0:
192,192,10675,1,0,0:0:0:30:soft-hitnormal02.wav
64,192,10840,1,2,0:0:0:0:
448,192,10840,1,0,0:0:0:0:
320,192,11005,1,8,0:0:0:0:
448,192,11005,1,0,0:0:0:30:soft-hitnormal02.wav
320,192,11170,1,2,0:0:0:0:
192,192,11170,1,0,0:0:0:0:
64,192,11335,1,8,0:0:0:0:
448,192,11335,1,0,0:0:0:30:soft-hitnormal02.wav
448,192,11499,1,2,0:0:0:0:
320,192,11499,1,0,0:0:0:0:
64,192,11664,1,8,0:0:0:0:
192,192,11664,1,0,0:0:0:30:soft-hitnormal02.wav
448,192,11829,1,2,0:0:0:0:
320,192,11829,1,0,0:0:0:0:
64,192,11994,1,2,0:0:0:0:
192,192,11994,1,4,0:0:0:0:
448,192,11994,1,0,0:0:0:0:
320,192,12159,1,8,0:0:0:0:
64,192,12159,1,0,0:0:0:0:
192,192,12241,1,0,0:0:0:50:tom02.wav
448,192,12324,1,8,0:0:0:0:
320,192,12406,1,0,0:0:0:50:tom03.wav
64,192,12488,1,8,0:0:0:0:
192,192,12571,1,0,0:0:0:50:tom04.wav
320,192,12653,1,2,0:0:0:0:
448,192,12653,1,4,0:0:0:0:
64,192,12653,128,0,13642:0:0:0:0:
192,192,12983,1,0,0:0:0:30:soft-hitnormal02.wav
192,192,13642,1,0,0:0:0:30:soft-hitnormal02.wav
320,192,13972,128,0,14631:0:0:0:0:
64,192,14302,1,0,0:0:0:30:soft-hitnormal02.wav
192,192,14631,128,0,15291:0:0:0:0:
448,192,14961,1,0,0:0:0:30:soft-hitnormal02.wav
64,192,15291,1,4,0:0:0:0:
320,192,15291,1,8,0:0:0:0:
448,192,15291,1,0,0:0:0:0:
64,192,15456,1,2,0:0:0:0:
192,192,15456,1,0,0:0:0:0:
448,192,15620,1,2,0:0:0:0:
320,192,15620,1,0,0:0:0:0:
192,192,15785,1,4,0:0:0:0:
448,192,15785,1,8,0:0:0:0:
320,192,15950,1,2,0:0:0:0:
64,192,15950,1,0,0:0:0:0:
192,192,16115,1,2,0:0:0:0:
448,192,16115,1,0,0:0:0:0:
64,192,16280,1,4,0:0:0:0:
192,192,16280,1,8,0:0:0:0:
320,192,16445,1,2,0:0:0:0:
448,192,16445,1,0,0:0:0:0:
64,192,16609,1,2,0:0:0:0:
192,192,16609,1,0,0:0:0:0:
64,192,16774,1,4,0:0:0:0:
448,192,16774,1,8,0:0:0:0:
320,192,16939,1,2,0:0:0:0:
192,192,16939,1,0,0:0:0:0:
64,192,17104,1,2,0:0:0:0:
448,192,17104,1,0,0:0:0:0:
320,192,17269,1,8,0:0:0:0:
448,192,17269,1,0,0:0:0:0:
192,192,17351,1,0,0:0:0:30:soft-hitclap.wav
320,192,17434,1,8,0:0:0:0:
448,192,17516,1,0,0:0:0:30:soft-hitclap.wav
64,192,17598,1,8,0:0:0:0:
192,192,17598,1,0,0:0:0:0:
320,192,17681,1,0,0:0:0:30:soft-hitclap.wav
192,192,17763,1,8,0:0:0:0:
64,192,17846,1,0,0:0:0:30:soft-hitclap.wav
320,192,17928,1,2,0:0:0:0:
448,192,17928,1,0,0:0:0:0:
448,192,18093,128,0,18258:0:0:0:0:
192,192,18258,1,0,0:0:0:50:Hat Pedal.wav
448,192,18423,128,0,18587:0:0:0:0:
448,192,18752,128,0,18917:0:0:0:0:
192,192,18917,1,0,0:0:0:50:Hat Pedal.wav
64,192,19082,128,0,19247:0:0:0:0:
64,192,19412,128,0,19576:0:0:0:0:
448,192,19576,1,0,0:0:0:50:Hat Pedal.wav
64,192,19741,128,0,19906:0:0:0:0:
64,192,20071,128,0,20236:0:0:0:0:
448,192,20236,1,0,0:0:0:50:Hat Pedal.wav
64,192,20401,128,0,20565:0:0:0:0:
320,192,20730,128,0,20895:0:0:0:0:
192,192,20895,1,0,0:0:0:50:Hat Pedal.wav
320,192,21060,128,0,21225:0:0:0:0:
320,192,21390,128,0,21554:0:0:0:0:
192,192,21554,1,0,0:0:0:50:Hat Pedal.wav
320,192,21719,128,0,21884:0:0:0:0:
320,192,22049,128,0,22214:0:0:0:0:
192,192,22214,1,0,0:0:0:50:Hat Pedal.wav
320,192,22379,128,0,22543:0:0:0:0:
320,192,22708,128,0,22873:0:0:0:0:
192,192,22873,1,0,0:0:0:50:Hat Pedal.wav
320,192,23038,128,0,23203:0:0:0:0:
448,192,23368,128,0,23532:0:0:0:0:
64,192,23532,1,0,0:0:0:50:Hat Pedal.wav
448,192,23697,128,0,23862:0:0:0:0:
448,192,24027,128,0,24192:0:0:0:0:
64,192,24192,1,0,0:0:0:50:Hat Pedal.wav
448,192,24357,128,0,24521:0:0:0:0:
192,192,24686,128,0,24851:0:0:0:0:
320,192,24851,1,0,0:0:0:50:Hat Pedal.wav
192,192,25016,128,0,25181:0:0:0:0:
192,192,25346,128,0,25675:0:0:0:50:Hat Pedal.wav
320,192,25510,128,0,25675:0:0:0:30:soft-hitnormal02.wav
64,192,25675,128,0,25840:0:0:0:0:
448,192,25840,1,8,0:0:0:0:
192,192,25840,1,0,0:0:0:0:
192,192,26005,1,8,0:0:0:0:
448,192,26005,1,0,0:0:0:0:
320,192,26170,1,2,0:0:0:0:
192,192,26335,1,0,0:0:0:0:
64,192,26499,1,8,0:0:0:0:
320,192,26499,1,0,0:0:0:0:
64,192,26664,1,8,0:0:0:0:
320,192,26664,1,0,0:0:0:0:
192,192,26829,1,2,0:0:0:0:
320,192,26994,1,4,0:0:0:0:
448,192,26994,1,2,0:0:0:0:
64,192,26994,128,0,27324:0:0:0:0:
192,192,27324,1,8,0:0:0:0:
448,192,27324,1,2,0:0:0:0:
448,192,27488,1,8,0:0:0:0:
320,192,27488,1,0,0:0:0:0:
192,192,27653,1,0,0:0:0:70:tom03.wav
64,192,27653,1,0,0:0:0:0:
64,192,27818,1,0,0:0:0:70:tom04.wav
448,192,27818,128,0,27983:0:0:0:0:
64,192,28148,1,8,0:0:0:0:
192,192,28148,1,0,0:0:0:0:
448,192,28230,1,8,0:0:0:0:
320,192,28313,1,8,0:0:0:0:
192,192,28395,1,8,0:0:0:0:
64,192,28477,1,2,0:0:0:0:
448,192,28477,1,4,0:0:0:0:
320,192,28642,1,0,0:0:0:0:
64,192,28807,1,8,0:0:0:0:
192,192,28807,1,0,0:0:0:0:
320,192,28972,1,0,0:0:0:0:
64,192,29137,1,2,0:0:0:0:
448,192,29137,1,0,0:0:0:0:
320,192,29302,1,2,0:0:0:0:
448,192,29302,1,0,0:0:0:0:
64,192,29467,1,8,0:0:0:0:
192,192,29467,1,0,0:0:0:0:
320,192,29631,1,0,0:0:0:0:
192,192,29796,1,2,0:0:0:0:
448,192,29796,1,0,0:0:0:0:
64,192,29961,1,0,0:0:0:0:
320,192,30126,1,8,0:0:0:0:
192,192,30126,1,0,0:0:0:0:
64,192,30291,1,0,0:0:0:0:
320,192,30456,1,2,0:0:0:0:
448,192,30456,1,0,0:0:0:0:
64,192,30620,1,2,0:0:0:0:
448,192,30620,1,0,0:0:0:0:
192,192,30785,1,8,0:0:0:0:
320,192,30785,1,0,0:0:0:0:
448,192,30950,1,2,0:0:0:0:
64,192,30950,1,0,0:0:0:0:
64,192,31115,1,2,0:0:0:0:
192,192,31115,1,0,0:0:0:0:
448,192,31280,1,0,0:0:0:0:
192,192,31445,1,8,0:0:0:0:
320,192,31445,1,0,0:0:0:0:
448,192,31609,1,0,0:0:0:0:
192,192,31774,1,2,0:0:0:0:
64,192,31774,1,0,0:0:0:0:
448,192,31939,1,2,0:0:0:0:
64,192,31939,1,0,0:0:0:0:
192,192,32104,1,8,0:0:0:0:
320,192,32104,1,0,0:0:0:0:
448,192,32269,1,0,0:0:0:0:
64,192,32434,1,2,0:0:0:0:
192,192,32434,1,0,0:0:0:0:
320,192,32598,1,0,0:0:0:0:
64,192,32763,1,8,0:0:0:0:
448,192,32763,1,0,0:0:0:0:
320,192,32928,1,0,0:0:0:0:
192,192,33093,1,2,0:0:0:0:
64,192,33093,1,0,0:0:0:0:
320,192,33258,1,2,0:0:0:0:
192,192,33258,1,0,0:0:0:0:
64,192,33423,1,8,0:0:0:0:
448,192,33423,1,0,0:0:0:0:
64,192,33587,1,8,0:0:0:0:
448,192,33587,1,0,0:0:0:0:
192,192,33752,1,2,0:0:0:0:
320,192,33752,1,4,0:0:0:0:
64,192,33917,1,0,0:0:0:0:
320,192,34082,1,8,0:0:0:0:
448,192,34082,1,0,0:0:0:0:
64,192,34247,1,0,0:0:0:0:
192,192,34412,1,2,0:0:0:0:
320,192,34412,1,0,0:0:0:0:
64,192,34576,1,2,0:0:0:0:
192,192,34576,1,0,0:0:0:0:
320,192,34741,1,8,0:0:0:0:
448,192,34741,1,0,0:0:0:0:
64,192,34906,1,0,0:0:0:0:
192,192,35071,1,2,0:0:0:0:
320,192,35071,1,0,0:0:0:0:
448,192,35236,1,0,0:0:0:0:
64,192,35401,1,8,0:0:0:0:
192,192,35401,1,0,0:0:0:0:
448,192,35565,1,0,0:0:0:0:
320,192,35730,1,2,0:0:0:0:
192,192,35730,1,0,0:0:0:0:
320,192,35895,1,2,0:0:0:0:
448,192,35895,1,0,0:0:0:0:
64,192,36060,1,8,0:0:0:0:
448,192,36060,1,0,0:0:0:0:
192,192,36225,1,2,0:0:0:0:
320,192,36225,1,0,0:0:0:0:
64,192,36390,1,8,0:0:0:0:
192,192,36390,1,0,0:0:0:0:
64,192,36554,1,8,0:0:0:0:
192,192,36554,1,0,0:0:0:0:
320,192,36719,1,2,0:0:0:0:
448,192,36719,1,0,0:0:0:0:
64,192,37049,1,8,0:0:0:0:
448,192,37049,1,0,0:0:0:0:
448,192,37214,1,8,0:0:0:0:
64,192,37214,1,0,0:0:0:0:
320,192,37379,1,2,0:0:0:0:
192,192,37379,1,0,0:0:0:0:
192,192,37543,1,4,0:0:0:0:
64,192,37543,1,2,0:0:0:0:
448,192,37543,128,0,37873:0:0:0:0:
64,192,37873,1,2,0:0:0:0:
320,192,37873,1,0,0:0:0:0:
64,192,38038,1,8,0:0:0:0:
192,192,38038,1,0,0:0:0:0:
320,192,38203,1,0,0:0:0:70:tom03.wav
448,192,38203,1,0,0:0:0:0:
64,192,38368,1,0,0:0:0:70:tom04.wav
448,192,38368,1,0,0:0:0:0:
192,192,38532,1,8,0:0:0:0:
320,192,38532,1,0,0:0:0:0:
448,192,38697,1,8,0:0:0:0:
320,192,38697,1,0,0:0:0:0:
64,192,38780,1,8,0:0:0:0:
192,192,38862,1,8,0:0:0:0:
320,192,38945,1,8,0:0:0:0:
64,192,39027,1,4,0:0:0:0:
448,192,39027,1,2,0:0:0:0:
320,192,39357,1,8,0:0:0:0:
448,192,39357,1,0,0:0:0:30:soft-hitnormal02.wav
64,192,39686,1,2,0:0:0:0:
192,192,39686,1,0,0:0:0:30:soft-hitnormal02.wav
192,192,39851,1,2,0:0:0:0:
320,192,39851,1,0,0:0:0:0:
64,192,40016,1,8,0:0:0:0:
448,192,40016,1,0,0:0:0:30:soft-hitnormal02.wav
192,192,40181,1,2,0:0:0:0:
320,192,40181,1,4,0:0:0:0:
448,192,40181,128,0,40510:0:0:0:0:
192,192,40510,1,2,0:0:0:0:
64,192,40510,1,0,0:0:0:0:
448,192,40675,1,8,0:0:0:0:
64,192,40675,1,0,0:0:0:30:soft-hitnormal02.wav
192,192,40840,1,0,0:0:0:0:
320,192,41005,1,2,0:0:0:0:
448,192,41005,1,0,0:0:0:30:soft-hitnormal02.wav
64,192,41170,1,2,0:0:0:0:
448,192,41170,1,0,0:0:0:0:
192,192,41335,1,8,0:0:0:0:
320,192,41335,1,0,0:0:0:30:soft-hitnormal02.wav
448,192,41499,1,4,0:0:0:0:
64,192,41499,128,2,41664:0:0:0:0:
192,192,41499,1,0,0:0:0:0:
192,192,41829,1,2,0:0:0:0:
64,192,41829,128,0,41912:0:0:0:0:
448,192,41994,1,8,0:0:0:0:
64,192,41994,128,2,42159:0:0:0:0:
320,192,42159,1,0,0:0:0:70:tom02.wav
192,192,42241,1,0,0:0:0:70:tom03.wav
64,192,42324,1,0,0:0:0:70:tom04.wav
320,192,42488,1,0,0:0:0:70:tom04.wav
64,192,42653,1,8,0:0:0:0:
448,192,42653,1,0,0:0:0:0:
320,192,42818,1,2,0:0:0:0:
64,192,42818,1,4,0:0:0:0:
448,192,42818,128,0,42983:0:0:0:0:
320,192,43148,1,2,0:0:0:0:
448,192,43148,128,0,43230:0:0:0:0:
448,192,43313,128,8,43477:0:0:0:0:
64,192,43313,1,2,0:0:0:0:
192,192,43477,1,0,0:0:0:70:tom02.wav
320,192,43560,1,0,0:0:0:70:tom03.wav
448,192,43642,1,0,0:0:0:70:tom04.wav
192,192,43807,1,0,0:0:0:70:tom04.wav
64,192,43972,1,8,0:0:0:0:
448,192,43972,1,0,0:0:0:0:
320,192,44137,1,8,0:0:0:0:
192,192,44219,1,8,0:0:0:0:
64,192,44219,1,0,0:0:0:0:
448,192,44302,1,2,0:0:0:0:
320,192,44302,1,0,0:0:0:0:
64,192,44631,1,8,0:0:0:0:
192,192,44631,1,4,0:0:0:0:
448,192,44631,1,0,0:0:0:0:
192,192,44961,1,2,0:0:0:0:
320,192,44961,1,0,0:0:0:30:soft-hitnormal02.wav
320,192,45126,1,2,0:0:0:0:
448,192,45126,1,0,0:0:0:0:
64,192,45291,1,8,0:0:0:0:
192,192,45291,1,0,0:0:0:30:soft-hitnormal02.wav
448,192,45456,1,2,0:0:0:0:
320,192,45456,1,4,0:0:0:0:
64,192,45456,128,0,45785:0:0:0:0:
192,192,45785,1,2,0:0:0:0:
320,192,45785,1,0,0:0:0:0:
448,192,45950,1,8,0:0:0:0:
64,192,45950,1,0,0:0:0:30:soft-hitnormal02.wav
320,192,46115,1,0,0:0:0:0:
192,192,46280,1,2,0:0:0:0:
64,192,46280,1,0,0:0:0:30:soft-hitnormal02.wav
64,192,46445,1,2,0:0:0:0:
320,192,46445,1,0,0:0:0:0:
192,192,46609,1,8,0:0:0:0:
448,192,46609,1,0,0:0:0:30:soft-hitnormal02.wav
320,192,46774,1,4,0:0:0:0:
448,192,46774,128,2,46939:0:0:0:0:
64,192,46774,1,0,0:0:0:0:
448,192,47104,128,2,47186:0:0:0:0:
320,192,47104,1,0,0:0:0:0:
448,192,47269,128,2,47434:0:0:0:0:
64,192,47269,1,8,0:0:0:0:
192,192,47434,1,0,0:0:0:70:tom02.wav
320,192,47516,1,0,0:0:0:70:tom03.wav
448,192,47598,1,0,0:0:0:70:tom04.wav
192,192,47763,1,0,0:0:0:70:tom04.wav
64,192,47928,1,8,0:0:0:0:
448,192,47928,1,0,0:0:0:0:
448,192,48093,1,4,0:0:0:0:
192,192,48093,1,2,0:0:0:0:
64,192,48093,128,0,48258:0:0:0:0:
192,192,48423,1,2,0:0:0:0:
64,192,48423,128,0,48505:0:0:0:0:
64,192,48587,128,2,48752:0:0:0:0:
448,192,48587,1,8,0:0:0:0:
320,192,48752,1,0,0:0:0:70:tom02.wav
192,192,48835,1,0,0:0:0:70:tom03.wav
64,192,48917,1,0,0:0:0:70:tom04.wav
320,192,49082,1,0,0:0:0:70:tom04.wav
64,192,49247,1,8,0:0:0:0:
448,192,49247,1,0,0:0:0:0:
192,192,49412,1,8,0:0:0:0:
320,192,49494,1,8,0:0:0:0:
448,192,49494,1,0,0:0:0:0:
64,192,49576,1,4,0:0:0:0:
192,192,49576,1,2,0:0:0:0:
448,192,49906,1,8,0:0:0:0:
64,192,49906,128,0,50071:0:0:0:30:soft-hitnormal02.wav
192,192,50071,1,0,0:0:0:0:
320,192,50236,1,2,0:0:0:0:
448,192,50236,1,0,0:0:0:30:soft-hitnormal02.wav
64,192,50401,1,2,0:0:0:0:
192,192,50401,1,0,0:0:0:0:
448,192,50565,1,8,0:0:0:0:
64,192,50565,128,0,50730:0:0:0:30:soft-hitnormal02.wav
320,192,50730,1,0,0:0:0:0:
64,192,50895,1,2,0:0:0:0:
192,192,50895,1,0,0:0:0:30:soft-hitnormal02.wav
64,192,51225,1,8,0:0:0:0:
448,192,51225,128,0,51390:0:0:0:30:soft-hitnormal02.wav
320,192,51390,1,0,0:0:0:0:
64,192,51554,1,2,0:0:0:0:
192,192,51554,1,0,0:0:0:30:soft-hitnormal02.wav
320,192,51719,1,2,0:0:0:0:
448,192,51719,1,0,0:0:0:0:
64,192,51884,1,8,0:0:0:0:
448,192,51884,128,0,52049:0:0:0:30:soft-hitnormal02.wav
64,192,52214,1,4,0:0:0:0:
320,192,52214,1,2,0:0:0:0:
192,192,52214,128,0,52543:0:0:0:0:
320,192,52543,1,8,0:0:0:0:
448,192,52543,1,0,0:0:0:0:
64,192,52708,1,4,0:0:0:0:
192,192,52708,1,2,0:0:0:0:
448,192,52708,128,0,53038:0:0:0:0:
64,192,53038,1,8,0:0:0:0:
320,192,53038,1,0,0:0:0:0:
192,192,53203,1,4,0:0:0:0:
448,192,53203,1,2,0:0:0:0:
64,192,53203,128,0,53532:0:0:0:0:
320,192,53532,1,0,0:0:0:70:tom04.wav
192,192,53697,1,0,0:0:0:70:tom04.wav
64,192,53697,1,2,0:0:0:0:
64,192,53862,1,8,0:0:0:0:
448,192,53862,1,0,0:0:0:0:
320,192,53945,1,8,0:0:0:0:
192,192,54027,1,8,0:0:0:0:
64,192,54109,1,8,0:0:0:0:
448,192,54192,1,0,0:0:0:0:
320,192,54357,1,2,0:0:0:0:
192,192,54357,1,0,0:0:0:0:
64,192,54521,1,8,0:0:0:0:
448,192,54521,1,0,0:0:0:0:
448,192,54686,1,2,0:0:0:0:
320,192,54769,1,0,0:0:0:70:tom02.wav
192,192,54851,1,2,0:0:0:0:
64,192,54851,1,4,0:0:0:0:
448,192,55016,1,0,0:0:0:0:
192,192,55181,1,8,0:0:0:0:
320,192,55181,1,0,0:0:0:30:soft-hitnormal02.wav
320,192,55346,1,0,0:0:0:0:
64,192,55510,1,2,0:0:0:0:
192,192,55510,1,0,0:0:0:30:soft-hitnormal02.wav
320,192,55675,1,2,0:0:0:0:
448,192,55675,1,0,0:0:0:0:
64,192,55840,1,8,0:0:0:0:
448,192,55840,1,0,0:0:0:30:soft-hitnormal02.wav
64,192,56005,128,0,56335:0:0:0:0:
192,192,56170,1,2,0:0:0:0:
320,192,56170,1,0,0:0:0:30:soft-hitnormal02.wav
448,192,56335,1,0,0:0:0:0:
64,192,56499,1,8,0:0:0:0:
448,192,56499,1,0,0:0:0:30:soft-hitnormal02.wav
192,192,56664,1,0,0:0:0:0:
320,192,56829,1,2,0:0:0:0:
448,192,56829,1,0,0:0:0:30:soft-hitnormal02.wav
192,192,56994,1,2,0:0:0:0:
64,192,56994,1,0,0:0:0:0:
64,192,57159,1,8,0:0:0:0:
448,192,57159,1,0,0:0:0:30:soft-hitnormal02.wav
320,192,57324,1,0,0:0:0:0:
192,192,57488,1,2,0:0:0:0:
64,192,57488,128,0,57818:0:0:0:30:soft-hitnormal02.wav
448,192,57818,1,8,0:0:0:0:
320,192,57818,1,0,0:0:0:30:soft-hitnormal02.wav
192,192,57983,1,0,0:0:0:0:
64,192,58148,1,2,0:0:0:0:
448,192,58148,1,0,0:0:0:30:soft-hitnormal02.wav
320,192,58313,1,2,0:0:0:0:
448,192,58313,1,0,0:0:0:0:
192,192,58477,1,8,0:0:0:0:
64,192,58477,1,0,0:0:0:30:soft-hitnormal02.wav
64,192,58642,1,2,0:0:0:0:
192,192,58642,128,0,58807:0:0:0:0:
320,192,58972,1,2,0:0:0:0:
192,192,58972,1,0,0:0:0:0:
64,192,59137,1,8,0:0:0:0:
448,192,59137,1,0,0:0:0:30:soft-hitnormal02.wav
320,192,59302,128,0,59467:0:0:0:0:
64,192,59467,1,2,0:0:0:0:
192,192,59467,1,0,0:0:0:30:soft-hitnormal02.wav
448,192,59631,1,2,0:0:0:0:
64,192,59631,1,0,0:0:0:0:
320,192,59796,1,8,0:0:0:0:
192,192,59796,1,0,0:0:0:30:soft-hitnormal02.wav
448,192,60126,1,8,0:0:0:0:
64,192,60126,1,2,0:0:0:0:
64,192,60291,1,8,0:0:0:0:
448,192,60291,1,2,0:0:0:0:
320,192,60456,128,0,60620:0:0:0:0:
64,192,60785,1,8,0:0:0:0:
448,192,60785,1,2,0:0:0:0:
64,192,60950,1,8,0:0:0:0:
448,192,60950,1,2,0:0:0:0:
192,192,61115,128,0,61280:0:0:0:0:
64,192,61445,1,8,0:0:0:0:
320,192,61445,1,2,0:0:0:0:
448,192,61445,1,0,0:0:0:0:
64,192,61609,1,8,0:0:0:0:
192,192,61609,1,2,0:0:0:0:
448,192,61609,1,0,0:0:0:0:
320,192,62434,1,8,0:0:0:0:
192,192,62434,1,0,0:0:0:70:tom02.wav
64,192,62763,1,4,0:0:0:0:
448,192,62763,1,2,0:0:0:0:
320,192,62763,128,0,63093:0:0:0:0:
64,192,63093,1,8,0:0:0:0:
192,192,63093,1,0,0:0:0:30:soft-hitnormal02.wav
448,192,63258,1,0,0:0:0:0:
64,192,63423,1,8,0:0:0:0:
320,192,63423,1,0,0:0:0:30:soft-hitnormal02.wav
192,192,63587,1,2,0:0:0:0:
64,192,63587,1,0,0:0:0:0:
320,192,63752,1,8,0:0:0:0:
448,192,63752,1,0,0:0:0:30:soft-hitnormal02.wav
192,192,63917,1,2,0:0:0:0:
320,192,63917,1,0,0:0:0:0:
64,192,64082,1,8,0:0:0:0:
448,192,64082,1,0,0:0:0:30:soft-hitnormal02.wav
320,192,64247,1,0,0:0:0:0:
192,192,64412,1,8,0:0:0:0:
64,192,64412,1,0,0:0:0:30:soft-hitnormal02.wav
448,192,64576,1,0,0:0:0:0:
320,192,64741,1,8,0:0:0:0:
192,192,64741,1,0,0:0:0:30:soft-hitnormal02.wav
64,192,64906,1,2,0:0:0:0:
192,192,64906,1,0,0:0:0:0:
320,192,65071,1,8,0:0:0:0:
448,192,65071,1,0,0:0:0:30:soft-hitnormal02.wav
192,192,65236,1,2,0:0:0:0:
64,192,65236,1,0,0:0:0:0:
64,192,65401,1,10,0:0:0:0:
320,192,65401,1,0,0:0:0:30:soft-hitnormal02.wav
192,192,65565,1,0,0:0:0:0:
320,192,65730,1,8,0:0:0:0:
448,192,65730,1,0,0:0:0:30:soft-hitnormal02.wav
64,192,65895,1,0,0:0:0:0:
192,192,66060,1,8,0:0:0:0:
320,192,66060,1,0,0:0:0:30:soft-hitnormal02.wav
448,192,66225,1,2,0:0:0:0:
320,192,66225,1,0,0:0:0:0:
64,192,66390,1,8,0:0:0:0:
192,192,66390,1,0,0:0:0:30:soft-hitnormal02.wav
192,192,66554,1,2,0:0:0:0:
320,192,66554,1,0,0:0:0:0:
64,192,66719,1,8,0:0:0:0:
448,192,66719,1,0,0:0:0:30:soft-hitnormal02.wav
320,192,66884,1,2,0:0:0:0:
192,192,66884,1,0,0:0:0:0:
320,192,67049,1,8,0:0:0:0:
448,192,67049,1,0,0:0:0:30:soft-hitnormal02.wav
192,192,67214,1,2,0:0:0:0:
64,192,67214,1,0,0:0:0:0:
64,192,67379,1,8,0:0:0:0:
448,192,67379,1,0,0:0:0:30:soft-hitnormal02.wav
320,192,67543,1,2,0:0:0:0:
192,192,67543,1,0,0:0:0:0:
320,192,67708,1,8,0:0:0:0:
448,192,67708,1,4,0:0:0:0:
64,192,67708,1,0,0:0:0:0:
192,192,67873,1,2,0:0:0:0:
64,192,67873,1,0,0:0:0:0:
192,192,68038,1,2,0:0:0:0:
448,192,68038,128,4,68368:0:0:0:0:
64,192,68038,1,8,0:0:0:0:
64,192,68368,1,8,0:0:0:0:
320,192,68368,1,0,0:0:0:30:soft-hitnormal02.wav
192,192,68532,1,0,0:0:0:0:
448,192,68697,1,8,0:0:0:0:
320,192,68697,1,0,0:0:0:30:soft-hitnormal02.wav
192,192,68862,1,2,0:0:0:0:
448,192,68862,1,0,0:0:0:0:
64,192,69027,1,8,0:0:0:0:
320,192,69027,1,0,0:0:0:30:soft-hitnormal02.wav
192,192,69192,1,2,0:0:0:0:
64,192,69192,1,0,0:0:0:0:
448,192,69357,1,8,0:0:0:0:
320,192,69357,1,0,0:0:0:30:soft-hitnormal02.wav
192,192,69521,1,0,0:0:0:0:
64,192,69686,1,8,0:0:0:0:
448,192,69686,1,0,0:0:0:30:soft-hitnormal02.wav
320,192,69851,1,0,0:0:0:0:
192,192,70016,1,8,0:0:0:0:
64,192,70016,1,0,0:0:0:30:soft-hitnormal02.wav
192,192,70181,1,2,0:0:0:0:
320,192,70181,1,0,0:0:0:0:
448,192,70346,1,8,0:0:0:0:
64,192,70346,1,0,0:0:0:30:soft-hitnormal02.wav
320,192,70510,1,2,0:0:0:0:
448,192,70510,1,0,0:0:0:0:
192,192,70675,1,0,0:0:0:30:soft-hitnormal02.wav
320,192,70675,128,10,70840:0:0:0:0:
448,192,71005,1,8,0:0:0:0:
64,192,71005,128,0,71170:0:0:0:30:soft-hitnormal02.wav
192,192,71170,128,0,71335:0:0:0:0:
320,192,71335,1,8,0:0:0:0:
448,192,71335,1,0,0:0:0:30:soft-hitnormal02.wav
192,192,71499,1,2,0:0:0:0:
320,192,71499,128,0,71664:0:0:0:0:
64,192,71664,1,8,0:0:0:0:
448,192,71664,1,0,0:0:0:30:soft-hitnormal02.wav
192,192,71829,1,2,0:0:0:0:
64,192,71829,128,0,71994:0:0:0:0:
320,192,71994,1,8,0:0:0:0:
448,192,71994,1,0,0:0:0:30:soft-hitnormal02.wav
64,192,72159,1,2,0:0:0:0:
192,192,72159,1,0,0:0:0:0:
448,192,72324,1,8,0:0:0:0:
64,192,72324,1,0,0:0:0:30:soft-hitnormal02.wav
320,192,72488,1,2,0:0:0:0:
448,192,72488,1,0,0:0:0:0:
64,192,72653,1,2,0:0:0:0:
448,192,72653,1,4,0:0:0:0:
192,192,72653,1,0,0:0:0:0:
192,192,72818,1,8,0:0:0:0:
320,192,72818,1,0,0:0:0:0:
320,192,72983,1,8,0:0:0:0:
448,192,72983,1,0,0:0:0:0:
64,192,73148,1,8,0:0:0:0:
192,192,73148,1,0,0:0:0:0:
448,192,73313,1,4,0:0:0:0:
320,192,73313,1,2,0:0:0:0:
64,192,73313,128,0,73642:0:0:0:0:
192,192,73642,1,8,0:0:0:0:
448,192,73642,1,0,0:0:0:30:soft-hitnormal02.wav
320,192,73807,1,0,0:0:0:0:
64,192,73972,1,8,0:0:0:0:
192,192,73972,1,0,0:0:0:30:soft-hitnormal02.wav
320,192,74137,1,2,0:0:0:0:
64,192,74137,1,0,0:0:0:0:
192,192,74302,1,8,0:0:0:0:
448,192,74302,1,0,0:0:0:30:soft-hitnormal02.wav
320,192,74467,1,2,0:0:0:0:
448,192,74467,1,0,0:0:0:0:
64,192,74631,1,8,0:0:0:0:
192,192,74631,1,0,0:0:0:30:soft-hitnormal02.wav
320,192,74796,1,0,0:0:0:0:
64,192,74961,1,8,0:0:0:0:
448,192,74961,1,0,0:0:0:30:soft-hitnormal02.wav
192,192,75126,1,0,0:0:0:0:
320,192,75291,1,8,0:0:0:0:
448,192,75291,1,0,0:0:0:30:soft-hitnormal02.wav
192,192,75456,1,2,0:0:0:0:
320,192,75456,1,0,0:0:0:0:
64,192,75620,1,8,0:0:0:0:
448,192,75620,1,0,0:0:0:30:soft-hitnormal02.wav
192,192,75785,1,2,0:0:0:0:
320,192,75785,1,0,0:0:0:0:
64,192,75950,1,0,0:0:0:30:soft-hitnormal02.wav
192,192,75950,1,10,0:0:0:0:
320,192,76115,1,0,0:0:0:0:
64,192,76280,1,8,0:0:0:0:
448,192,76280,1,0,0:0:0:30:soft-hitnormal02.wav
192,192,76445,1,0,0:0:0:0:
320,192,76609,1,8,0:0:0:0:
448,192,76609,1,0,0:0:0:30:soft-hitnormal02.wav
64,192,76774,1,2,0:0:0:0:
320,192,76774,1,0,0:0:0:0:
192,192,76939,1,8,0:0:0:0:
448,192,76939,1,0,0:0:0:30:soft-hitnormal02.wav
64,192,77104,1,2,0:0:0:0:
192,192,77104,1,0,0:0:0:0:
320,192,77269,1,8,0:0:0:0:
448,192,77269,1,0,0:0:0:30:soft-hitnormal02.wav
64,192,77434,1,2,0:0:0:0:
448,192,77434,1,0,0:0:0:0:
192,192,77598,1,8,0:0:0:0:
320,192,77598,1,0,0:0:0:30:soft-hitnormal02.wav
64,192,77763,1,2,0:0:0:0:
192,192,77763,1,0,0:0:0:0:
320,192,77928,1,8,0:0:0:0:
448,192,77928,1,0,0:0:0:30:soft-hitnormal02.wav
64,192,78093,1,2,0:0:0:0:
448,192,78093,1,0,0:0:0:0:
64,192,78258,1,4,0:0:0:0:
320,192,78258,1,8,0:0:0:0:
192,192,78258,1,0,0:0:0:0:
448,192,78423,1,2,0:0:0:0:
320,192,78423,1,0,0:0:0:0:
448,192,78587,1,4,0:0:0:0:
320,192,78587,1,2,0:0:0:0:
64,192,78587,128,8,78917:0:0:0:0:
448,192,78917,1,8,0:0:0:0:
192,192,78917,1,0,0:0:0:30:soft-hitnormal02.wav
320,192,79082,1,0,0:0:0:0:
64,192,79247,1,8,0:0:0:0:
448,192,79247,1,0,0:0:0:30:soft-hitnormal02.wav
192,192,79412,1,2,0:0:0:0:
64,192,79412,1,0,0:0:0:0:
448,192,79576,1,8,0:0:0:0:
320,192,79576,1,0,0:0:0:30:soft-hitnormal02.wav
192,192,79741,1,2,0:0:0:0:
448,192,79741,1,0,0:0:0:0:
64,192,79906,1,8,0:0:0:0:
320,192,79906,1,0,0:0:0:30:soft-hitnormal02.wav
192,192,80071,1,2,0:0:0:0:
64,192,80071,1,0,0:0:0:0:
320,192,80236,1,8,0:0:0:0:
448,192,80236,1,0,0:0:0:30:soft-hitnormal02.wav
192,192,80401,1,2,0:0:0:0:
448,192,80401,1,0,0:0:0:0:
64,192,80565,1,2,0:0:0:0:
192,192,80565,1,4,0:0:0:0:
448,192,80565,1,0,0:0:0:0:
320,192,80730,1,8,0:0:0:0:
64,192,80730,1,0,0:0:0:0:
192,192,80895,1,8,0:0:0:0:
448,192,80895,1,0,0:0:0:0:
64,192,81060,1,8,0:0:0:0:
320,192,81060,1,0,0:0:0:0:
192,192,81225,1,4,0:0:0:0:
448,192,81225,1,2,0:0:0:0:
320,192,81225,1,0,0:0:0:0:
64,192,81390,1,0,0:0:0:0:
448,192,81554,1,8,0:0:0:0:
320,192,81554,1,0,0:0:0:30:soft-hitnormal02.wav
192,192,81719,1,0,0:0:0:0:
64,192,81884,1,2,0:0:0:0:
192,192,81884,1,0,0:0:0:30:soft-hitnormal02.wav
320,192,82049,1,2,0:0:0:0:
448,192,82049,1,0,0:0:0:0:
64,192,82214,1,8,0:0:0:0:
448,192,82214,1,0,0:0:0:30:soft-hitnormal02.wav
64,192,82379,128,0,82708:0:0:0:0:
192,192,82543,1,4,0:0:0:0:
320,192,82543,1,2,0:0:0:0:
192,192,82873,1,8,0:0:0:0:
448,192,82873,1,0,0:0:0:30:soft-hitnormal02.wav
320,192,83038,1,0,0:0:0:0:
64,192,83203,1,2,0:0:0:0:
192,192,83203,1,0,0:0:0:30:soft-hitnormal02.wav
448,192,83368,1,2,0:0:0:0:
64,192,83368,1,0,0:0:0:0:
192,192,83532,1,8,0:0:0:0:
320,192,83532,1,0,0:0:0:30:soft-hitnormal02.wav
448,192,83697,128,0,83862:0:0:0:0:
64,192,83862,128,4,84521:0:0:0:0:
320,192,83862,1,2,0:0:0:0:
192,192,83862,1,0,0:0:0:0:
448,192,84521,128,0,84686:0:0:0:0:
320,192,84686,128,2,84851:0:0:0:0:
64,192,84686,1,0,0:0:0:0:
192,192,84851,128,8,85016:0:0:0:0:
448,192,84851,1,0,0:0:0:0:
64,192,85016,128,0,85181:0:0:0:0:
320,192,85181,1,4,0:0:0:0:
448,192,85181,1,8,0:0:0:0:
192,192,85181,1,0,0:0:0:0:
64,192,85346,1,2,0:0:0:0:
192,192,85346,1,0,0:0:0:0:
320,192,85510,1,2,0:0:0:0:
448,192,85510,1,0,0:0:0:0:
448,192,85675,1,4,0:0:0:0:
64,192,85675,1,8,0:0:0:0:
192,192,85675,1,0,0:0:0:0:
192,192,85840,1,2,0:0:0:0:
320,192,85840,1,0,0:0:0:0:
64,192,86005,1,2,0:0:0:0:
448,192,86005,1,0,0:0:0:0:
192,192,86170,1,8,0:0:0:0:
320,192,86170,1,4,0:0:0:0:
64,192,86170,1,0,0:0:0:0:
64,192,86499,1,4,0:0:0:0:
448,192,86499,1,8,0:0:0:0:
320,192,86499,1,0,0:0:0:0:
448,192,86829,1,8,0:0:0:0:
192,192,86829,128,0,87159:0:0:0:30:soft-hitnormal02.wav
64,192,87159,1,8,0:0:0:0:
320,192,87159,128,0,87488:0:0:0:30:soft-hitnormal02.wav
192,192,87324,128,2,87488:0:0:0:0:
64,192,87488,1,8,0:0:0:0:
448,192,87488,1,0,0:0:0:30:soft-hitnormal02.wav
448,192,87653,128,2,87818:0:0:0:0:
64,192,87818,1,8,0:0:0:0:
192,192,87818,128,0,88148:0:0:0:30:soft-hitnormal02.wav
320,192,87983,128,0,88148:0:0:0:0:
448,192,88148,128,8,88477:0:0:0:0:
64,192,88148,1,0,0:0:0:30:soft-hitnormal02.wav
192,192,88313,128,0,88477:0:0:0:0:
320,192,88477,1,8,0:0:0:0:
64,192,88477,128,0,88807:0:0:0:30:soft-hitnormal02.wav
192,192,88642,1,2,0:0:0:0:
320,192,88807,1,8,0:0:0:0:
448,192,88807,128,0,89137:0:0:0:30:soft-hitnormal02.wav
64,192,88972,128,2,89137:0:0:0:0:
320,192,89137,1,0,0:0:0:30:soft-hitnormal02.wav
192,192,89137,1,10,0:0:0:0:
192,192,89467,128,8,89796:0:0:0:0:
448,192,89467,1,0,0:0:0:30:soft-hitnormal02.wav
448,192,89796,128,8,90126:0:0:0:0:
64,192,89796,1,0,0:0:0:30:soft-hitnormal02.wav
192,192,89961,1,2,0:0:0:0:
64,192,90126,128,8,90456:0:0:0:0:
320,192,90126,1,0,0:0:0:30:soft-hitnormal02.wav
448,192,90291,1,2,0:0:0:0:
192,192,90456,1,8,0:0:0:0:
320,192,90456,1,0,0:0:0:30:soft-hitnormal02.wav
192,192,90620,128,2,90785:0:0:0:0:
448,192,90785,128,8,90950:0:0:0:0:
64,192,90785,1,0,0:0:0:30:soft-hitnormal02.wav
192,192,90950,1,2,0:0:0:0:
448,192,91115,1,8,0:0:0:0:
320,192,91115,128,0,91280:0:0:0:30:soft-hitnormal02.wav
192,192,91280,1,2,0:0:0:0:
320,192,91445,128,8,91609:0:0:0:0:
64,192,91445,1,4,0:0:0:0:
448,192,91445,1,0,0:0:0:0:
192,192,91609,128,2,91774:0:0:0:0:
64,192,91774,1,2,0:0:0:0:
448,192,91774,1,4,0:0:0:0:
320,192,91774,1,8,0:0:0:0:
448,192,92104,1,8,0:0:0:0:
64,192,92104,128,0,92434:0:0:0:30:soft-hitnormal02.wav
192,192,92434,1,8,0:0:0:0:
320,192,92434,128,0,92763:0:0:0:30:soft-hitnormal02.wav
448,192,92598,128,2,92763:0:0:0:0:
64,192,92763,1,8,0:0:0:0:
192,192,92763,1,0,0:0:0:30:soft-hitnormal02.wav
64,192,92928,128,2,93093:0:0:0:0:
320,192,93093,1,8,0:0:0:0:
448,192,93093,128,0,93423:0:0:0:30:soft-hitnormal02.wav
192,192,93258,128,2,93423:0:0:0:0:
64,192,93423,128,8,93752:0:0:0:0:
320,192,93423,1,0,0:0:0:30:soft-hitnormal02.wav
192,192,93587,128,2,93752:0:0:0:0:
320,192,93752,1,2,0:0:0:0:
448,192,93752,1,4,0:0:0:0:
192,192,93917,1,8,0:0:0:0:
64,192,93917,1,0,0:0:0:0:
320,192,94082,1,8,0:0:0:0:
448,192,94082,1,0,0:0:0:0:
192,192,94247,1,8,0:0:0:0:
64,192,94247,1,0,0:0:0:0:
64,192,94412,1,2,0:0:0:0:
448,192,94412,1,4,0:0:0:0:
320,192,94412,1,0,0:0:0:0:
320,192,94576,1,0,0:0:0:0:
64,192,94741,1,8,0:0:0:0:
448,192,94741,1,0,0:0:0:30:soft-hitnormal02.wav
192,192,94906,1,0,0:0:0:0:
192,192,95071,1,2,0:0:0:0:
448,192,95071,1,0,0:0:0:30:soft-hitnormal02.wav
320,192,95236,1,2,0:0:0:0:
64,192,95236,1,0,0:0:0:0:
192,192,95401,1,8,0:0:0:0:
448,192,95401,1,0,0:0:0:30:soft-hitnormal02.wav
448,192,95565,1,0,0:0:0:0:
320,192,95730,1,4,0:0:0:0:
192,192,95730,1,2,0:0:0:0:
64,192,95895,1,0,0:0:0:0:
64,192,96060,1,8,0:0:0:0:
320,192,96060,1,0,0:0:0:30:soft-hitnormal02.wav
192,192,96390,1,2,0:0:0:0:
448,192,96390,128,0,96719:0:0:0:30:soft-hitnormal02.wav
192,192,96554,1,2,0:0:0:0:
64,192,96719,1,8,0:0:0:0:
320,192,96719,1,0,0:0:0:30:soft-hitnormal02.wav
448,192,96884,1,2,0:0:0:0:
64,192,96884,128,4,97049:0:0:0:0:
192,192,96884,128,0,97049:0:0:0:0:
320,192,97214,1,8,0:0:0:0:
64,192,97214,1,0,0:0:0:0:
192,192,97296,1,8,0:0:0:0:
320,192,97379,1,8,0:0:0:0:
448,192,97379,128,0,97708:0:0:0:0:
64,192,97543,1,0,0:0:0:70:tom02.wav
192,192,97708,1,0,0:0:0:70:tom03.wav
320,192,97708,1,0,0:0:0:0:
64,192,97873,1,4,0:0:0:0:
192,192,97873,128,2,98038:0:0:0:0:
320,192,97873,128,0,98038:0:0:0:0:
192,192,98203,1,8,0:0:0:0:
448,192,98203,1,0,0:0:0:0:
320,192,98285,1,8,0:0:0:0:
64,192,98368,128,8,98697:0:0:0:0:
192,192,98368,1,0,0:0:0:0:
448,192,98532,1,0,0:0:0:70:tom02.wav
320,192,98697,1,0,0:0:0:70:tom03.wav
192,192,98697,1,0,0:0:0:0:
448,192,98862,1,4,0:0:0:0:
320,192,98862,1,2,0:0:0:0:
192,192,98862,128,0,99521:0:0:0:0:
320,192,99192,1,2,0:0:0:0:
64,192,99357,1,8,0:0:0:0:
448,192,99357,1,0,0:0:0:30:soft-hitnormal02.wav
320,192,99521,1,0,0:0:0:0:
192,192,99686,1,2,0:0:0:0:
64,192,99686,1,0,0:0:0:30:soft-hitnormal02.wav
448,192,99851,1,2,0:0:0:0:
320,192,99851,128,0,100016:0:0:0:0:
64,192,100016,1,8,0:0:0:0:
448,192,100016,1,0,0:0:0:30:soft-hitnormal02.wav
64,192,100181,128,0,100346:0:0:0:0:
320,192,100346,1,2,0:0:0:0:
192,192,100346,1,4,0:0:0:0:
448,192,100346,128,0,101005:0:0:0:0:
64,192,100675,1,8,0:0:0:0:
320,192,100675,1,0,0:0:0:30:soft-hitnormal02.wav
64,192,101005,128,2,101335:0:0:0:0:
192,192,101005,1,0,0:0:0:30:soft-hitnormal02.wav
192,192,101170,1,2,0:0:0:0:
320,192,101335,1,8,0:0:0:0:
448,192,101335,1,0,0:0:0:30:soft-hitnormal02.wav
64,192,101499,1,2,0:0:0:0:
448,192,101499,1,4,0:0:0:0:
192,192,101499,128,0,102324:0:0:0:0:
320,192,101994,1,0,0:0:0:30:soft-hitnormal02.wav
320,192,102324,1,0,0:0:0:30:soft-hitnormal02.wav
64,192,102488,1,0,0:0:0:0:
192,192,102571,1,0,0:0:0:0:
448,192,102653,1,0,0:0:0:30:soft-hitnormal02.wav
320,192,102736,1,0,0:0:0:0:
192,192,102818,1,0,0:0:0:0:
64,192,102901,1,0,0:0:0:0:
448,192,102983,128,2,103642:0:0:0:0:
320,192,102983,128,4,103313:0:0:0:0:
192,192,102983,1,0,0:0:0:0:
