osu file format v14

[General]
AudioFilename: audio.mp3
AudioLeadIn: 0
PreviewTime: 61733
Countdown: 0
SampleSet: Soft
StackLeniency: 0.8
Mode: 0
LetterboxInBreaks: 0
WidescreenStoryboard: 1

[Editor]
Bookmarks: 12653,17928,28477,39027,49576,62763,73313,86499,102983
DistanceSpacing: 1
BeatDivisor: 4
GridSize: 32
TimelineZoom: 1

[Metadata]
Title:Q&A Recital!
TitleUnicode:Q&Aリサイタル!
Artist:Pastel*Palettes
ArtistUnicode:Pastel*Palettes
Creator:-Mikan
Version:iljaaz's Insane
Source:バンドリ!ガールズバンドパーティ!
Tags:Daycore Underdogs Hantrik Garden Taeyang iljaaz Shizuku- Anime Japanese となりの怪物くん My little Monster Tonari no Kaibutsu-kun 戸松遥 Haruka Tomatsu Video Game cover BanG Dream! Girls Band Party! Garupa Bandori! ガルパ! PasuPare パスパレ Paspale パステルパレット ぱすてるぱれっと 丸山彩 Maruyama Aya 大和麻弥 Yamato Maya 若宮イヴ Wakamiya Eve 白鷺千聖 Shirasagi Chisato 氷川日菜 Hikawa Hina 前島亜美 Maeshima Ami 中上育美 Nakagami Ikumi 秦佐和子 Hata Sawako 上坂すみれ Uesaka Sumire 小澤亜李 Ozawa Ari
BeatmapID:2156833
BeatmapSetID:1003383

[Difficulty]
HPDrainRate:4.2
CircleSize:3.6
OverallDifficulty:8
ApproachRate:8.7
SliderMultiplier:1.74
SliderTickRate:1

[Events]
//Background and Video events
0,0,"8cf0df45aca962356e31aed1f336582cc5013be3_s2_n2.jpg",0,0
Video,1015,"Mikan.avi"
//Break Periods
2,18128,24451
//Storyboard Layer 0 (Background)
//Storyboard Layer 1 (Fail)
//Storyboard Layer 2 (Pass)
//Storyboard Layer 3 (Foreground)
//Storyboard Layer 4 (Overlay)
//Storyboard Sound Samples

[TimingPoints]
-533,329.67032967033,4,2,1,70,1,0
126,-100,4,2,1,10,0,0
291,-100,4,2,1,30,0,0
456,-100,4,2,1,45,0,0
620,-100,4,2,1,60,0,0
785,-100,4,2,1,75,0,0
950,-100,4,2,1,90,0,0
1115,-100,4,2,1,5,0,0
1774,-69.4444444444444,4,2,1,80,0,0
1857,-69.4444444444444,4,2,1,5,0,0
2104,-96.1538461538461,4,2,1,100,0,0
2434,-96.1538461538461,4,2,1,90,0,0
7049,-96.1538461538461,4,2,2,90,0,0
7379,-96.1538461538461,4,2,1,100,0,0
7873,-96.1538461538461,4,2,1,90,0,0
11994,-96.1538461538461,4,2,2,90,0,0
12159,-96.1538461538461,4,2,1,90,0,0
12653,-119.047619047619,4,2,1,70,0,0
15291,-87.719298245614,4,2,1,100,0,0
17928,-119.047619047619,4,2,1,50,0,0
25346,-119.047619047619,4,2,1,60,0,0
25840,-119.047619047619,4,2,1,80,0,0
26994,-119.047619047619,4,2,2,80,0,0
27324,-119.047619047619,4,2,1,80,0,0
28477,-106.382978723404,4,2,1,65,0,0
36390,-106.382978723404,4,2,1,80,0,0
37543,-106.382978723404,4,2,2,80,0,0
37873,-106.382978723404,4,2,1,80,0,0
39357,-106.382978723404,4,2,1,70,0,0
40181,-106.382978723404,4,2,2,70,0,0
40510,-106.382978723404,4,2,1,70,0,0
44631,-106.382978723404,4,2,2,70,0,0
44961,-106.382978723404,4,2,1,70,0,0
46774,-106.382978723404,4,2,2,70,0,0
47104,-106.382978723404,4,2,1,70,0,0
52214,-106.382978723404,4,2,2,70,0,0
52543,-106.382978723404,4,2,1,70,0,0
53203,-106.382978723404,4,2,2,70,0,0
53532,-106.382978723404,4,2,1,70,0,0
60126,-106.382978723404,4,2,1,90,0,0
60456,-106.382978723404,4,2,1,60,0,0
60785,-106.382978723404,4,2,1,90,0,0
61115,-106.382978723404,4,2,1,60,0,0
61445,-106.382978723404,4,2,1,90,0,0
62516,-106.382978723404,4,2,1,5,0,0
62763,-80.6451612903226,4,2,1,100,0,0
63093,-80.6451612903226,4,2,1,90,0,0
67708,-80.6451612903226,4,2,2,90,0,0
68038,-80.6451612903226,4,2,1,100,0,0
68368,-80.6451612903226,4,2,1,90,0,0
72653,-80.6451612903226,4,2,2,90,0,0
73313,-80.6451612903226,4,2,1,100,0,0
73642,-80.6451612903226,4,2,1,90,0,0
78258,-80.6451612903226,4,2,2,90,0,0
78587,-80.6451612903226,4,2,1,100,0,0
78917,-80.6451612903226,4,2,1,90,0,0
80565,-80.6451612903226,4,2,2,90,0,0
80730,-80.6451612903226,4,2,1,90,0,0
83862,-80.6451612903226,4,2,2,70,0,0
84439,-80.6451612903226,4,2,2,5,0,0
84521,-80.6451612903226,4,2,1,80,0,0
85181,-80.6451612903226,4,2,1,100,0,0
86417,-80.6451612903226,4,2,1,5,0,0
86499,-80.6451612903226,4,2,1,80,0,0
95730,-80.6451612903226,4,2,2,80,0,0
95895,-80.6451612903226,4,2,1,80,0,0
96884,-80.6451612903226,4,2,2,80,0,0
97214,-80.6451612903226,4,2,1,80,0,0
98862,-80.6451612903226,4,2,2,80,0,0
99192,-80.6451612903226,4,2,1,70,0,0
101499,-80.6451612903226,4,2,1,80,0,0
102324,-80.6451612903226,4,2,1,10,0,0
102488,-80.6451612903226,4,2,1,40,0,0
102571,-80.6451612903226,4,2,1,50,0,0
102653,-80.6451612903226,4,2,1,60,0,0
102736,-80.6451612903226,4,2,1,70,0,0
102818,-80.6451612903226,4,2,1,80,0,0
102901,-80.6451612903226,4,2,1,90,0,0
102983,-80.6451612903226,4,2,1,100,0,0
103477,-80.6451612903226,4,2,1,5,0,0

[Colours]
Combo1 : 189,189,223
Combo2 : 255,168,211
Combo3 : 174,255,174
Combo4 : 255,255,191
Combo5 : 176,255,255

[HitObjects]
365,295,1774,6,0,L|428:300,1,62.6400015292969,8|0,3:2|0:0,0:0:0:0:
426,306,2104,6,0,B|352:292|344:371|259:370,1,180.959998895508,4|10,3:2|0:0,0:0:0:0:
203,320,2598,1,0,0:0:0:0:
271,154,2763,2,0,P|334:148|414:230,1,180.959998895508,10|10,0:0|0:0,0:0:0:0:
326,237,3258,1,0,3:0:0:0:
365,129,3423,6,0,P|412:120|466:103,1,90.4799994477539,10|0,0:0|0:0,0:0:0:0:
234,232,3752,2,0,P|190:219|146:210,1,90.4799994477539,10|0,0:0|0:0,0:0:0:0:
86,261,4082,1,10,0:0:0:0:
1,91,4247,2,0,B|102:76|78:134|192:124,1,180.959998895508,0|0,3:0|3:0,0:0:0:0:
232,70,4741,5,10,0:0:0:0:
112,0,4906,2,0,P|103:46|57:193,1,180.959998895508,0|0,0:0|0:0,0:0:0:0:
180,288,5401,1,10,0:0:0:0:
146,210,5565,1,0,3:0:0:0:
31,312,5730,1,10,0:0:0:0:
101,280,5895,6,0,B|200:275|159:343|282:364,1,180.959998895508,0|0,3:0|3:0,0:0:0:0:
389,239,6390,2,0,B|372:285|372:285|390:350,1,90.4799994477539,10|0,0:0|3:0,0:0:0:0:
230,222,6719,2,0,P|274:214|325:197,1,90.4799994477539,10|0,0:0|3:0,0:0:0:0:
462,293,7049,1,12,0:0:0:0:
462,293,7214,1,0,3:0:0:0:
493,59,7379,6,0,P|411:29|342:82,1,180.959998895508,12|10,0:0|0:0,0:0:0:0:
313,156,7873,1,0,0:0:0:0:
166,91,8038,2,0,P|201:64|246:59,1,90.4799994477539,10|0,0:0|3:0,0:0:0:0:
325,174,8368,1,10,0:0:0:0:
207,258,8532,6,0,P|220:212|232:147,1,90.4799994477539,0|10,3:0|0:0,0:0:0:0:
181,108,8862,1,0,0:0:0:0:
36,245,9027,1,10,0:0:0:0:
123,209,9192,1,0,0:0:0:0:
55,74,9357,6,0,B|67:117|67:117|52:160,1,90.4799994477539,10|0,0:0|3:0,0:0:0:0:
184,350,9686,2,0,P|223:334|280:324,1,90.4799994477539,10|0,0:0|0:0,0:0:0:0:
497,241,10016,6,0,P|436:178|351:197,2,180.959998895508,10|10|10,0:0|0:0|0:0,0:0:0:0:
449,302,10840,1,0,3:0:0:0:
257,221,11005,2,0,P|272:173|282:120,1,90.4799994477539,10|0,0:0|3:0,0:0:0:0:
443,151,11335,6,0,P|429:107|419:63,1,90.4799994477539,10|0,0:0|3:0,0:0:0:0:
351,23,11664,1,10,0:0:0:0:
270,116,11829,1,0,3:0:0:0:
348,101,11994,1,4,3:2:0:0:
231,45,12159,1,8,0:0:0:0:
153,174,12324,1,8,0:0:0:0:
158,187,12406,1,8,0:0:0:0:
162,200,12488,1,8,0:0:0:0:
166,214,12571,1,8,0:0:0:0:
158,242,12653,6,0,B|86:238|99:299|5:286,1,146.159995539551,4|2,3:2|0:0,0:0:0:0:
23,287,13642,1,2,0:0:0:0:
311,364,13972,6,0,P|320:297|338:215,1,146.159995539551,0|2,0:0|0:0,0:0:0:0:
133,26,14631,2,0,P|142:93|160:175,1,146.159995539551,0|2,0:0|0:0,0:0:0:0:
469,130,15291,6,0,P|430:102|352:105,1,99.1799987893067,12|0,0:1|3:0,0:0:0:0:
329,156,15620,1,0,3:0:0:0:
416,290,15785,2,0,P|404:241|398:186,1,99.1799987893067,12|0,0:1|3:0,0:0:0:0:
264,89,16115,1,0,3:0:0:0:
149,208,16280,2,0,P|190:237|253:237,1,99.1799987893067,12|0,0:1|3:0,0:0:0:0:
297,188,16609,5,0,3:0:0:0:
186,16,16774,2,0,P|171:68|147:134,1,99.1799987893067,12|0,0:1|3:0,0:0:0:0:
190,182,17104,1,0,3:0:0:0:
69,329,17269,1,8,0:0:0:0:
43,208,17434,5,8,0:0:0:0:
43,208,17598,2,0,L|101:228,1,49.5899993946533,8|0,0:0|0:0,0:0:0:0:
227,347,17763,2,0,L|285:327,1,49.5899993946533,8|0,0:0|0:0,0:0:0:0:
345,285,17928,5,0,3:0:0:0:
89,69,25346,6,0,L|25:70,1,36.5399988848877,0|0,0:0|0:0,0:0:0:0:
52,74,25510,2,0,L|177:90,1,109.619996654663,2|0,0:0|0:0,0:0:0:0:
161,88,25840,5,8,0:0:0:0:
262,223,26005,2,0,P|249:146|265:56,1,146.159995539551,8|0,0:0|0:0,0:0:0:0:
262,223,26499,5,8,0:0:0:0:
201,298,26664,2,0,P|164:292|101:288,1,73.0799977697755,8|0,0:0|3:0,0:0:0:0:
280,360,26994,6,0,P|354:357|452:348,1,146.159995539551,4|8,3:2|3:2,0:0:0:0:
486,268,27488,1,8,0:0:0:0:
512,340,27653,1,0,3:0:0:0:
407,137,27818,6,0,P|408:191|406:246,1,109.619996654663,0|0,3:0|0:0,0:0:0:0:
398,278,28148,6,0,L|359:289,1,36.5399988848877,8|8,0:0|0:0,0:0:0:0:
329,264,28313,2,0,L|290:253,1,36.5399988848877,8|8,0:0|0:0,0:0:0:0:
228,300,28477,6,0,B|147:296|155:334|51:325,1,163.559997504273,4|8,3:2|0:0,0:0:0:0:
17,265,28972,1,0,0:0:0:0:
107,137,29137,2,0,P|106:181|113:236,2,81.7799987521363,2|0|8,3:1|3:0|0:0,0:0:0:0:
169,80,29631,1,0,0:0:0:0:
169,80,29796,6,0,P|233:81|283:164,1,163.559997504273,0|8,0:0|0:0,0:0:0:0:
475,30,30456,6,0,P|470:73|469:127,1,81.7799987521363,2|0,3:1|3:0,0:0:0:0:
353,216,30785,1,8,0:0:0:0:
366,293,30950,1,0,3:0:0:0:
512,249,31115,6,0,P|471:248|428:243,1,81.7799987521363,2|0,3:1|0:0,0:0:0:0:
291,338,31445,2,0,P|211:327|106:331,1,163.559997504273,8|2,0:0|3:1,0:0:0:0:
184,247,31939,1,0,3:0:0:0:
108,139,32104,6,0,P|49:143|1:235,1,163.559997504273,8|2,0:0|3:1,0:0:0:0:
73,247,32598,1,0,0:0:0:0:
202,155,32763,2,0,P|206:94|220:5,1,122.669998128204,8|0,0:0|0:0,0:0:0:0:
214,33,33093,1,2,3:1:0:0:
133,61,33258,1,0,3:0:0:0:
281,199,33423,5,8,0:0:0:0:
364,175,33587,1,8,0:0:0:0:
312,29,33752,6,0,P|307:76|306:129,1,81.7799987521363,4|0,3:2|0:0,0:0:0:0:
347,253,34082,1,8,0:0:0:0:
506,94,34247,2,0,P|453:95|400:183,1,163.559997504273,0|0,0:0|3:0,0:0:0:0:
425,302,34741,2,0,P|467:304|516:312,1,81.7799987521363,8|0,0:0|0:0,0:0:0:0:
347,253,35071,6,0,P|306:259|265:260,1,81.7799987521363,2|0,3:1|0:0,0:0:0:0:
220,323,35401,1,8,0:0:0:0:
56,233,35565,2,0,P|79:158|155:141,1,163.559997504273,0|0,0:0|3:0,0:0:0:0:
275,179,36060,2,0,P|268:220|265:275,1,81.7799987521363,8|0,0:0|3:0,0:0:0:0:
155,141,36390,5,12,0:1:0:0:
252,23,36554,2,0,B|164:18|182:49|81:42,1,163.559997504273,8|0,0:1|0:0,0:0:0:0:
234,102,37049,5,12,0:1:0:0:
365,61,37214,2,0,P|410:59|454:140,1,122.669998128204,8|0,0:1|0:0,0:0:0:0:
459,118,37543,6,0,P|454:183|454:260,1,122.669998128204,4|0,3:2|0:0,0:0:0:0:
453,240,37873,1,0,3:0:0:0:
416,319,38038,2,0,P|377:313|318:310,1,81.7799987521363,8|4,0:0|3:0,0:0:0:0:
210,368,38368,2,0,B|221:326|221:326|209:275,1,81.7799987521363,2|8,3:0|0:0,0:0:0:0:
128,212,38697,1,8,0:0:0:0:
109,214,38780,1,8,0:0:0:0:
91,216,38862,1,8,0:0:0:0:
73,219,38945,1,8,0:0:0:0:
53,223,39027,6,0,B|131:231|129:272|226:281,2,163.559997504273,4|10|2,3:2|0:0|3:2,0:0:0:0:
0,283,39851,1,0,3:0:0:0:
136,209,40016,1,10,0:0:0:0:
59,59,40181,6,0,P|57:142|52:232,1,163.559997504273,4|0,3:2|3:0,0:0:0:0:
138,117,40675,2,0,P|177:115|220:115,1,81.7799987521363,10|0,0:0|0:0,0:0:0:0:
295,170,41005,1,2,3:2:0:0:
295,170,41170,1,0,3:0:0:0:
422,58,41335,1,10,0:0:0:0:
343,251,41499,6,0,P|340:173|343:85,1,163.559997504273,4|0,3:2|3:0,0:0:0:0:
499,18,41994,2,0,P|503:60|501:108,1,81.7799987521363,8|8,0:0|0:3,0:0:0:0:
490,123,42241,1,4,0:3:0:0:
491,122,42324,1,2,0:3:0:0:
421,81,42488,1,2,0:3:0:0:
294,233,42653,1,8,0:0:0:0:
387,173,42818,6,0,P|436:181|478:285,1,163.559997504273,4|0,3:2|3:0,0:0:0:0:
344,366,43313,2,0,P|347:324|347:279,1,81.7799987521363,8|8,0:0|0:3,0:0:0:0:
368,276,43560,1,4,0:3:0:0:
368,276,43642,1,2,0:3:0:0:
292,219,43807,1,2,0:3:0:0:
158,339,43972,1,8,0:0:0:0:
245,314,44137,1,8,0:0:0:0:
245,314,44219,1,8,0:0:0:0:
245,314,44302,6,0,P|242:233|245:127,2,163.559997504273,0|12|2,3:0|0:0|3:2,0:0:0:0:
177,358,45126,1,0,3:0:0:0:
36,263,45291,1,10,0:0:0:0:
109,209,45456,6,0,B|122:269|122:269|94:351,1,122.669998128204,4|0,3:2|0:0,0:0:0:0:
102,326,45785,1,0,3:0:0:0:
0,121,45950,2,0,P|44:123|86:123,1,81.7799987521363,10|0,0:0|0:0,0:0:0:0:
192,228,46280,1,2,3:2:0:0:
109,209,46445,1,0,3:0:0:0:
185,78,46609,1,10,0:0:0:0:
267,165,46774,6,0,P|329:152|344:82,1,122.669998128204,4|0,3:2|0:0,0:0:0:0:
348,101,47104,1,0,3:0:0:0:
459,35,47269,2,0,P|454:78|453:132,1,81.7799987521363,8|8,0:0|0:3,0:0:0:0:
468,137,47516,1,4,0:3:0:0:
468,137,47598,1,2,0:3:0:0:
498,211,47763,1,2,0:3:0:0:
345,333,47928,1,8,0:0:0:0:
385,262,48093,6,0,B|457:255|438:320|531:346,1,163.559997504273,4|0,3:2|3:0,0:0:0:0:
345,333,48587,2,0,P|304:336|260:342,1,81.7799987521363,8|8,0:0|0:3,0:0:0:0:
248,363,48835,1,4,0:3:0:0:
248,363,48917,1,2,0:3:0:0:
170,378,49082,1,2,0:3:0:0:
73,252,49247,1,8,0:0:0:0:
98,261,49329,1,0,0:0:0:0:
120,271,49412,1,8,0:0:0:0:
142,281,49494,1,8,0:0:0:0:
162,290,49576,6,0,P|159:211|169:107,1,163.559997504273,4|10,3:2|0:0,0:0:0:0:
255,60,50071,2,0,P|297:57|346:59,1,81.7799987521363,0|2,0:0|3:2,0:0:0:0:
404,113,50401,1,0,3:0:0:0:
330,226,50565,2,0,P|327:186|327:137,1,81.7799987521363,10|0,0:0|0:0,0:0:0:0:
264,279,50895,6,0,B|187:267|194:306|89:294,2,163.559997504273,2|10|2,3:2|0:0|3:2,0:0:0:0:
234,353,51719,1,0,3:0:0:0:
144,177,51884,2,0,P|144:218|143:269,1,81.7799987521363,10|0,0:0|0:0,0:0:0:0:
28,349,52214,6,0,B|4:293|4:293|28:236,1,122.669998128204,4|0,3:2|0:0,0:0:0:0:
28,236,52543,1,8,0:0:0:0:
209,133,52708,2,0,P|147:129|61:119,1,122.669998128204,4|0,3:2|0:0,0:0:0:0:
86,122,53038,1,8,0:0:0:0:
251,236,53203,6,0,P|322:236|386:333,1,163.559997504273,4|2,3:2|0:3,0:0:0:0:
334,358,53697,1,4,0:3:0:0:
498,291,53862,1,8,0:0:0:0:
437,225,54027,1,8,0:0:0:0:
437,225,54109,1,8,0:0:0:0:
437,225,54192,1,8,0:0:0:0:
493,168,54357,1,0,3:0:0:0:
425,76,54521,1,8,0:0:0:0:
492,34,54686,1,0,3:0:0:0:
492,34,54769,1,0,3:0:0:0:
492,34,54851,1,4,3:2:0:0:
283,234,55181,6,0,L|190:226,1,81.7799987521363,10|0,0:0|0:0,0:0:0:0:
146,172,55510,1,2,3:2:0:0:
146,172,55675,1,0,3:0:0:0:
34,288,55840,1,10,0:0:0:0:
34,288,56005,1,0,0:0:0:0:
106,248,56170,6,0,P|110:169|107:72,1,163.559997504273,2|10,3:2|0:0,0:0:0:0:
50,37,56664,1,0,0:0:0:0:
119,8,56829,2,0,P|164:9|208:8,1,81.7799987521363,2|0,3:2|3:0,0:0:0:0:
265,59,57159,1,10,0:0:0:0:
399,23,57324,1,0,0:0:0:0:
315,0,57488,6,0,P|308:85|316:170,1,163.559997504273,2|10,3:2|0:0,0:0:0:0:
256,212,57983,1,0,0:0:0:0:
314,162,58148,2,0,P|321:77|313:-8,1,163.559997504273,2|10,3:2|0:0,0:0:0:0:
424,90,58642,6,0,P|421:132|421:178,1,81.7799987521363,0|2,3:0|0:0,0:0:0:0:
259,293,58972,2,0,P|256:251|256:205,1,81.7799987521363,0|10,3:0|0:0,0:0:0:0:
415,334,59302,1,0,0:0:0:0:
415,334,59467,2,0,L|331:327,1,81.7799987521363,2|0,3:2|3:2,0:0:0:0:
177,262,59796,2,0,L|44:278,1,122.669998128204,10|0,0:0|0:0,0:0:0:0:
45,258,60126,5,8,0:0:0:0:
167,244,60291,1,8,0:0:0:0:
35,244,60785,5,8,0:0:0:0:
157,230,60950,1,8,0:0:0:0:
146,219,61445,5,12,0:2:0:0:
24,233,61610,1,8,0:0:0:0:
410,73,62434,6,0,L|397:25,1,40.8899993760681,8|0,0:0|0:0,0:0:0:0:
404,32,62763,6,0,B|386:149|455:115|415:258,1,215.759991440186,4|10,3:2|0:0,0:0:0:0:
367,303,63258,1,0,0:0:0:0:
306,183,63423,5,10,0:0:0:0:
379,150,63587,1,0,3:0:0:0:
272,271,63752,2,0,P|282:324|290:386,1,107.879995720093,10|0,0:0|3:0,0:0:0:0:
198,200,64082,5,10,0:0:0:0:
123,172,64247,1,0,0:0:0:0:
38,300,64412,2,0,P|78:270|145:255,1,107.879995720093,10|0,0:0|0:0,0:0:0:0:
305,93,64741,2,0,P|265:63|198:48,1,107.879995720093,10|0,0:0|3:0,0:0:0:0:
25,88,65071,6,0,P|36:140|41:216,1,107.879995720093,10|0,0:0|3:0,0:0:0:0:
188,347,65401,2,0,P|193:238|226:124,1,215.759991440186,4|10,3:2|0:0,0:0:0:0:
305,93,65895,1,0,0:0:0:0:
452,167,66060,6,0,P|397:166|330:173,1,107.879995720093,10|0,0:0|3:0,0:0:0:0:
209,48,66390,1,10,0:0:0:0:
6,155,66554,2,0,P|97:140|242:136,1,215.759991440186,0|0,3:0|3:0,0:0:0:0:
346,307,67049,6,0,P|339:255|338:179,1,107.879995720093,10|0,0:0|3:0,0:0:0:0:
178,237,67379,2,0,P|185:292|188:362,1,107.879995720093,10|0,0:0|3:0,0:0:0:0:
276,379,67708,1,12,0:0:0:0:
276,379,67873,1,0,3:0:0:0:
446,337,68038,6,0,P|447:259|323:203,1,215.759991440186,4|10,3:2|0:0,0:0:0:0:
285,138,68532,1,0,0:0:0:0:
438,52,68697,2,0,P|389:64|330:67,1,107.879995720093,10|0,0:0|3:0,0:0:0:0:
212,178,69027,2,0,P|155:168|85:167,1,107.879995720093,10|0,0:0|3:0,0:0:0:0:
25,114,69357,5,10,0:0:0:0:
124,75,69521,1,0,0:0:0:0:
182,194,69686,5,10,0:0:0:0:
63,243,69851,1,0,0:0:0:0:
33,323,70016,6,0,P|87:331|144:347,1,107.879995720093,10|0,0:0|3:0,0:0:0:0:
279,276,70346,1,10,0:0:0:0:
354,298,70510,1,0,3:0:0:0:
482,229,70675,6,0,P|424:245|392:390,1,215.759991440186,4|10,3:2|0:0,0:0:0:0:
314,164,71170,2,0,P|390:247|507:199,1,215.759991440186,0|0,0:0|3:0,0:0:0:0:
260,343,71664,2,0,P|261:285|224:231,1,107.879995720093,10|0,0:0|3:0,0:0:0:0:
103,130,71994,6,0,P|153:128|228:114,1,107.879995720093,10|0,0:0|3:0,0:0:0:0:
402,58,72324,2,0,P|349:53|273:35,1,107.879995720093,10|0,0:0|3:0,0:0:0:0:
314,164,72653,5,12,0:0:0:0:
342,239,72818,1,8,0:0:0:0:
260,343,72983,1,8,0:0:0:0:
230,244,73148,1,8,0:0:0:0:
361,341,73313,6,0,P|256:326|122:318,1,215.759991440186,4|10,3:2|0:0,0:0:0:0:
17,200,73807,1,0,0:0:0:0:
107,151,73972,2,0,P|97:200|93:268,1,107.879995720093,10|0,0:0|3:0,0:0:0:0:
190,118,74302,2,0,P|181:56|172:-3,1,107.879995720093,10|0,0:0|3:0,0:0:0:0:
19,93,74631,5,10,0:0:0:0:
107,151,74796,1,0,0:0:0:0:
190,118,74961,5,10,0:0:0:0:
282,167,75126,1,0,0:0:0:0:
366,135,75291,5,10,0:0:0:0:
477,261,75456,2,0,P|465:173|469:32,1,215.759991440186,0|0,3:0|3:0,0:0:0:0:
343,0,75950,6,0,P|350:51|347:126,1,107.879995720093,4|0,3:2|0:0,0:0:0:0:
185,213,76280,2,0,P|228:185|305:163,1,107.879995720093,10|0,0:0|0:0,0:0:0:0:
453,263,76609,2,0,P|407:233|360:181,2,107.879995720093,10|0|10,0:0|3:0|0:0,0:0:0:0:
504,325,77104,1,0,3:0:0:0:
315,367,77269,6,0,B|266:346|266:346|199:359,1,107.879995720093,10|0,0:0|3:0,0:0:0:0:
37,267,77598,2,0,B|83:241|83:241|152:251,1,107.879995720093,10|0,0:0|3:0,0:0:0:0:
281,166,77928,2,0,B|234:140|234:140|181:151,1,107.879995720093,10|0,0:0|0:0,0:0:0:0:
51,107,78258,2,0,P|59:52|62:-13,1,107.879995720093,12|0,0:0|3:0,0:0:0:0:
180,151,78587,6,0,B|295:188|266:33|399:93,1,215.759991440186,4|10,3:2|0:0,0:0:0:0:
433,38,79082,1,0,0:0:0:0:
507,139,79247,2,0,P|501:248|504:358,1,215.759991440186,10|10,0:0|0:0,0:0:0:0:
400,233,79741,1,0,3:0:0:0:
326,384,79906,6,0,B|345:334|345:334|322:278,1,107.879995720093,10|0,0:0|3:0,0:0:0:0:
213,201,80236,2,0,P|268:196|355:185,1,107.879995720093,10|0,0:0|3:0,0:0:0:0:
191,306,80565,1,4,3:2:0:0:
121,264,80730,1,8,0:0:0:0:
121,264,80813,1,8,0:0:0:0:
121,264,80895,1,8,0:0:0:0:
61,322,81060,1,8,0:0:0:0:
0,226,81225,6,0,P|7:123|8:10,1,215.759991440186,0|10,3:0|0:0,0:0:0:0:
107,115,81719,1,0,0:0:0:0:
31,85,81884,5,0,3:0:0:0:
162,0,82049,2,0,P|218:11|283:19,1,107.879995720093,0|10,3:0|0:0,0:0:0:0:
414,118,82379,1,0,0:0:0:0:
448,48,82543,6,0,P|373:39|305:164,1,215.759991440186,4|10,3:2|0:0,0:0:0:0:
353,201,83038,1,0,0:0:0:0:
442,304,83203,2,0,P|389:294|293:287,1,107.879995720093,0|0,3:0|3:0,0:0:0:0:
213,222,83532,1,10,0:0:0:0:
115,333,83697,1,0,0:0:0:0:
115,333,83862,6,0,P|122:231|116:99,1,215.759991440186,4|0,3:2|0:0,0:0:0:0:
117,117,84521,5,0,0:0:0:0:
242,55,84686,1,0,3:0:0:0:
94,2,84851,1,12,0:0:0:0:
257,176,85181,6,0,P|258:120|264:53,1,107.879995720093,12|0,0:1|3:0,0:0:0:0:
243,188,85510,1,0,3:0:0:0:
409,90,85675,6,0,P|411:203|424:327,1,215.759991440186,12|0,0:1|3:0,0:0:0:0:
382,104,86170,2,0,P|383:48|401:-25,1,107.879995720093,12|0,0:1|0:0,0:0:0:0:
505,182,86499,5,12,0:0:0:0:
505,182,86829,6,0,P|452:182|394:207,1,107.879995720093,10|0,0:0|0:0,0:0:0:0:
276,301,87159,1,10,0:0:0:0:
324,384,87324,2,0,P|314:283|321:148,1,215.759991440186,0|0,3:0|3:0,0:0:0:0:
209,10,87818,6,0,P|210:65|206:148,1,107.879995720093,10|0,0:0|0:0,0:0:0:0:
54,227,88148,2,0,P|97:202|152:180,1,107.879995720093,10|0,0:0|0:0,0:0:0:0:
296,290,88477,2,0,P|261:243|235:185,1,107.879995720093,10|0,0:0|3:0,0:0:0:0:
141,384,88807,5,10,0:0:0:0:
141,384,88972,1,0,3:0:0:0:
64,311,89137,6,0,P|149:284|246:368,2,215.759991440186,10|10|10,0:0|0:0|0:0,0:0:0:0:
0,258,89961,1,0,3:0:0:0:
133,144,90126,2,0,P|137:201|133:262,1,107.879995720093,10|0,0:0|3:0,0:0:0:0:
32,114,90456,6,0,B|141:143|129:19|265:65,1,215.759991440186,10|10,0:0|0:0,0:0:0:0:
296,16,90950,1,0,3:0:0:0:
413,170,91115,2,0,B|392:119|392:119|421:38,1,107.879995720093,10|0,0:0|3:0,0:0:0:0:
240,228,91445,6,0,P|335:234|396:335,1,215.759991440186,10|10,0:0|0:0,0:0:0:0:
396,329,92104,1,12,0:0:0:0:
143,199,92434,5,10,0:0:0:0:
215,137,92598,1,0,3:0:0:0:
240,228,92763,1,10,0:0:0:0:
168,289,92928,1,0,3:0:0:0:
79,372,93093,6,0,P|77:318|70:256,1,107.879995720093,10|0,0:0|3:0,0:0:0:0:
219,29,93423,2,0,P|214:82|214:136,1,107.879995720093,10|0,0:0|3:0,0:0:0:0:
24,151,93752,6,0,P|99:81|200:118,1,215.759991440186,12|10,0:0|0:0,0:0:0:0:
311,84,94247,1,8,0:0:0:0:
440,177,94412,6,0,P|434:233|435:300,1,107.879995720093,4|0,3:2|3:0,0:0:0:0:
290,384,94741,2,0,P|289:289|273:149,1,215.759991440186,10|0,0:0|3:2,0:0:0:0:
437,67,95236,1,0,3:0:0:0:
512,138,95401,2,0,P|461:156|399:165,1,107.879995720093,10|0,0:0|0:0,0:0:0:0:
234,30,95730,5,4,3:2:0:0:
313,15,95895,1,0,0:0:0:0:
330,93,96060,1,10,0:0:0:0:
252,109,96225,1,0,0:0:0:0:
269,0,96390,5,0,3:0:0:0:
353,56,96554,1,0,3:0:0:0:
297,136,96719,1,10,0:0:0:0:
209,79,96884,1,4,3:2:0:0:
77,172,97214,5,8,0:0:0:0:
77,172,97296,1,8,0:0:0:0:
77,172,97379,1,8,0:0:0:0:
151,137,97543,1,8,0:3:0:0:
239,228,97708,1,4,0:3:0:0:
154,334,97873,1,4,3:2:0:0:
84,285,98203,5,8,0:0:0:0:
84,285,98285,1,8,0:0:0:0:
84,285,98368,1,8,0:0:0:0:
206,240,98532,1,4,0:3:0:0:
282,362,98697,1,2,0:3:0:0:
128,213,98862,6,0,P|145:117|159:-20,1,215.759991440186,4|0,3:2|3:0,0:0:0:0:
324,32,99357,2,0,P|324:86|337:153,1,107.879995720093,10|0,0:0|0:0,0:0:0:0:
300,206,99686,1,0,3:0:0:0:
462,273,99851,1,0,3:0:0:0:
413,193,100016,1,10,0:0:0:0:
287,308,100181,1,0,0:0:0:0:
363,363,100346,6,0,P|274:334|136:320,1,215.759991440186,4|10,3:2|0:0,0:0:0:0:
31,4,101005,6,0,P|39:56|36:131,1,107.879995720093,0|0,3:0|3:0,0:0:0:0:
179,208,101335,1,10,0:0:0:0:
182,110,101499,6,0,P|152:195|164:361,1,215.759991440186,4|0,3:2|0:0,0:0:0:0:
483,48,102488,5,2,0:1:0:0:
460,71,102571,1,2,0:1:0:0:
430,72,102653,1,2,0:1:0:0:
412,94,102736,1,2,0:1:0:0:
371,81,102818,1,2,0:1:0:0:
331,123,102901,1,2,0:1:0:0:
300,68,102983,6,0,P|380:42|462:221,1,323.639987160279,4|0,3:2|0:0,0:0:0:0:
